#VERSION:0.83;
#TITLE:恋愛サーキュレーション;
#SUBTITLE:;
#ARTIST:花澤香菜;
#TITLETRANSLIT:Renai Circulation;
#SUBTITLETRANSLIT:;
#ARTISTTRANSLIT:Kana Hanazawa;
#GENRE:;
#ORIGIN:;
#CREDIT:vincentw;
#BANNER:[Scrabble] - Renai Circulation.png;
#BACKGROUND:[Scrabble] - Renai Circulation-bg.png;
#PREVIEWVID:;
#JACKET:[Scrabble] - Renai Circulation-jacket.png;
#CDIMAGE:;
#DISCIMAGE:;
#LYRICSPATH:;
#CDTITLE:cdtitle.png;
#MUSIC:[Scrabble] - Renai Circulation.ogg;
#OFFSET:0.000000;
#SAMPLESTART:41.972473;
#SAMPLELENGTH:16.000000;
#SELECTABLE:YES;
#BPMS:0.000=120.000;
#STOPS:;
#DELAYS:;
#WARPS:;
#TIMESIGNATURES:0.000=4=4;
#TICKCOUNTS:0.000=4;
#COMBOS:0.000=1;
#SPEEDS:0.000=1.000=0.000=0;
#SCROLLS:0.000=1.000;
#FAKES:;
#LABELS:0.000=Song Start;
#BGCHANGES:;
#KEYSOUNDS:;
#ATTACKS:
;

//---------------dance-single - ----------------
#NOTEDATA:;
#CHARTNAME:C 01 - X 02;
#STEPSTYPE:dance-single;
#DESCRIPTION:;
#CHARTSTYLE:;
#DIFFICULTY:Beginner;
#METER:1;
#RADARVALUES:0.100471,0.122253,0.000000,0.065934,0.000000,64.000000,64.000000,0.000000,6.000000,0.000000,0.000000,0.000000,0.000000,0.000000,0.100471,0.122253,0.000000,0.065934,0.000000,64.000000,64.000000,0.000000,6.000000,0.000000,0.000000,0.000000,0.000000,0.000000;
#CREDIT:vincentw;
#NOTES:
0000
0000
0000
0000
,
0000
0000
0000
0000
,
0000
0000
0000
0000
,
0000
0000
0000
0000
,
0000
0000
0000
0000
,
0001
0000
0000
0000
,
1000
0000
0000
0000
,
0001
0000
0000
0000
,
1000
0000
0000
0000
,
0010
0000
0000
0000
,
0100
0000
0000
0000
,
0010
0000
0000
0000
,
0100
0000
0000
0000
,
0001
0000
0001
0000
,
1000
0000
1000
0000
,
0100
0000
0100
0000
,
0010
0000
0010
0000
,
0001
0000
0100
0000
,
0001
0000
0100
0000
,
0010
0000
1000
0000
,
0010
0000
1000
0000
,
0001
0000
0000
0001
,
0000
0000
0001
0000
,
1000
0000
0010
0000
,
1000
0000
0010
0000
,
1000
0000
0000
1000
,
0000
0000
1000
0000
,
0001
0000
0100
0000
,
0001
0000
0100
0000
,
0002
0000
0003
0000
,
0020
0000
0030
0000
,
0200
0000
0300
0000
,
2000
0000
3000
0000
,
0001
0000
0001
0000
,
0100
0000
0100
0000
,
0010
0000
1000
0000
,
0020
0000
0030
0000
,
1000
0000
0001
0000
,
1000
0000
0001
0000
,
0100
0000
0010
0000
,
0100
0000
0010
0000
,
1000
0000
0100
0000
,
0010
0000
0001
0000
,
0010
0000
0100
0000
,
2000
0000
3000
0000
;

//---------------dance-single - vincentw attempting to be funny----------------
#NOTEDATA:;
#CHARTNAME:C 09 - X 14;
#STEPSTYPE:dance-single;
#DESCRIPTION:vincentw attempting to be funny;
#CHARTSTYLE:;
#DIFFICULTY:Challenge;
#METER:9;
#MUSIC:cha.ogg;
#RADARVALUES:0.665620,0.660165,0.824176,0.384615,0.450549,424.000000,349.000000,75.000000,35.000000,0.000000,0.000000,0.000000,0.000000,0.000000,0.665620,0.660165,0.824176,0.384615,0.450549,424.000000,349.000000,75.000000,35.000000,0.000000,0.000000,0.000000,0.000000,0.000000;
#CREDIT:vincentw;
#OFFSET:0.000000;
#BPMS:0.000000=120.000000
;
#STOPS:;
#DELAYS:;
#WARPS:;
#TIMESIGNATURES:0.000000=4=4
;
#TICKCOUNTS:0.000000=4
;
#COMBOS:0.000000=1
;
#SPEEDS:0.000000=1.000000=0.000000=0
;
#SCROLLS:0.000000=1.000000
;
#FAKES:;
#LABELS:0.000000=Song Start
;
#NOTES:
// measure 0
0000
0000
0000
0000
,  // measure 1
0000
0000
0000
0000
,  // measure 2
0000
0000
0000
0000
,  // measure 3
0000
0000
0000
0000
,  // measure 4
0000
0000
0000
0001
,  // measure 5
1001
0000
1000
0000
0001
0000
0110
0000
0010
0000
0100
0000
1001
0000
1000
0010
,  // measure 6
1000
0000
0001
0010
0001
0000
1000
0100
1000
0000
0001
0100
0001
0000
0000
0000
,  // measure 7
0101
0000
0100
0000
0001
0000
1010
0000
0010
0000
1000
0000
0101
0000
0001
0100
,  // measure 8
0001
0000
1000
0100
1000
0000
0001
0010
0001
0000
1000
0010
1000
0000
2020
0000
,  // measure 9
3030
0001
0010
0000
0100
0000
1000
0000
0010
0000
1000
0001
0010
0000
0022
0000
,  // measure 10
0033
0000
1000
0010
0001
0000
1000
0000
0100
0000
0001
0000
1000
0000
2200
0000
,  // measure 11
3300
0001
0100
0000
0010
0000
1000
0000
0100
0000
1000
0010
0100
0000
0001
0100
,  // measure 12
0001
0010
0100
1000
1001
0110
0101
0000
,  // measure 13
1100
1000
0100
0011
0001
0110
1001
0000
,  // measure 14
0001
0000
0000
0000
0000
0000
0000
0000
0000
0000
0000
0000
0010
0000
0000
0000
0000
0000
0000
0000
0000
0000
0000
0000
0100
0000
0000
0000
0000
0000
0000
0000
0000
0000
0000
0000
1000
0000
0000
0000
0000
0000
0000
0000
0000
0000
0000
0000
0001
0000
0000
0000
0000
0000
0000
0000
0000
0000
0000
0000
0000
0000
0000
0000
0000
0000
0000
0000
0000
0000
0000
0000
0100
0000
0000
0000
0000
0000
0000
0000
0000
0000
0000
0000
0000
0000
0000
0000
0000
0000
0000
0000
0000
0000
0000
0000
0010
0000
0000
0000
0000
0000
0000
0000
0000
0000
0000
0000
0000
0000
0000
0000
0000
0000
0000
0000
0000
0000
0000
0000
0120
0000
0000
0000
0000
0000
0000
0000
0000
0000
0000
0000
0000
0000
0000
0000
0000
0000
0000
0000
0000
0000
0000
0030
1010
0000
0000
0000
0000
0000
0000
0000
0000
0000
0000
0000
0000
0000
0000
0000
0000
0000
0000
0000
0000
0000
0000
0000
0000
0000
0000
0000
0000
0000
0000
0000
0000
0000
0000
0000
0000
0000
0000
0000
0000
0000
0000
0000
0000
0000
0000
0000
,  // measure 15
0110
0000
0100
0000
0001
0000
0011
0000
0010
0000
0110
0000
0100
1000
0001
0000
,  // measure 16
0100
0000
1000
0000
0100
0000
0001
0000
0100
0010
1000
0000
0100
0000
0010
0000
,  // measure 17
0001
0000
1000
0100
0010
0100
1000
0000
0001
0000
1010
0000
0011
0000
0001
0100
,  // measure 18
0010
0100
0001
0000
1000
0000
0100
0000
1000
0001
0010
0000
1002
0000
0203
0000
,  // measure 19
0000
0301
0100
0001
0010
0000
1000
0000
0001
0100
1000
0000
1100
0000
0000
0010
,  // measure 20
0001
0100
0010
1000
0100
1000
0010
0001
1000
0100
0001
0000
0011
0000
0000
0000
,  // measure 21
1100
1000
1010
0010
0011
0000
0011
0001
,  // measure 22
0101
0100
1100
0000
2000
3200
0302
0023
,  // measure 23
1030
0010
0000
0010
0000
0010
0100
0000
0001
0010
0000
0010
0000
0010
0100
0000
,  // measure 24
2000
0000
0000
3010
0000
0001
0010
0000
1000
0000
1010
0000
1001
0000
0000
0000
,  // measure 25
0101
0001
0011
0010
1010
0000
1010
1000
,  // measure 26
1100
0100
0101
0000
0002
0203
2300
3020
,  // measure 27
0031
0100
0000
0100
0000
0100
0010
0000
1000
0100
0000
0100
0000
0100
0010
0000
,  // measure 28
0002
0000
0000
0103
0000
1000
0100
0000
0001
0000
0100
0000
0101
0000
0022
0000
,  // measure 29
0033
1000
0010
0000
0100
0000
0010
0000
0001
0000
0010
0100
0010
0000
2020
0000
,  // measure 30
3030
0000
0001
0010
1000
0000
0001
0000
1000
0000
0010
0000
0001
0000
0202
0000
,  // measure 31
0303
1000
0100
0000
0010
0000
0100
0000
0001
0000
0100
0010
0100
0000
1000
0100
,  // measure 32
1000
0000
0000
0000
0000
0000
0000
0000
0000
0000
0000
0000
0000
0000
0000
0000
0000
0000
0000
0000
0000
0000
0000
0000
0010
0000
0000
0000
0000
0000
0000
0000
0000
0000
0000
0000
0000
0000
0000
0000
0000
0000
0000
0000
0000
0000
0000
0000
0100
0000
0000
0000
0000
0000
0000
0000
0000
0000
0000
0000
0000
0000
0000
0000
0000
0000
0000
0000
0000
0000
0000
0000
0001
0000
0000
0000
0000
0000
0000
0000
0000
0000
0000
0000
0000
0000
0000
0000
0000
0000
0000
0000
0000
0000
0000
0000
1001
0000
0000
0000
0000
0000
0000
0000
0000
0000
0000
0000
0000
0000
0000
0000
0000
0000
0000
0000
0000
0000
0000
0000
0110
0000
0000
0000
0000
0000
0000
0000
0000
0000
0000
0000
0000
0000
0000
0000
0000
0000
0000
0000
0000
0000
0000
0000
1010
0000
0000
0000
0000
0000
0000
0000
0000
0000
0000
0000
0000
0000
0000
0000
0000
0000
0000
0000
0000
0000
0000
0000
0000
0000
0000
0000
0000
0000
0000
0000
0000
0000
0000
0000
0000
0000
0000
0000
0000
0000
0000
0000
0000
0000
0000
0011
,  // measure 33
1000
0000
0000
0000
0000
0000
0000
0000
0000
0000
0000
0000
0000
0000
0000
0000
0000
0000
0000
0000
0000
0000
0000
0000
0000
0000
0000
0000
0000
0000
0000
0000
0000
0000
0000
0000
0000
0000
0000
0000
0000
0000
0000
0000
0000
0000
0000
0011
0100
0000
0000
0000
0000
0000
0000
0000
0000
0000
0000
0000
0000
0000
0000
0000
0000
0000
0000
0000
0000
0000
0000
0000
0000
0000
0000
0000
0000
0000
0000
0000
0000
0000
0000
0000
0000
0000
0000
0000
0000
0000
0000
0000
0000
0000
0000
1100
0001
0000
0000
0000
0000
0000
0000
0000
0000
0000
0000
0000
0000
0000
0000
0000
0000
0000
0000
0000
0000
0000
0000
0000
0000
0000
0000
0000
0000
0000
0000
0000
0000
0000
0000
0000
0000
0000
0000
0000
0000
0000
0000
0000
0000
0000
0000
1100
0010
0000
0000
0000
0000
0000
0000
0000
0000
0000
0000
0000
0000
0000
0000
0000
0000
0000
0000
0000
0000
0000
0000
0000
0000
0000
0000
0000
0000
0000
0000
0000
0000
0000
0000
0000
0000
0000
0000
0000
0000
0000
0000
0000
0000
0000
0000
0000
,  // measure 34
0001
0000
0000
0000
0000
0000
0000
0000
0000
0000
0000
0000
0100
0000
0000
0000
0000
0000
0000
0000
0000
0000
0000
0000
0010
0000
0000
0000
0000
0000
0000
0000
0000
0000
0000
0000
1000
0000
0000
0000
0000
0000
0000
0000
0000
0000
0000
0000
0001
0000
0000
0000
0000
0000
0000
0000
0000
0000
0000
0000
0000
0000
0000
0000
0000
0000
0000
0000
0000
0000
0000
0000
0010
0000
0000
0000
0000
0000
0000
0000
0000
0000
0000
0000
0000
0000
0000
0000
0000
0000
0000
0000
0000
0000
0000
0000
0100
0000
0000
0000
0000
0000
0000
0000
0000
0000
0000
0000
0000
0000
0000
0000
0000
0000
0000
0000
0000
0000
0000
0000
0120
0000
0000
0000
0000
0000
0000
0000
0000
0000
0000
0000
0000
0000
0000
0000
0000
0000
0000
0000
0000
0000
0000
0030
0000
0000
0000
0000
0000
0000
0000
0000
0000
0000
0000
0000
0000
0000
0000
0000
0000
0000
0000
0000
0000
0000
0000
0000
1001
0000
0000
0000
0000
0000
0000
0000
0000
0000
0000
0000
0000
0000
0000
0000
0000
0000
0000
0000
0000
0000
0000
0101
,  // measure 35
1000
0000
0000
0000
0000
0000
0000
0000
0000
0000
0000
0000
0000
0000
0000
0000
0000
0000
0000
0000
0000
0000
0000
0000
0000
0000
0000
0000
0000
0000
0000
0000
0000
0000
0000
0000
0000
0000
0000
0000
0000
0000
0000
0000
0000
0000
0000
0101
0010
0000
0000
0000
0000
0000
0000
0000
0000
0000
0000
0000
0000
0000
0000
0000
0000
0000
0000
0000
0000
0000
0000
0000
0000
0000
0000
0000
0000
0000
0000
0000
0000
0000
0000
0000
0000
0000
0000
0000
0000
0000
0000
0000
0000
0000
0000
1010
0001
0000
0000
0000
0000
0000
0000
0000
0000
0000
0000
0000
0000
0000
0000
0000
0000
0000
0000
0000
0000
0000
0000
0000
0000
0000
0000
0000
0000
0000
0000
0000
0000
0000
0000
0000
0000
0000
0000
0000
0000
0000
0000
0000
0000
0000
0000
1010
0100
0000
0000
0000
0000
0000
0000
0000
0000
0000
0000
0000
0000
0000
0000
0000
0000
0000
0000
0000
0000
0000
0000
0000
0000
0000
0000
0000
0000
0000
0000
0000
0000
0000
0000
0000
0000
0000
0000
0000
0000
0000
0000
0000
0000
0000
0000
0000
,  // measure 36
2100
0000
0000
3001
0000
0010
0001
0000
0101
0000
1010
0000
1001
0000
0000
0000
,  // measure 37
1000
0000
0001
0100
0010
0100
1000
0000
0001
0000
0011
0000
1010
0000
1000
0100
,  // measure 38
0010
0100
0001
0000
1000
0000
0010
0000
0001
1000
0001
0000
2001
0000
3200
0000
,  // measure 39
0000
0301
0100
1000
0010
0000
0001
0000
1000
0100
0001
0000
0100
0000
0000
0010
,  // measure 40
1000
0100
0001
1000
0010
0001
0100
1000
0001
0010
1000
0000
1010
0000
0000
0000
,  // measure 41
0101
1000
0010
1100
0010
0001
0202
0303
,  // measure 42
0011
1000
0100
1010
0001
0100
0022
0033
,  // measure 43
0110
1000
0001
1001
0100
0010
0220
0330
,  // measure 44
1001
0000
0000
1000
0000
0010
0100
0000
0001
0000
0000
0000
0000
0000
0000
0000
;

//---------------dance-single - ----------------
#NOTEDATA:;
#CHARTNAME:C 03 - X 04;
#STEPSTYPE:dance-single;
#DESCRIPTION:;
#CHARTSTYLE:;
#DIFFICULTY:Easy;
#METER:3;
#RADARVALUES:0.182104,0.220055,0.010989,0.373626,0.000000,116.000000,115.000000,1.000000,34.000000,0.000000,0.000000,0.000000,0.000000,0.000000,0.182104,0.220055,0.010989,0.373626,0.000000,116.000000,115.000000,1.000000,34.000000,0.000000,0.000000,0.000000,0.000000,0.000000;
#CREDIT:vincentw;
#NOTES:
0000
0000
0000
0000
,
0000
0000
0000
0000
,
0000
0000
0000
0000
,
0000
0000
0000
0000
,
0000
0000
0000
0000
,
1001
0000
0001
0000
,
1000
0000
1000
0000
,
0020
0000
0000
0030
0000
0000
0000
0000
0020
0000
0000
0030
0000
0000
0000
0000
,
0100
0000
0100
0000
,
0001
0000
0000
0000
0001
0000
0000
0000
0002
0000
0000
0003
0000
0000
0000
0000
,
0010
0000
0000
0000
0010
0000
0000
0000
0020
0000
0000
0030
0000
0000
0000
0000
,
0200
0000
0000
0300
0000
0000
0000
0000
0200
0000
0000
0300
0000
0000
0000
0000
,
1000
1000
1000
0000
,
0001
0000
0100
0100
,
0001
0000
0010
0010
,
0200
0000
0000
0300
0000
0000
0000
0000
0020
0000
0000
0030
0000
0000
0000
0000
,
0001
1000
0001
0000
,
1000
0000
0100
0100
,
1000
0000
0010
0010
,
0100
0000
0010
0000
,
1000
0001
1000
0000
,
0001
0001
0001
1000
,
1000
1000
0100
0100
,
0010
0000
0001
0000
,
0010
0001
0100
0000
,
0010
0010
0010
0100
,
0200
0010
0302
2003
,
3002
0000
0023
0000
,
0032
0010
2003
0000
,
3002
0023
0230
2300
,
3200
0320
0000
0030
,
0001
1000
0001
0000
,
0010
0100
0010
0000
,
0002
0203
0320
2030
,
3020
0230
0000
0300
,
0001
0100
0010
0100
,
0002
0000
0003
0000
,
1000
0000
0000
0000
0100
0000
0000
0000
0020
0000
0000
0030
0000
0000
0000
0000
,
0010
0000
0000
0000
0100
0000
0000
0000
2000
0000
0000
3000
0000
0000
0000
0000
,
0001
0000
0000
0000
0010
0000
0000
0000
0200
0000
0000
0300
0000
0000
0000
0000
,
0100
0010
0001
0001
,
1000
0000
0000
0000
0010
0000
0000
0000
0200
0000
0000
0300
0000
0000
0000
0000
,
0100
0000
0000
0000
0010
0000
0000
0000
2000
0000
0000
3000
0000
0000
0000
0000
,
0001
0100
0010
1000
,
0020
0000
0130
0000
;

//---------------dance-single - ----------------
#NOTEDATA:;
#CHARTNAME:C 06 - X 09;
#STEPSTYPE:dance-single;
#DESCRIPTION:;
#CHARTSTYLE:;
#DIFFICULTY:Medium;
#METER:6;
#RADARVALUES:0.331240,0.391209,0.142857,0.230769,0.082418,211.000000,198.000000,13.000000,21.000000,0.000000,0.000000,0.000000,0.000000,0.000000,0.331240,0.391209,0.142857,0.230769,0.082418,211.000000,198.000000,13.000000,21.000000,0.000000,0.000000,0.000000,0.000000,0.000000;
#CREDIT:vincentw;
#NOTES:
0000
0000
0000
0000
,
0000
0000
0000
0000
,
0000
0000
0000
0000
,
0000
0000
0000
0000
,
0000
0000
0000
0000
,
1001
1000
0010
0100
,
0001
0010
0100
1000
,
0001
1000
0010
0100
,
0010
0000
1000
0000
0100
1000
1000
0000
,
0001
0100
0010
1000
,
0100
0010
0001
1000
,
0001
0100
0010
0100
,
0001
0010
0002
0003
,
1000
0000
0010
0000
0100
0010
1000
0000
,
0001
0000
0010
0000
0100
0010
0001
0000
,
1000
0001
0010
0000
0001
1000
0100
0000
,
1000
0000
0010
0000
0001
0010
1000
0000
,
0001
0000
0100
0000
0010
0100
0001
0000
,
1000
0000
0100
0000
0010
0100
1000
0000
,
0001
1000
0010
0000
1000
0001
0100
0000
,
0001
0010
1000
0010
0001
0000
1000
0000
,
0001
0010
0001
0010
0100
0000
1000
0010
,
1000
0010
0100
0000
0001
0010
0100
1000
,
0001
0000
0000
0100
0000
0000
0001
0000
1000
0000
0000
0010
0000
0000
1000
0000
,
0001
0000
0000
0100
0000
0000
1000
0000
0100
0000
0001
0000
0001
0000
0000
0000
,
1000
0100
1000
0100
0010
0000
0001
0100
,
0001
0100
0010
0000
1000
0010
0100
0001
,
1000
0000
0000
0100
0000
0000
1000
0000
0001
0000
0000
0010
0000
0000
0001
0000
,
1000
0000
0000
0100
0000
0000
0001
0000
0100
0000
0000
0000
1000
0000
0000
0000
,
0200
0000
0302
0000
0023
0000
2030
0001
,
3001
0100
0001
0020
0000
0000
0030
0010
,
0002
0000
0203
0000
2300
0000
3100
0010
,
0100
0001
1000
0002
0000
0010
0013
0000
,
0020
0000
2030
0000
3200
0000
0302
1000
,
2003
3010
1000
0200
0000
0000
0300
0100
,
2000
3020
0032
0023
,
2030
0000
3000
0001
,
1000
0000
0000
0000
0100
0000
0000
0000
1100
0000
0000
1100
0000
0000
0000
0000
,
0001
0000
0000
0000
0100
0000
0000
0000
0101
0000
0000
0101
0000
0000
0000
0000
,
1000
0000
0000
0000
0001
0000
0000
0000
1001
0000
0000
1001
0000
0000
0000
0000
,
1000
0000
0010
0000
0100
0001
0001
0000
,
1000
0000
0000
0000
0010
0000
0000
0000
1010
0000
0000
1010
0000
0000
0000
0000
,
0001
0000
0000
0000
0010
0000
0000
0000
0011
0000
0000
0011
0000
0000
0000
0000
,
0100
0000
0000
1000
0000
0000
0010
0000
0100
0000
0000
0001
0000
0000
0010
0000
,
0110
0000
0000
0100
0000
0010
0000
0000
0110
0000
0000
0000
0000
0000
0000
0000
;

//---------------dance-single - ----------------
#NOTEDATA:;
#CHARTNAME:C 08 - X 12;
#STEPSTYPE:dance-single;
#DESCRIPTION:;
#CHARTSTYLE:;
#DIFFICULTY:Hard;
#METER:8;
#RADARVALUES:0.540031,0.635714,0.318681,0.252747,0.571429,344.000000,315.000000,29.000000,23.000000,0.000000,0.000000,0.000000,0.000000,0.000000,0.540031,0.635714,0.318681,0.252747,0.571429,344.000000,315.000000,29.000000,23.000000,0.000000,0.000000,0.000000,0.000000,0.000000;
#CREDIT:vincentw;
#NOTES:
// measure 0
0000
0000
0000
0000
,  // measure 1
0000
0000
0000
0000
,  // measure 2
0000
0000
0000
0000
,  // measure 3
0000
0000
0000
0000
,  // measure 4
0000
0000
0000
1000
,  // measure 5
2001
0000
0000
3001
0000
0010
0100
0000
0020
0000
0000
0031
0000
0000
1000
0010
,  // measure 6
2000
0000
0000
3100
0000
1000
0001
0000
0020
0000
0000
0031
0000
0000
1000
0000
,  // measure 7
0010
0000
1000
0010
0000
0000
0100
0000
0001
0000
0100
0001
0000
0000
1000
0000
,  // measure 8
0100
1000
0000
0020
0000
0000
0130
0000
0001
0000
0010
0000
0010
0000
0000
0000
,  // measure 9
0002
0000
0000
1003
0000
0010
0100
0000
0020
0000
0000
1030
0000
0000
0001
0010
,  // measure 10
0002
0000
0000
0103
0000
0001
1000
0000
0020
0000
0000
1030
0000
0000
0001
0000
,  // measure 11
0010
0000
0001
0010
0000
0000
0100
0000
1000
0000
0100
1000
0000
0000
0001
0000
,  // measure 12
0100
0001
0000
0020
0000
0000
0130
0000
2000
0000
0000
0000
3010
0000
0000
0000
,  // measure 13
1000
0000
0001
0100
0001
0000
1000
0100
1000
0000
0010
0000
0101
0000
0000
0000
,  // measure 14
0001
0000
1000
0010
1000
0000
0001
0010
0001
0000
0100
0000
1010
0000
0000
0100
,  // measure 15
0010
0000
1000
0100
0010
0000
0000
0010
0001
1000
0010
0000
1010
0000
0000
0000
,  // measure 16
0001
0010
0000
0010
0001
0000
1000
0010
0100
0000
0110
0000
1001
0000
0001
0000
,  // measure 17
1000
0100
0010
0100
0001
0000
1000
0000
0010
0001
0010
0000
0011
0000
1000
0000
,  // measure 18
0001
0100
0000
0010
0100
1000
0100
0000
0001
0000
1000
0000
1001
0000
0000
0000
,  // measure 19
1000
0100
1000
0000
0100
0010
0100
0000
0010
0000
0001
0000
0011
0000
0000
0000
,  // measure 20
0010
0000
0010
0001
0100
0000
0010
1000
0100
0001
0100
1000
0010
0000
0000
0000
,  // measure 21
1010
0000
0000
0000
1000
0000
0000
1000
0010
0000
0010
0000
1000
0000
0000
0000
,  // measure 22
0010
0000
0000
0000
0100
0000
0000
0100
0010
0000
0010
0000
0100
0000
0000
0000
,  // measure 23
0001
0000
0000
0000
0100
0000
0000
0100
0001
0000
0001
0000
0100
0000
0000
0000
,  // measure 24
0001
0000
0000
0001
0000
0100
0010
0000
1000
0000
1010
0000
0101
0000
0000
0000
,  // measure 25
0011
0000
0010
0000
0001
0000
1000
0001
0010
0000
0010
0000
0001
0000
0000
0000
,  // measure 26
1000
0000
1000
0000
0001
0000
0100
0001
1000
0000
1000
0000
0001
0000
0000
0000
,  // measure 27
1000
0000
1000
0000
0100
0000
0010
0100
1000
0000
1000
0000
0100
0000
0000
0000
,  // measure 28
1000
0001
0000
0010
0000
0100
1000
0000
0001
0000
0001
0000
1000
0000
0000
0000
,  // measure 29
0020
0000
0000
0130
0000
0001
1000
0000
0002
0000
0000
0013
0000
0000
0001
1000
,  // measure 30
0200
0000
0000
1300
0000
0010
0100
0000
0002
0000
0000
0013
0000
0000
0001
0000
,  // measure 31
0100
0000
1000
0100
0000
0000
0001
0000
0010
0000
1000
0010
0000
0000
0100
0000
,  // measure 32
1000
0010
0000
2000
0000
0000
3001
0000
0010
0000
0011
0000
1010
0000
0000
0000
,  // measure 33
0200
0000
0000
0310
0000
1000
0001
0000
2000
0000
0000
3100
0000
0000
1000
0001
,  // measure 34
0020
0000
0000
0031
0000
0100
0010
0000
2000
0000
0000
3100
0000
0000
1000
0000
,  // measure 35
0010
0000
0001
0010
0000
0000
1000
0000
0100
0000
0001
0100
0000
0000
0010
0000
,  // measure 36
0001
0100
0000
0002
0000
0000
1003
0000
0100
0000
0100
0000
1000
0000
0000
0000
,  // measure 37
1001
0000
0000
0001
0000
1000
0100
0000
1100
0000
0000
0101
0000
0000
0001
0000
,  // measure 38
2000
0000
0000
3100
0000
1000
0010
0000
1010
0000
0000
0011
0000
0000
0001
0100
,  // measure 39
0010
0000
0000
1000
0000
0100
0010
0000
0110
0000
0000
1001
0000
1000
0100
0000
,  // measure 40
0010
0000
0010
0001
0000
0001
1000
0000
0010
0000
1010
0000
0011
0000
1000
0000
,  // measure 41
0010
0000
0000
0100
0000
0010
1000
0000
1010
0000
0000
1100
0000
0000
0100
0000
,  // measure 42
0020
0000
0000
1030
0000
0010
0001
0000
0011
0000
0000
0101
0000
0000
1000
0100
,  // measure 43
1000
0000
0000
0010
0000
1000
0001
0000
0010
0000
0000
0100
0000
1000
0001
0000
,  // measure 44
1001
0000
0000
1000
0000
0010
0100
0000
0001
0000
0000
0000
0000
0000
0000
0000
;
