#TITLE:虹色遊園地;
#SUBTITLE:;
#ARTIST:Mutsuhiko Izumi VS DJ TOTTO;
#TITLETRANSLIT:Nijiiro yuenchi;
#SUBTITLETRANSLIT:;
#ARTISTTRANSLIT:;
#GENRE:;
#CREDIT:;
#BANNER:Nijiiro yuenchi-bn.png;
#BACKGROUND:Nijiiro yuenchi-bg.png;
#LYRICSPATH:;
#CDTITLE:;
#MUSIC:Nijiiro yuenchi.ogg;
#OFFSET:-0.760000;
#SAMPLESTART:36.681000;
#SAMPLELENGTH:10.000000;
#SELECTABLE:YES;
#BPMS:0.000000=165.000000
,22.000000=170.000000
,23.000000=180.000000
,24.000000=190.000000
,25.000000=200.000000
,27.000000=220.000000
,329.000000=110.000000
,345.000000=220.000000
;
#STOPS:
;
#BGCHANGES:;
#KEYSOUNDS:;
#ATTACKS:;

//---------------dance-single - ----------------
#NOTES:
     dance-single:
     :
     Hard:
     10:
     0.911219,1.000000,0.117037,0.693864,0.514128,666.000000,14.000000,83.000000,0.000000,0.000000,0.000000,0.911219,1.000000,0.117037,0.693864,0.514128,666.000000,14.000000,83.000000,0.000000,0.000000,0.000000:
0000
0000
0000
0000
,
0000
0000
0000
0000
,
0000
0000
0000
0000
,
0000
0000
0000
0000
,
0000
0000
0000
0000
,
2002
0000
0000
0000
,
3003
0000
0001
0000
1000
0001
0000
0010
,
0100
1000
0001
0100
0001
0200
0000
0320
,
0000
1030
0001
0010
0001
0020
0000
0230
,
0000
1300
0001
0100
0001
0200
0000
0320
,
0000
0000
1030
0001
1000
0000
0100
0000
1000
0000
0001
0000
0000
0000
0022
0000
,
0000
0033
1000
0010
1000
0020
0000
0230
,
0000
0301
1000
0100
1000
0200
0000
0320
,
0000
0000
0031
0000
1000
0010
1000
0010
1000
0000
0000
0000
0001
0100
0001
0100
,
0001
0000
1000
0000
0001
0010
0000
0100
,
0010
0001
1000
0100
1000
0002
0000
0203
,
0000
0301
0010
0001
0100
0020
0000
2030
,
0000
3100
0010
0100
1000
0002
0000
0203
,
0000
0000
0310
1000
0010
0000
1000
0000
0100
0000
0010
0000
0001
0000
0010
0000
,
0100
1000
0100
1000
0100
0000
1000
0000
0001
0000
0200
0000
0000
0000
0320
0000
,
0000
1030
0001
0100
0001
2000
0000
3200
,
0000
0000
0310
0000
0001
0010
0001
0010
0001
0000
0000
0000
1000
0100
1000
0100
,
1000
0000
0000
0000
0001
0000
0000
0000
0010
0000
0001
0000
0000
0000
0100
0010
,
0100
0010
1000
0100
0010
0001
1000
0010
,
0100
0001
0010
0100
1000
0001
0100
0010
,
1000
0001
1000
0010
0100
0001
0010
0100
,
1000
0000
0001
0000
0010
0000
0100
0010
0100
0000
1000
0000
0001
0000
0100
0000
,
1000
0000
0100
0010
1000
0100
0010
0001
,
1000
0001
0001
0100
0010
1000
0100
0010
,
0001
0000
1000
0000
0100
1000
0100
1000
0100
0000
0010
0000
0001
0010
0001
0010
,
0001
0000
1000
0000
0001
1000
0001
1000
0001
1000
0002
0000
0000
0000
0103
0000
,
0010
1000
0001
0100
0001
0002
0000
0023
,
0000
0130
1000
0100
1000
2000
0000
3020
,
0000
1030
0001
0100
0001
0002
0000
0023
,
0000
0000
0130
0010
0100
0000
1000
0000
0001
0000
0100
0000
0000
0000
2010
0000
,
0000
0000
3100
1000
0100
0200
0000
2300
,
0000
3010
0100
0001
0100
0200
0000
0320
,
0000
0000
1030
0000
0100
0010
0100
0010
0100
0000
0000
0000
1000
0001
1000
0001
,
1000
0000
0010
0000
0100
0100
0000
0010
,
0100
0010
1000
1000
0100
1000
0001
0100
,
1000
0100
0100
0100
1000
0100
0001
1000
,
0100
0010
0010
0010
0100
0010
0001
1000
,
0010
0000
0100
0000
0010
0100
0010
0000
1000
0010
1000
0000
0001
1000
0001
0000
,
0010
0001
0010
0000
0100
0000
0100
0000
1000
0000
0100
0000
0001
0000
0100
0000
,
1000
0010
0010
0010
1000
0010
0001
0010
,
1000
0001
0001
0001
0010
1000
0010
0001
,
0100
0010
0000
0110
0000
1001
0000
0110
,
1000
0000
0001
0000
1000
0000
0200
0000
0000
0000
0000
0000
0310
0000
0000
0002
0000
0000
0000
0000
0000
2003
0000
0000
,
0000
3001
0200
0000
0310
2000
0000
0100
,
0000
3001
0010
0100
0020
0000
0130
1000
,
0001
0000
0000
0000
1000
0000
0000
0000
0001
0000
0000
0000
0020
0000
0000
0000
0000
0000
0000
0000
0000
0000
0000
0000
0031
0000
0000
1000
0000
0000
0002
0000
0000
0000
0000
0000
0000
0000
0000
0000
0000
0000
0103
0000
0000
0000
0000
0000
,
0010
0000
1000
0000
0001
0000
0200
0000
0000
0000
0000
0000
0310
0000
0000
2000
0000
0000
0000
0000
0000
3002
0000
0000
,
0000
0000
1003
0000
0200
0000
0000
0000
0310
0001
0020
0000
0000
0000
0230
0000
,
0000
0000
0000
1300
0000
0000
0001
0000
0100
0000
0001
0000
0100
0000
0010
0000
0100
0000
0010
0000
1000
0000
0010
0000
,
1000
0000
0001
0000
1000
0000
0100
0000
0000
0010
0000
0000
0001
0000
0000
2000
0000
0000
0000
0000
0000
3010
0000
0000
,
1000
0001
0200
0000
0310
2000
0000
3001
,
2000
0000
0000
0000
3200
0000
0000
0000
0310
0001
0020
0000
0000
0000
0031
0000
,
1000
0010
0200
0000
0310
2000
0000
3001
,
1000
0000
1100
0000
0001
2000
0000
0000
,
3000
0000
0200
0000
0310
0002
0000
0013
,
0200
0000
0000
0000
2300
0000
0000
0000
3001
0100
0002
0000
0000
0000
0103
0000
,
0010
0000
0000
1000
0000
0000
0001
0000
0010
0000
0001
0000
1000
0000
0001
0000
1000
0000
0100
0000
1000
0000
0100
0000
,
0010
0000
0000
0000
0001
0000
0000
0000
1000
0000
0000
0000
0010
0000
0000
0000
0000
0000
0100
0000
0000
0010
0000
0000
0100
0000
0000
0000
0000
0000
0001
0000
0000
0000
0000
0000
0000
0000
0000
0000
0000
0000
1000
0000
0000
0001
0000
0000
,
1000
0001
1000
0000
0010
0000
0100
0000
0001
0000
1000
0000
0100
0000
0010
0000
,
0001
1000
1000
0010
0100
0001
1000
0100
,
0010
0001
0001
0100
0010
1000
0100
0010
,
0001
0000
1000
0000
0001
0000
0010
0100
0010
0000
0100
0000
1000
0000
0001
0000
,
0100
0000
0010
1000
0001
0010
0100
1000
,
0010
0100
1000
0100
0001
0010
0100
1000
,
0010
0100
0102
0000
0000
0000
0000
0000
,
0000
0000
0000
0000
,
0000
0000
0000
0000
0000
0000
0000
0000
0000
0000
0000
0000
0000
0000
0000
0000
0003
0000
0000
0000
0000
0000
0000
0000
0000
0000
0000
0000
0000
0000
0000
0000
0000
0000
0000
0000
0000
0000
0000
0000
0000
1000
0000
0000
0000
0000
0000
0000
0000
0000
0000
0000
0000
0000
0100
0000
0000
0000
0000
0000
0000
0000
0000
0000
,
0000
0000
0000
0000
0000
0000
0000
0010
0000
0000
0000
0000
0000
0000
0001
0000
0000
0000
0000
0000
0000
0000
0000
0000
0000
0000
0000
0000
1000
0000
0000
0000
,
0000
0000
0000
0000
0010
0000
0000
0000
0000
0000
0000
0000
0000
0000
0000
0000
0000
0000
0000
0100
0000
0000
0000
0000
0000
0000
0000
0000
0000
0000
0000
0000
,
0001
1000
0002
0000
0000
0000
0000
0000
,
0000
0000
0000
0000
,
0003
0000
1000
0001
1000
0000
0001
0100
,
0001
0000
0100
0010
0100
0010
1000
0100
,
0010
0000
0100
1000
0100
0000
1000
0001
,
1000
0000
0001
0100
0001
0100
0010
1000
,
0001
0000
0010
0100
0020
0000
0000
0000
0000
0000
0000
0000
0000
0000
0000
0000
,
0000
0000
0200
0000
0000
0000
0330
1000
,
0001
0000
1000
0000
0100
0100
1000
0002
0000
2003
0000
3001
0100
0100
0001
2000
,
0000
0000
3002
0000
0000
0000
0013
0000
0100
0000
0100
0000
0010
0000
0002
0000
0000
0000
2003
0000
0000
0000
3001
0100
0001
0000
0100
0000
0010
0000
2000
0000
,
0000
3002
0000
0003
0100
0100
0010
2000
0000
3002
0000
1003
0100
0100
0010
0002
,
0000
0000
2003
0000
0000
0000
3001
0000
0100
0010
0100
0010
0100
0000
0000
0000
0001
1000
0001
1000
0001
0000
0000
0000
0010
0000
0100
0000
1000
0000
0001
0000
,
0100
0010
0100
0010
0100
0010
0100
0010
1000
0000
0000
0000
0001
0000
0000
0000
1000
0000
0000
0000
0100
0000
0000
0000
0010
0000
0000
0000
0100
0000
0000
0000
,
1000
0001
1000
0010
0100
0010
0001
0010
,
1000
0001
1000
0100
0001
0100
0010
0001
,
1000
0000
0001
0000
0100
0000
0010
1000
0010
0000
0100
0000
0001
0000
0010
0000
,
0100
0000
0010
1000
0010
0001
0010
0100
,
1000
0001
0100
1000
0100
0001
0100
0010
,
1000
0001
1000
0100
0001
0100
0010
0001
,
0100
0000
0010
0000
0001
0000
0010
0000
1000
0000
0001
0000
0100
0010
0100
0010
,
0100
0000
0000
0010
0000
0000
1000
0000
0100
0000
1000
0000
0001
0000
0100
0000
0001
0000
1000
0000
0100
0000
1000
0000
,
0001
0100
0001
0100
0010
1000
0100
0010
0001
0100
0010
1000
,
0100
0010
0001
2000
0000
0000
0000
0000
0000
0000
0000
0000
,
0000
0000
3001
0001
0001
1100
0000
0110
,
0000
0011
0000
0101
2002
0000
0000
0000
,
0000
0000
0000
0000
,
3003
0000
1001
0100
0000
0000
0000
0000
;

//---------------dance-single - ----------------
#NOTES:
     dance-single:
     :
     Easy:
     5:
     0.351112,0.671292,0.183916,0.208995,0.000000,247.000000,22.000000,25.000000,0.000000,0.000000,0.000000,0.351112,0.671292,0.183916,0.208995,0.000000,247.000000,22.000000,25.000000,0.000000,0.000000,0.000000:
0000
0000
0000
0000
,
0000
0000
0000
0000
,
0000
0000
0000
0000
,
0000
0000
0000
0000
,
0000
0000
0000
0000
,
2002
0000
0000
3003
,
0000
0000
0000
0000
,
0000
0001
0000
1000
,
0000
0100
0000
1000
,
0000
0001
0000
0100
,
0000
0010
0010
0010
,
0000
1000
0000
0001
,
0000
1000
0000
0100
,
0000
0110
0000
1001
,
0000
0220
0000
0330
,
0000
0001
0000
0100
,
0000
0010
0000
1000
,
0000
0001
0000
0010
,
0000
0100
0100
0100
,
0000
1000
0000
0001
,
0000
0100
0000
0010
,
0000
1010
0000
0101
,
0000
2200
0000
3300
,
0000
0001
0100
0001
,
0000
0100
0010
1000
,
0000
0100
0010
0001
,
0000
1000
0001
1001
,
0000
1000
0100
0010
,
0000
0001
1000
0010
,
0000
0200
0000
0302
,
0000
2003
0000
3100
,
0010
0001
0001
0000
,
1000
0000
0010
0000
,
0100
0001
1000
0000
,
0100
0010
0010
0010
,
0010
0001
1000
0000
,
0010
0000
0100
0000
,
0001
1001
0000
0110
,
0000
2002
0000
3003
,
0000
0001
0001
0001
,
0000
1000
1000
1000
,
0000
0100
0100
0100
,
0000
0010
0010
0010
,
0010
0001
1000
0010
,
0000
1000
0001
0010
,
0000
0001
1000
0100
,
1000
0000
1001
1001
,
1001
0001
0100
0010
,
0000
1000
0001
1000
,
0000
0100
0010
0001
,
1000
0001
0100
0100
,
0000
0010
1000
0001
,
0000
1000
0100
0010
,
0000
0100
1000
0001
,
0100
0010
0100
0110
,
0000
1000
0100
0000
,
0100
0010
0001
0000
,
0001
1000
0010
0100
,
0001
1001
0000
0000
,
0000
0001
0100
0000
,
0100
0010
1000
0000
,
1000
0100
0010
0001
,
1000
0001
0100
0101
,
0000
1000
0100
0010
,
0001
1000
0010
0100
,
0001
0001
0010
0100
,
1000
0001
0100
0010
,
0000
0010
1000
0100
,
0010
0001
1000
0010
,
0100
0002
0000
0000
,
0000
0000
0000
0000
,
0000
0003
0000
0000
,
0000
0000
0000
0000
,
0000
0000
0000
0000
,
2000
0000
0000
0000
,
0000
0000
0000
3000
,
0000
0002
0000
0000
,
0000
2003
0000
0000
,
0000
3200
0000
0000
,
0000
0320
0000
0000
,
0000
0032
0000
0000
,
0000
2003
0000
0000
,
0000
3000
0001
0100
0000
0100
0001
1000
,
0000
1000
0100
0010
0000
0010
0001
1000
,
1001
0000
1000
0100
0000
0100
0010
0001
,
0000
0001
1001
0000
0110
0000
2002
0000
,
3003
1000
1000
0100
,
0010
0001
1000
0001
,
0100
0010
0010
1000
,
0001
0010
0100
1000
,
0010
0100
0100
0001
,
1000
0001
0010
0100
,
1000
0001
0001
0100
,
0001
0010
0100
1000
,
0001
2002
0000
0000
,
0000
0000
0000
0000
,
3003
0200
0000
0000
,
0000
0300
0001
1000
0001
1000
0000
0001
,
0000
1000
0000
0100
0020
0000
0000
0000
,
0000
0000
0000
0030
,
0000
0000
0000
0100
0000
0000
0000
0000
;

//---------------dance-single - ----------------
#NOTES:
     dance-single:
     :
     Medium:
     8:
     0.613849,1.000000,0.058519,0.376191,0.091958,462.000000,7.000000,45.000000,0.000000,0.000000,0.000000,0.613849,1.000000,0.058519,0.376191,0.091958,462.000000,7.000000,45.000000,0.000000,0.000000,0.000000:
0000
0000
0000
0000
,
0000
0000
0000
0000
,
0000
0000
0000
0000
,
0000
0000
0000
0000
,
0000
0000
0000
0000
,
2002
0000
0000
3003
,
0000
0000
0001
0000
1000
0001
0000
0000
,
0000
0000
1000
0000
1000
0200
0000
0010
,
0000
0310
0001
0000
0001
0200
0000
0010
,
0000
0310
1000
0000
1000
0002
0000
0010
,
0000
0013
0100
1000
0100
1000
0000
0002
,
0000
0003
0100
0000
0100
0020
0000
1000
,
0000
1030
0001
0000
0001
0020
0000
0100
,
0000
0130
1000
0001
1000
0000
0100
0010
,
0100
0000
1000
0000
1000
0002
0000
0003
,
0000
0000
0100
0000
0010
0000
0100
0001
,
0100
0000
0010
0000
1000
0000
0100
1000
,
0100
0000
0010
0000
0001
0000
1000
0001
,
0100
0000
0110
0000
1001
0000
0001
0010
,
0100
0000
1000
0000
0001
0000
1000
0100
,
1000
0000
0001
0000
1000
0000
0001
0100
,
0010
0000
1000
0100
1000
0000
0001
0100
,
0001
0000
0100
0000
0100
0020
0000
0000
,
0030
0000
1000
0100
1000
0000
0100
0000
,
0010
0000
0001
0100
0001
0000
0100
0000
,
0010
0000
1000
0001
1000
0000
0100
0000
,
0010
0000
0001
0010
0001
0010
0100
1000
,
0001
0000
1000
0010
0100
0000
0001
0000
,
1000
0000
0001
0010
0100
0000
1000
0000
,
0001
0000
0100
0010
0100
0000
0010
1000
,
0001
0000
0010
0001
0010
0001
0010
0000
,
0100
0000
1000
0000
1000
0200
0000
0010
,
0000
1300
0001
0000
0001
0200
0000
0010
,
0000
0301
1000
0000
1000
0002
0000
0010
,
0000
1003
0100
1000
0100
0010
0000
1001
,
0000
0000
0001
0000
0001
0200
0000
1000
,
0000
0310
1000
0000
1000
0200
0000
0001
,
0000
0310
0100
1000
0001
0000
0100
0001
,
1000
0000
0001
0000
0001
0020
0000
0030
,
0000
0000
0100
0100
1000
0000
0001
0000
,
1000
0000
0001
0001
0100
0000
0001
0000
,
1000
0000
0100
0100
1000
0000
0001
0000
,
1000
0000
0010
0010
1000
1000
0001
0001
,
0100
0000
0001
0001
1000
0000
0100
0010
,
0100
0000
1000
1000
0001
0000
0100
0010
,
1000
0000
0001
0001
1000
0000
0001
0010
,
0100
0010
0000
1001
0000
0110
0000
1001
,
0000
0001
0100
0000
0100
0020
0000
1030
,
0000
1000
0001
0000
0001
0020
0000
0130
,
0000
0100
1000
0001
1000
0000
0001
0000
,
0100
0010
1000
0000
0001
1000
0000
1000
,
0100
0000
0010
0000
0001
1000
0000
1000
,
0000
0010
0100
0000
0001
1000
0000
0100
,
0000
0100
2000
0000
3002
0000
0203
0000
,
0320
0000
1030
0100
1000
0002
0000
1003
,
0100
0010
0001
0000
0100
0010
0000
0100
,
0001
0000
1000
0000
0001
0001
0000
0010
,
0100
1000
0001
0000
0100
0010
0000
1000
,
0100
0010
0001
0000
1000
0002
0000
0003
,
0000
0000
0100
0000
0010
1000
0000
0001
,
1000
0000
0100
0000
0010
0001
0000
1000
,
0001
0200
0320
2030
,
3002
0000
0013
0000
0010
0200
0000
0300
,
0000
0000
1000
0100
0010
0000
0001
0000
,
1000
0000
0001
0100
0010
0000
1000
0000
,
0001
0000
1000
0100
0010
0000
0001
0000
,
1000
0000
0001
0010
0001
0010
0100
1000
,
0001
0000
1000
0010
0100
0000
0001
0000
,
1000
0000
0001
0010
0100
1000
0010
0000
,
0100
0002
0000
0000
,
0000
0000
0000
0000
,
0000
0000
0000
0000
0000
0000
0000
0000
0000
0000
0000
0000
0000
0000
0000
0000
0003
0000
0000
0000
0000
0000
0000
0000
0000
0000
0000
0000
0000
0000
0000
0000
0000
0000
0000
0000
0000
0000
0000
0000
0000
1000
0000
0000
0000
0000
0000
0000
0000
0000
0000
0000
0000
0000
0100
0000
0000
0000
0000
0000
0000
0000
0000
0000
,
0000
0000
0000
0000
0000
0000
0000
0010
0000
0000
0000
0000
0000
0000
0001
0000
0000
0000
0000
0000
0000
0000
0000
0000
0000
0000
0000
0000
1000
0000
0000
0000
,
0000
0000
0000
0000
0010
0000
0000
0000
0000
0000
0000
0000
0000
0000
0000
0000
0000
0000
0000
0100
0000
0000
0000
0000
0000
0000
0000
0000
0000
0000
0000
0000
,
0001
1000
0002
0000
0000
0000
0000
0000
,
0000
0000
0000
0000
,
0003
0000
0100
0010
0100
0010
0100
0000
,
0000
0000
0001
1000
0001
1000
0001
0000
,
0000
0000
0010
0100
0010
0100
0010
0000
,
0000
0000
0100
1000
0100
1000
0001
0000
,
0000
0200
0000
0000
,
0000
0020
0000
0000
,
0330
0000
0000
0000
1000
0000
1000
0002
0000
0010
0003
0000
0100
0000
0100
2000
,
0000
0001
3000
0000
0100
0000
0100
0020
0000
1000
0030
0000
0001
0000
0001
0020
,
0000
0230
0000
0300
1000
0000
1000
0002
0000
0103
0000
0010
1000
0000
1000
0200
,
0000
0320
0000
0031
1000
0001
0100
0000
0001
1000
0100
0000
0010
0000
0010
0002
,
0000
0003
0000
0000
1000
0000
0000
0000
0001
0000
0100
0000
0000
0000
0010
0000
,
1000
0000
0001
0000
1000
0100
1000
0001
,
0010
0000
0001
0000
0100
0010
0000
1000
,
0001
0000
1000
0000
0001
0100
0001
0010
,
0100
0000
1000
0000
0010
1000
0001
1000
,
0100
0000
0010
0000
0001
1000
0001
0100
,
0010
0000
1000
0000
0100
0010
0001
1000
,
0100
0000
0010
0000
0001
0100
0010
1000
,
0100
0000
0010
0001
0010
0001
1000
0001
,
1000
0001
0100
0001
0100
0001
0100
0010
,
1000
0002
0000
0000
,
0003
0000
1000
0100
1000
0100
0000
0100
,
0000
0010
0000
0002
2000
0000
0000
0000
,
0000
0000
0000
0000
,
0003
3000
0001
0100
0000
0000
0000
0000
;

//---------------dance-single - ----------------
#NOTES:
     dance-single:
     :
     Beginner:
     2:
     0.168390,0.288204,0.091958,0.158836,0.000000,111.000000,11.000000,19.000000,0.000000,0.000000,0.000000,0.168390,0.288204,0.091958,0.158836,0.000000,111.000000,11.000000,19.000000,0.000000,0.000000,0.000000:
0000
0000
0000
0000
,
0000
0000
0000
0000
,
0000
0000
0000
0000
,
0000
0000
0000
0000
,
0000
0000
0000
0000
,
1001
0000
0000
0000
,
0000
0000
0000
0000
,
0000
0001
0000
0000
,
0000
1000
0000
0000
,
0000
0001
0000
0000
,
0000
1000
0000
0000
,
0000
1000
0000
0000
,
0000
0001
0000
0000
,
0000
1000
0000
0001
,
0000
1001
0000
0000
,
0000
0100
0000
0000
,
0000
0100
0000
0000
,
0000
0001
0000
0000
,
0000
0010
0010
0010
,
0000
0100
0000
0000
,
0000
1000
0000
0000
,
0000
0100
0000
0100
,
0000
0110
0000
0000
,
0000
2000
3000
0000
,
0000
0002
0003
0000
,
0000
2000
3000
0000
,
0000
0002
0003
0000
,
0000
0200
0300
0000
,
0000
0020
0030
0000
,
0000
0100
0000
0100
,
0000
0200
0000
0300
,
0000
0001
0000
0000
,
0000
1000
0000
0000
,
0000
0001
0000
0000
,
0000
1000
1000
1000
,
0000
0100
0000
0000
,
0000
1000
0000
0000
,
0000
0001
0000
0001
,
0000
1001
0000
0000
,
0000
0100
0000
0000
,
0000
0100
0000
0000
,
0000
0100
0000
0000
,
0000
0010
0010
0010
,
0000
0110
0000
0000
,
0000
1000
0000
0000
,
0000
0001
0000
0000
,
0000
0000
0000
0000
,
0000
0100
0000
0100
,
0000
0100
0000
0000
,
0000
0001
0000
1000
,
0000
0001
0000
0000
,
0000
0010
0000
0010
,
0000
0010
0000
0000
,
0000
0100
0000
1000
,
0000
0100
0000
0000
,
0000
1000
0000
0000
,
0000
1000
0000
0000
,
0000
0001
0000
0000
,
0000
0001
0000
0000
,
0000
0100
0000
0000
,
0000
0100
0000
0000
,
0000
0010
0000
0010
,
0000
0110
0000
0000
,
0000
1000
0000
0000
,
0000
0100
0000
0000
,
0000
1000
0000
0000
,
0000
0100
0100
0100
,
0000
0010
0000
0000
,
0000
0001
0000
0000
,
0000
2002
0000
0000
,
0000
3003
0000
0000
,
0000
0000
0000
0000
,
0000
0000
0000
0000
,
0000
0000
0000
0000
,
0000
0000
0000
0000
,
0000
0000
0000
0000
,
0000
0002
0003
0000
,
0000
2000
3000
0000
,
0000
0200
0300
0000
,
0000
0020
0030
0000
,
0000
0220
0000
0330
,
0000
0000
0000
0000
,
0000
0001
0001
0001
,
0000
1000
1000
1000
,
0000
0100
0100
0100
,
0000
0010
0010
0110
,
0000
0001
0000
0001
,
0000
1000
0000
0000
,
0000
1000
0000
1000
,
0000
0001
0000
0000
,
0000
0010
0000
0010
,
0000
0100
0000
0000
,
0000
0100
0000
0100
,
0000
0010
0000
0000
,
0000
2002
0000
0000
,
0000
0000
0000
0000
,
0000
3003
0000
0000
,
0000
2002
0000
0000
,
0000
0000
3003
0000
;

//---------------dance-double - ----------------
#NOTES:
     dance-double:
     :
     Hard:
     10:
     0.880168,1.000000,0.108677,0.484869,0.530848,666.000000,13.000000,58.000000,0.000000,0.000000,0.000000,0.880168,1.000000,0.108677,0.484869,0.530848,666.000000,13.000000,58.000000,0.000000,0.000000,0.000000:
// measure 0
00000000
00000000
00000000
00000000
,  // measure 1
00000000
00000000
00000000
00000000
,  // measure 2
00000000
00000000
00000000
00000000
,  // measure 3
00000000
00000000
00000000
00000000
,  // measure 4
00000000
00000000
00000000
00000000
,  // measure 5
00022000
00000000
00000000
00000000
,  // measure 6
00033000
00000000
00010000
00000000
00001000
00010000
00000000
00100000
,  // measure 7
01000000
00010000
10000000
00010000
10000000
00020000
00000000
10030000
,  // measure 8
00000000
01000000
00100000
00010000
00100000
00020000
00000000
10030000
,  // measure 9
00000000
00100000
00010000
00001000
00010000
00002000
00000000
00003100
,  // measure 10
00000000
00000001
00001000
00000100
00000010
00000001
00000000
00002200
,  // measure 11
00000000
00003300
00001000
00000001
00001000
00000002
00000000
00000013
,  // measure 12
00000000
00000100
00001000
00000100
00001000
00000002
00000000
00000103
,  // measure 13
00000000
00000000
00001000
00000000
00010000
00001000
00010000
00001000
00010000
00000000
00000000
00000000
00001000
00010000
00001000
00010000
,  // measure 14
00001000
00000000
00010000
00000000
00001000
01000000
00000000
00100000
,  // measure 15
10000000
00000000
01000000
00100000
01000000
00100000
00010000
01000000
,  // measure 16
00001000
00010000
00000010
00000100
00000010
00000100
00000001
00000010
,  // measure 17
00000100
00001000
00000001
00000100
00000001
00000100
00001000
00010000
,  // measure 18
01000000
00000000
00100000
00000000
00010000
00000000
10000000
00010000
10000000
00000000
00000000
00000000
00100000
00000000
01000000
00010000
,  // measure 19
01000000
00010000
01000000
00010000
10000000
00000000
01000000
00000000
10000000
00000000
01000000
00000000
00100000
00000000
00010000
00000000
,  // measure 20
10000000
00100000
00010000
00001000
00010000
00001000
00000100
00000001
,  // measure 21
00001000
00000000
00000100
00000000
00000010
00000001
00000010
00000001
00000010
00000000
00000000
00000000
00000100
00001000
00000100
00001000
,  // measure 22
00000100
00000000
00000000
00000000
00000010
00000000
00000000
00000000
00000002
00000000
00002000
00000000
00000003
00000000
00003001
00000100
,  // measure 23
00000001
00000010
00000001
00000100
00001000
00000100
00000010
00010000
,  // measure 24
00001000
00100000
00010000
10000000
01000000
00010000
01000000
00100000
,  // measure 25
00001000
00010000
00000100
00000010
00000100
00001000
00000001
00000100
,  // measure 26
00001000
00000000
00010000
00000000
00001000
00000000
00010000
00001000
00010000
00000000
01000000
00000000
00100000
00000000
00010000
00000000
,  // measure 27
10000000
00000000
10000000
01000000
00010000
01000000
00100000
00001000
,  // measure 28
00010000
00000100
00001000
00000001
00000100
00001000
00000100
00000010
,  // measure 29
00010000
00000000
00001000
00000000
00100000
00010000
00100000
00010000
00100000
00000000
00000000
00000000
01000000
10000000
01000000
10000000
,  // measure 30
01000000
00000000
00000000
00000000
10000000
00010000
10000000
00010000
10000000
00000000
00000000
00000000
00010000
00000000
10000000
00000000
,  // measure 31
01000000
00100000
00010000
10000000
00010000
00020000
00000000
01000000
,  // measure 32
00000000
10030000
00010000
10000000
01000000
02000000
00000000
00100000
,  // measure 33
00000000
03010000
00001000
00010000
00001000
00002000
00000000
00010000
,  // measure 34
00000000
00003100
00000001
00001000
00000001
00000010
00000000
00002200
,  // measure 35
00000000
00003300
00001000
00000001
00001000
00002000
00000000
00000010
,  // measure 36
00000000
00003001
00001000
00000001
00000100
00000200
00000000
00000010
,  // measure 37
00000000
00000000
00001300
00000000
00010000
00001000
00010000
00001000
00010000
00000000
00000000
00000000
00001000
00010000
00001000
00010000
,  // measure 38
00001000
00000000
00010000
00000000
00001000
02000000
00000000
00000000
,  // measure 39
03000000
00000000
00010000
00010000
10000000
01000000
00010000
01000000
,  // measure 40
10000000
00010000
00010000
00010000
10000000
00100000
00010000
00001000
,  // measure 41
00000100
00000010
00000010
00000010
00001000
00000100
00000001
00000100
,  // measure 42
00001000
00000001
00000100
00000100
00000010
00000010
00001000
00001000
,  // measure 43
00000100
00000100
00000010
00000010
00000001
00000100
00001000
00000100
,  // measure 44
00000001
00001000
00001000
00001000
00000100
00000010
00001000
00010000
,  // measure 45
01000000
00100000
00100000
00100000
10000000
00100000
00010000
01000000
,  // measure 46
10000000
01000000
00000000
01001000
00000000
00010010
00000000
00001001
,  // measure 47
00001000
00000000
00000100
00000000
00000010
00000000
00000002
00000000
00000000
00000000
00000000
00000000
00001003
00000000
00000000
00000002
00000000
00000000
00000000
00000000
00000000
00000103
00000000
00000000
,  // measure 48
00000000
00001000
00020000
00000000
00031000
00020000
00000000
01030000
,  // measure 49
00000000
10000000
00010000
10000000
02000000
00000000
13000000
01000000
,  // measure 50
00100000
00000000
00000000
00000000
00010000
00000000
00000000
00000000
10000000
00000000
00000000
00000000
00200000
00000000
00000000
00000000
00000000
00000000
00000000
00000000
00000000
00000000
00000000
00000000
01300000
00000000
00000000
00010000
00000000
00000000
02000000
00000000
00000000
00000000
00000000
00000000
00000000
00000000
00000000
00000000
00000000
00000000
00000000
00000000
00000000
00000000
00000000
00000000
,  // measure 51
03100000
00000000
10000000
00000000
01000000
00000000
00200000
00000000
00000000
00000000
00000000
00000000
00310000
00000000
00000000
00200000
00000000
00000000
00000000
00000000
00000000
02300000
00000000
00000000
,  // measure 52
00000000
00000000
03010000
00000000
00002000
00000000
00000000
00000000
00013000
00001000
00020000
00000000
00000000
00000000
00032000
00000000
,  // measure 53
00000000
00000000
00000000
00003100
00000000
00000000
00000001
00000000
00000010
00000000
00000001
00000000
00000010
00000000
00000100
00000000
00000010
00000000
00000100
00000000
00001000
00000000
00000100
00000000
,  // measure 54
00001000
00000000
00000100
00000000
00010000
00000000
00001000
00000000
00000000
00010000
00000000
00000000
00001000
00000000
00000000
00000200
00000000
00000000
00000000
00000000
00000000
00010300
00000000
00000000
,  // measure 55
00001000
00000010
00020000
00000000
00030100
00000020
00000000
00000130
,  // measure 56
00002000
00000000
00000000
00000000
00003001
00000000
00000000
00000000
00000100
00000010
00000200
00000000
00000000
00000000
00001300
00000000
,  // measure 57
00010000
01000000
20000000
00000000
30100000
00010000
00000000
00100000
,  // measure 58
10000000
00000000
10100000
00000000
00010000
20000000
00000000
00000000
,  // measure 59
30000000
00000000
02000000
00000000
03100000
00020000
00000000
00130000
,  // measure 60
02000000
00000000
00000000
00000000
13000000
00000000
00000000
00000000
00010000
01000000
00020000
00000000
00000000
00000000
00130000
00000000
,  // measure 61
00010000
00000000
00000000
01000000
00000000
00000000
00100000
00000000
10000000
00000000
00100000
00000000
10000000
00000000
00010000
00000000
10000000
00000000
01000000
00000000
10000000
00000000
01000000
00000000
,  // measure 62
00100000
00000000
00000000
00000000
00010000
00000000
00000000
00000000
00100000
00000000
00000000
00000000
00010000
00000000
00000000
00000000
00000000
00000000
10000000
00000000
00000000
00010000
00000000
00000000
10000000
00000000
00000000
00000000
00000000
00000000
00020000
00000000
00000000
00000000
00000000
00000000
00000000
00000000
00000000
00000000
00000000
00000000
01030000
00000000
00000000
00100000
00000000
00000000
,  // measure 63
01000000
00100000
10000000
01000000
00100000
00010000
01000000
00100000
,  // measure 64
00010000
00001000
00100000
00010000
00001000
00000100
00010000
00001000
,  // measure 65
00000100
00000001
00000001
00000010
00000100
00001000
00000010
00000100
,  // measure 66
00001000
00000000
00010000
00000000
00000100
00000000
00010000
00001000
00010000
00000000
01000000
00000000
10000000
00000000
00020000
00000000
,  // measure 67
01000000
00000000
10030000
00100000
01000000
00010000
00100000
01000000
,  // measure 68
00010000
00001000
01000000
00010000
00001000
00000010
00010000
00001000
,  // measure 69
00000010
00000001
00000200
00000000
00000000
00000000
00000000
00000000
,  // measure 70
00000000
00000300
00000000
00000000
00000000
00000000
00000000
00000000
,  // measure 71
00000000
00000000
00000000
00000000
00000000
00000000
00000000
00000000
00000000
00000000
00000000
00000000
00000000
00000000
00000000
00000000
00000000
00000000
00000000
00000000
00000000
00000000
00000000
00000000
00000000
00000000
00000000
00000000
00000000
00000000
00000000
00000000
00000000
00000000
00000000
00000000
00000000
00000000
00000000
00000000
00000000
10000000
00000000
00000000
00000000
00000000
00000000
00000000
00000000
00000000
00000000
00000000
00000000
00000000
01000000
00000000
00000000
00000000
00000000
00000000
00000000
00000000
00000000
00000000
,  // measure 72
00000000
00000000
00000000
00000000
00000000
00000000
00000000
00100000
00000000
00000000
00000000
00000000
00000000
00000000
00001000
00000000
00000000
00000000
00000000
00000000
00000000
00000000
00000000
00000000
00000000
00000000
00000000
00000000
00010000
00000000
00000000
00000000
,  // measure 73
00000000
00000000
00000000
00000000
00000010
00000000
00000000
00000000
00000000
00000000
00000000
00000000
00000000
00000000
00000000
00000000
00000000
00000000
00000000
00000100
00000000
00000000
00000000
00000000
00000000
00000000
00000000
00000000
00000000
00000000
00000000
00000000
,  // measure 74
00000001
00001000
00000002
00000000
00000000
00000000
00000000
00000000
,  // measure 75
00000000
00000000
00000000
00000000
,  // measure 76
00000003
00000000
00000100
00000001
00000100
00000001
00001000
00000010
,  // measure 77
00000100
00000001
00000010
00000100
00000010
00000100
00001000
00000100
,  // measure 78
00010000
00001000
01000000
00010000
01000000
00010000
01000000
00100000
,  // measure 79
10000000
01000000
00010000
00001000
00010000
00001000
00000100
00000001
,  // measure 80
00000010
00000000
00000100
00001000
00000200
00000000
00000000
00000000
00000000
00000000
00000000
00000000
00000000
00000000
00000000
00000000
,  // measure 81
00000000
00000000
00020000
00000000
00000000
00000000
00000300
00031000
,  // measure 82
00000100
00000000
00000001
00000000
00001000
00000001
00001000
00000200
00000000
00000010
00000000
00001300
00000001
00000100
00000001
00000020
,  // measure 83
00000000
00000001
00000000
00000130
00000010
00000100
00010000
00002000
00000000
00010000
00000000
00103000
00010000
10000000
00100000
01000000
,  // measure 84
00000000
20020000
00000000
30030000
10000000
00010000
10000000
02000000
00000000
00100000
00000000
03010000
00001000
00010000
00001000
00000200
,  // measure 85
00000000
00000000
00000010
00000000
00000000
00000000
00000301
00000000
00000100
00000001
00000100
00000001
00000100
00000000
00000000
00000000
00000010
00001000
00000010
00001000
00000010
00000000
00000000
00000000
00000100
00000000
00000000
00000000
00000100
00000000
00000010
00000000
,  // measure 86
00010000
00001000
00010000
00001000
00010000
00001000
00010000
00001000
00010000
00000000
00000000
00000000
00001000
00000000
00000000
00000000
00000100
00000000
00000000
00000000
00001000
00000000
00000000
00000000
00010000
00000000
00000000
00000000
00100000
00000000
00000000
00000000
,  // measure 87
10000000
00000000
01000000
00010000
00001000
00000010
00000001
00001000
,  // measure 88
00000001
00000000
00000001
00000100
00001000
00010000
01000000
00010000
,  // measure 89
00001000
00000000
00010000
01000000
10000000
00100000
00010000
00001000
,  // measure 90
00000100
00000000
00000000
00000000
00000000
00000000
00000001
00000000
00000100
00000000
00000010
00000000
00000100
00000000
00000001
00000000
00000100
00000000
00000010
00000000
00000000
00010000
00000000
00000000
,  // measure 91
00000100
00000000
00000000
00010000
00000000
00000000
00000100
00000000
00010000
00000000
00001000
00000000
00010000
00000000
00000100
00000000
00010000
00000000
00001000
00000000
00000000
00010000
00000000
00000000
,  // measure 92
00100000
00000000
00000000
10000000
00000000
00000000
01000000
00000000
00100000
00000000
01000000
00000000
10000000
00000000
01000000
00000000
00100000
00000000
01000000
00000000
00000000
00100000
00000000
00000000
,  // measure 93
00001000
00000000
00000000
00000100
00000000
00000000
00000001
00000000
00000100
00000000
00000010
00000000
00000100
00000000
00000001
00000000
00000100
00000000
00000010
00000000
00000000
00000100
00000000
00000000
,  // measure 94
00000001
00000000
00000000
00001000
00000000
00000000
00000001
00000000
00000010
00000000
00000001
00000000
00001000
00000000
00000001
00000000
00001000
00000000
00000100
00000000
00001000
00000000
00000100
00000000
,  // measure 95
00010000
00001000
00010000
00001000
01000000
00001000
01000000
00100000
01000000
00100000
10000000
01000000
,  // measure 96
00100000
00010000
10000000
00020000
00000000
00000000
00000000
00000000
00000000
00000000
00000000
00000000
,  // measure 97
00000000
00000000
10030000
00010000
10000000
11000000
00000000
01010000
,  // measure 98
00000000
00011000
00000000
00000110
00002001
00000000
00000000
00000000
,  // measure 99
00000000
00000000
00000000
00000000
00000000
00000000
00000000
00003000
,  // measure 100
00000000
00000000
00010000
10000000
00000000
00000000
00000000
00000000
;

//---------------dance-double - ----------------
#NOTES:
     dance-double:
     :
     Medium:
     9:
     0.604294,1.000000,0.058519,0.459789,0.071058,444.000000,7.000000,55.000000,0.000000,0.000000,0.000000,0.604294,1.000000,0.058519,0.459789,0.071058,444.000000,7.000000,55.000000,0.000000,0.000000,0.000000:
00000000
00000000
00000000
00000000
,
00000000
00000000
00000000
00000000
,
00000000
00000000
00000000
00000000
,
00000000
00000000
00000000
00000000
,
00000000
00000000
00000000
00000000
,
20020000
00000000
00000000
30030000
,
00000000
00000000
10000000
00000000
00010000
10000000
00000000
00000000
,
00000000
00000000
10000000
00000000
10000000
02000000
00000000
00100000
,
00000000
03100000
00001000
00000000
00001000
00020000
00000000
00000100
,
00000000
00030100
00000010
00000000
00000010
00000002
00000000
00001000
,
00000000
00001003
00000010
00001000
00000001
00000100
00000000
00002002
,
00000000
00003003
00000001
00000000
00000001
00000200
00000000
00000010
,
00000000
00000310
00001000
00000000
00001000
00000200
00000000
00010000
,
00000000
00010300
00001000
01000000
00001000
00000000
00010000
00000100
,
00010000
00000000
00001000
00000000
00001000
00020000
00000000
00000000
,
00030000
01000000
10000000
01000000
,
00010000
01000000
10000000
01000000
,
00100000
00001000
00000100
00000001
,
00000100
00000000
00000110
00000000
00001001
00000000
00001000
00000001
,
00000010
00000001
00000010
00001000
,
00000010
00000001
00000010
00000100
,
00010000
00000000
00001000
00100000
00001000
00000000
00010000
00000010
,
00010000
00000000
00001000
00000000
00001000
00010000
00000000
00000000
,
00000000
00000000
00001000
00010000
00001000
00000000
01000000
00000000
,
00100000
00000000
10000000
00010000
10000000
00000000
01000000
00000000
,
00010000
00000000
00001000
00010000
00001000
00000000
00000100
00000000
,
00000001
00000000
00001000
00000001
00001000
00000001
00001000
00000001
,
00001000
00000000
00000001
00000100
00000001
00000000
00000010
00000000
,
00001000
00000000
00010000
00001000
00010000
00000000
01000000
00000000
,
10000000
00000000
00010000
01000000
00010000
00000000
01000000
00001000
,
01000000
00000000
00001000
00010000
00000100
00001000
00000000
00001000
,
00000001
00000000
00000001
00000000
00000200
00000001
00000000
00000320
,
00000000
00010030
00001000
00000000
00020000
01000000
00000000
00032000
,
00000000
01003000
00100000
00000000
20000000
01000000
00000000
30020000
,
00000000
00130000
00010000
00100000
01000000
10000000
00000000
00020000
,
00000000
00000000
10030000
00000000
00200000
10000000
00000000
02300000
,
00000000
03001000
00010000
00000000
00002000
00000010
00000000
00023000
,
00000000
00030010
00010000
00000100
00010000
00000000
00001000
00100000
,
00001000
00000000
00010000
00000000
00010000
00001000
00000000
00000000
,
00000000
00000000
00010000
00001000
00010000
00000000
00000100
00000000
,
00000010
00000000
00000001
00001000
00000001
00000000
00000100
00000000
,
00001000
00000000
00010000
00001000
00010000
00000000
01000000
00000000
,
10000000
00000000
00010000
10000000
00010000
10000000
00010000
10000000
,
00010000
00000000
10000000
01000000
10000000
00000000
01000000
00000000
,
00100000
00001000
00010000
00001000
00010000
00000000
00000100
00000000
,
00000010
00000001
00001000
00000001
00001000
00000000
00000001
00000000
,
00000100
00001000
00000000
00011000
00000000
00011000
00000000
00011000
,
00000000
00000000
01000000
00000000
00100000
10000000
00000000
10000000
,
00000000
01000000
00100000
00000000
00100000
00001000
00000000
00010000
,
00000000
00000100
00010000
00000100
00001000
00000000
00000001
00000000
,
00000100
00000010
00000100
00000000
00000001
00002000
00000000
00000000
,
00003100
00000010
00000001
00000000
00000001
00001000
00000000
00000001
,
00000000
00000100
00000010
00000000
00001000
00000010
00000000
00010000
,
00000000
00001000
00000200
00000000
00002300
00000000
00023000
00000000
,
02030000
00000000
03100000
01000000
00100000
00020000
00000000
10030000
,
00100000
10000000
00010000
00000000
00100000
00001000
00000000
00001000
,
00010000
00000000
00000100
00000000
00000010
00000200
00000000
00001300
,
00000100
00000010
00000001
00000000
00001000
00000001
00000000
00000100
,
00000010
00000000
00000100
00000000
00000001
00002000
00000000
00000000
,
00000000
00000000
00003100
00000000
00000010
00000001
00000000
00000010
,
00000100
00000000
00001000
00000000
00000001
00000100
00000000
00001000
,
00010000
00002000
00023000
02030000
,
03020000
00000000
00031000
00000000
00001000
00010000
00000000
00000000
,
00000000
00000000
00001000
00010000
00001000
00000000
00010000
00000000
,
01000000
00000000
10000000
00010000
10000000
00000000
00100000
00000000
,
00010000
00000000
00001000
00010000
00001000
00000000
00000100
00000000
,
00000001
00000000
00001000
00000001
00001000
00000001
00001000
00000001
,
00001000
00000000
00000001
00000100
00001000
00000000
00010000
00000000
,
00001000
00000000
00010000
01000000
10000000
00000000
00010000
00000000
,
10000000
00200000
00000000
00000000
,
00000000
00000000
00000000
00000000
,
00300000
00000000
00000000
00000000
00000000
00000000
00000000
00000000
00000000
00000000
00000000
00000000
00000000
00000000
00000000
00000000
00000000
00000000
00000000
00000000
00000000
00000000
00000000
00000000
00000000
00000000
00000000
00000000
00000000
00000000
00000000
00000000
00000000
00000000
00000000
00000000
00000000
00000000
00000000
00000000
00000000
10000000
00000000
00000000
00000000
00000000
00000000
00000000
00000000
00000000
00000000
00000000
00000000
00000000
01000000
00000000
00000000
00000000
00000000
00000000
00000000
00000000
00000000
00000000
,
00000000
00000000
00000000
00000000
00000000
00000000
00000000
00100000
00000000
00000000
00000000
00000000
00000000
00000000
00010000
00000000
00000000
00000000
00000000
00000000
00000000
00000000
00000000
00000000
00000000
00000000
00000000
00000000
10000000
00000000
00000000
00000000
,
00000000
00000000
00000000
00000000
00100000
00000000
00000000
00000000
00000000
00000000
00000000
00000000
00000000
00000000
00000000
00000000
00000000
00000000
00000000
01000000
00000000
00000000
00000000
00000000
00000000
00000000
00000000
00000000
00000000
00000000
00000000
00000000
,
00010000
10000000
00020000
00000000
00000000
00000000
00000000
00000000
,
00000000
00000000
00000000
00000000
,
00030000
20000000
00000000
31000000
,
00100000
00020000
00000000
01030000
,
00100000
00020000
00000000
00031000
,
00000100
00000020
00000000
00001030
,
00000100
00000020
00000000
00000000
,
00000000
00000002
00000000
00000000
,
00000033
00000000
00000000
00000000
00002000
00000000
00000000
00003002
00000000
00000000
00000103
00000000
00000020
00000000
00000000
00002030
,
00000000
00000000
00003100
00000000
00020000
00000000
00000000
02030000
00000000
00000000
03100000
00000000
00010000
10000000
00010000
10000000
,
00010000
01000000
00010000
01000000
00020000
00000000
00000000
00230000
00000000
00000000
02300000
00000000
23000000
00000000
00000000
30200000
,
00000000
00000000
00320000
00000000
00031000
00100000
00001000
00000000
00010000
00000010
00010000
00000000
00001000
00000000
00010000
00001000
,
00000000
00000000
10000000
00000000
01000000
00100000
00000000
00010000
,
10000000
00000000
00100000
00000000
01000000
00010000
01000000
00001000
,
00010000
00000000
00000100
00000000
00000010
00000001
00000000
00001000
,
00000001
00000000
00000100
00000000
00001000
00010000
00001000
00010000
,
00001000
00010000
00001000
00000000
00010000
00000000
01000000
10000000
,
00010000
10000000
00100000
00000000
00100000
00000000
01000000
00010000
,
00100000
00001000
00010000
00000000
00010000
00000000
00000100
00000010
,
00000001
00001000
00000010
00000000
00000010
00000000
00000100
00000001
,
00001000
00000100
00000010
00000100
00000010
00000100
00001000
00000100
,
00001000
00000100
00010000
00000100
00010000
00000100
00010000
00001000
,
00010000
00001000
00200000
00000000
00000000
00000000
00000000
00000000
,
00000000
00000000
00310000
01000000
00010000
10000000
00000000
01000000
,
00000000
00010000
00000000
00001000
00000020
00000000
00000000
00000000
,
00000000
00000000
00000000
00000000
,
00000000
00000000
00000031
00001000
00000000
00000000
00000000
00000000
;

//---------------dance-double - ----------------
#NOTES:
     dance-double:
     :
     Easy:
     5:
     0.322450,0.671292,0.133757,0.267514,0.000000,222.000000,16.000000,32.000000,0.000000,0.000000,0.000000,0.322450,0.671292,0.133757,0.267514,0.000000,222.000000,16.000000,32.000000,0.000000,0.000000,0.000000:
00000000
00000000
00000000
00000000
,
00000000
00000000
00000000
00000000
,
00000000
00000000
00000000
00000000
,
00000000
00000000
00000000
00000000
,
00000000
00000000
00000000
00000000
,
00002002
00000000
00000000
00000000
,
00003003
00000000
00000000
00000000
,
00000000
00000001
00000000
00000100
,
00000000
00001000
00000000
00010000
,
00000000
01000000
00000000
10000000
,
00000000
00010000
00010000
00010000
,
00000000
10000000
00000000
00100000
,
00000000
00010000
00000000
00001000
,
00000000
00011000
00000000
00000110
,
00000000
00002002
00000000
00003003
,
00000000
00000001
00000100
00000001
,
00000000
00000100
00000000
00001000
,
00000000
00010000
00001000
01000000
,
00000000
00100000
01000000
00100000
,
01000000
00010000
00000000
10000000
,
00000000
01000000
00000000
00010000
,
00000000
00011000
00000000
01100000
,
00000000
20020000
00000000
30030000
,
00000000
10000000
00000000
01000000
,
00000000
00010000
00000000
00001000
,
00000000
01000000
00000000
00100000
,
00000000
00010000
00001000
00010000
,
00000000
00001000
00000000
00000100
,
00000000
00000001
00000000
00000010
,
00000000
00000200
00000000
00020300
,
00000000
00032000
00000000
00003000
,
00000000
01000000
01000000
00000000
,
00000000
00010000
00010000
00000000
,
00000000
10000000
10000000
00000000
,
00000000
01000000
00010000
00001000
,
00000000
00000100
00000100
00000000
,
00000000
00000001
00000001
00000000
,
00000000
00001001
00000000
00000110
,
00000000
00022000
00000000
00033000
,
00000000
00010000
00001000
01000000
,
00000000
00010000
10000000
01000000
,
00000000
10000000
01000000
00100000
,
00000000
00010000
10000000
00010000
,
10000000
00100000
00010000
00001000
,
00000000
00010000
00001000
00000100
,
00000000
00001000
00000100
00000001
,
00001000
00000000
00000001
00000001
,
00000001
00002000
00000000
00003100
,
00010000
00002000
00000000
00013000
,
00001000
00100000
00000000
00010000
,
00000000
20000000
00000000
30000000
,
00000000
00010000
00000000
10000000
,
00100000
02000000
00000000
03010000
,
00100000
00002000
00000000
00023000
,
00000000
00030200
00000000
00000300
,
00000000
00000010
00000010
00000000
,
00000010
00000001
00000001
00000000
,
00000001
00000100
00000010
00000000
,
00000100
00000001
00001000
00000200
,
00000000
00010300
00001000
00000000
,
00001000
00100000
00010000
00000000
,
00010000
10000000
00100000
10000000
,
00010000
10010000
00000000
00000000
,
00000000
10000000
00000000
01000000
,
00000000
00010000
00000000
00001000
,
00000000
01000000
00000000
00100000
,
00000000
00010000
00001000
00010000
,
00000000
00001000
00000000
00000100
,
00000000
00000001
00000000
00000010
,
00000000
00000200
00000000
00000000
,
00000000
00000000
00000000
00000300
,
00000000
00000000
00000000
00000000
,
00000000
00000000
00000000
00000000
,
00000000
00000000
00000000
00000000
,
00002000
00000000
00000000
00000000
,
00000000
00000000
00000000
00003000
,
00000000
00000002
00000000
00000000
,
00000000
00000203
00000000
00000000
,
00000000
00002300
00000000
00000000
,
00000000
00023000
00000000
00000000
,
00030000
00022000
00000000
00000000
,
00000000
00000000
00000000
00000000
,
00033000
00000000
00010000
00001000
00000000
00001000
00100000
00010000
,
00000000
00010000
10000000
00100000
00000000
00100000
01000000
00010000
,
10010000
00000000
10000000
01000000
00000000
01000000
00010000
00001000
,
00000000
00001000
00011000
00000000
00000110
00000000
00002002
00000000
,
00003003
00000001
00000100
00000001
,
00000100
00000010
00010000
00000010
,
00010000
00000100
00010000
00000100
,
00010000
00001000
00010000
00001000
,
00000000
00100000
00001000
00100000
,
00001000
00100000
00010000
00100000
,
00010000
10000000
00010000
10000000
,
00010000
01000000
00010000
01000000
,
00000000
00010000
10000000
01000000
,
00010000
00001000
00000100
00000001
,
00000010
00000200
00000000
00000300
,
00000000
00000000
00002000
00000000
00000000
00003001
00000000
00001000
,
00000000
00000001
00000000
00001000
00000002
00000000
00000000
00000000
,
00000000
00000000
00000000
00000000
,
00000003
00000000
00000000
00000100
00000000
00000000
00000000
00000000
;
