#TITLE:Magic of Love;
#SUBTITLE:;
#ARTIST:Perfume;
#TITLETRANSLIT:;
#SUBTITLETRANSLIT:;
#ARTISTTRANSLIT:;
#GENRE:;
#CREDIT:;
#BANNER:[Scrabble] - Magic of Love.png;
#BACKGROUND:[Scrabble] - Magic of Love-bg.png;
#LYRICSPATH:;
#CDTITLE:cdtitle.png;
#MUSIC:[Scrabble] - Magic of Love.ogg;
#OFFSET:-1.266;
#SAMPLESTART:60.510;
#SAMPLELENGTH:15.000;
#SELECTABLE:YES;
#DISPLAYBPM:128.000;
#BPMS:0.000=128.000
,192.000=64.000
;
#STOPS:
;
#BGCHANGES:;
#KEYSOUNDS:;
#ATTACKS:;

//---------------dance-single - ----------------
#NOTES:
     dance-single:
     :
     Medium:
     6:
     0.405,0.393,0.221,0.523,0.065,208.000,22.000,52.000,0.000,0.000,0.000,0.405,0.393,0.221,0.523,0.065,208.000,22.000,52.000,0.000,0.000,0.000:
0000
0000
0000
0000
,
0000
0000
0000
0000
,
0000
0000
0000
0000
,
0000
0000
0000
0000
,
2000
3020
0230
0302
,
0023
0230
2300
3002
,
0203
0000
0300
0010
2000
0000
3000
0001
,
2000
0000
0000
3200
0000
0000
0320
0000
0031
0000
0000
0000
1001
0000
0000
0000
,
1000
0010
0002
0000
0013
0000
1010
0000
,
1000
0100
0002
0000
0103
0000
1100
0000
,
1000
0001
2000
0000
3001
0000
1001
0000
,
0010
0100
0020
0000
0130
0000
0110
0000
,
0001
0000
1000
0000
0200
0000
0000
0020
0000
0000
0000
0000
0330
0000
0000
0000
,
0010
0000
0001
0000
0200
0000
0000
0020
0000
0000
0000
0000
0330
0000
0000
0000
,
0010
0000
1000
0000
0002
0000
0000
2000
0000
0000
0000
0000
3003
0000
0000
0000
,
1000
0000
0100
0000
0020
0000
0000
0031
0000
0000
0001
0000
1000
0000
0001
0000
,
1000
0000
0010
0000
0100
0001
1000
0000
,
0002
0000
0000
0023
0000
0000
0230
0000
0000
0000
0000
0000
0000
0000
0000
0000
,
2300
0000
3002
0000
0103
0001
0100
0000
,
0020
0000
0000
2030
0000
0000
3200
0000
0000
0000
0000
0000
0000
0000
0000
0000
,
0310
0010
0001
0001
,
1000
0000
0010
0000
0100
0001
1000
0000
,
0001
0000
0010
0000
0100
0000
1000
0100
,
1000
0000
0001
1000
0001
0000
0100
0001
,
0100
0000
0101
0000
0001
0100
0010
0000
,
1000
0100
0001
0100
,
1000
0000
1001
0000
0001
0100
1000
0000
,
0200
0302
2003
0000
,
3010
1010
1000
1001
,
0001
0000
0011
0000
0010
0001
1000
0000
,
1001
0000
0000
0000
1000
0000
0010
0200
0000
0000
0000
0000
0000
0000
0000
0000
,
0001
0000
0000
0001
0000
0000
0301
0000
0000
0000
0000
0000
1001
0000
0000
0000
,
1000
0000
0100
0000
0010
0001
0010
0000
,
0001
0000
0100
0000
0010
1000
0010
0000
,
1000
0000
1010
1000
0001
0000
1001
0001
,
0020
0000
0230
0000
1300
0001
0100
0000
,
0010
0000
0000
1000
0000
0000
2010
0000
0000
0000
0010
0000
3010
0000
0000
0000
,
1000
0000
0000
0001
0000
0000
0012
0000
0000
0000
0010
0000
0013
0000
0000
0000
,
0002
0000
0013
0100
2000
0000
3010
0100
,
0001
0010
0220
0330
,
1000
0000
0010
0000
0100
0001
0100
0000
,
0001
0000
0010
0000
0100
1000
0100
0000
,
1000
0000
1100
1000
0001
0000
1001
0001
,
0200
0000
0320
0000
1030
0001
1000
0000
,
0100
0000
0000
0010
0000
0000
0012
0000
0000
0000
0010
0000
0013
0000
0000
0000
,
0001
0000
0000
0100
0000
0000
2010
0000
0000
0000
0010
0000
3010
0000
0000
0000
,
1000
0100
0010
0001
2000
0000
3000
0000
,
0001
0100
0010
1000
0002
0000
0003
0000
,
2002
0000
0000
0000
0000
0000
0000
3003
;

//---------------dance-single - ----------------
#NOTES:
     dance-single:
     :
     Easy:
     3:
     0.195,0.193,0.070,0.040,0.000,125.000,7.000,4.000,0.000,0.000,0.000,0.195,0.193,0.070,0.040,0.000,125.000,7.000,4.000,0.000,0.000,0.000:
0000
0000
0000
0000
,
0000
0000
0000
0000
,
0000
0000
0000
0000
,
0000
0000
0000
0000
,
1000
0001
1000
0001
,
0100
0010
0100
0010
,
1000
0000
0001
0000
,
0010
0000
0100
0000
,
1000
0100
1000
0000
,
0001
1000
0001
0000
,
0100
0001
0100
0000
,
0010
0100
0010
0000
,
1000
0001
0010
0000
,
0001
1000
0010
0000
,
0100
0001
1000
0000
,
0100
1000
0001
1000
,
0010
0010
0100
0100
,
2002
0000
0000
3003
,
1000
1000
0100
0100
,
0220
0000
0000
0330
,
0010
0010
0001
0001
,
1000
0000
1000
0000
,
0010
0010
0100
0100
,
0001
0000
0001
0000
,
1000
1000
0001
0001
,
1000
0001
1000
0000
,
0100
0100
0010
0010
,
0100
0010
0100
0000
,
0010
0001
1000
0001
,
1000
1000
0010
0010
,
0100
0000
0001
0000
,
1000
0000
0000
0000
,
0001
0100
0001
0000
,
0100
0010
0100
0000
,
0010
0000
1000
0000
,
0001
0000
1000
0000
,
0100
0100
0100
0000
,
0010
0010
0010
0000
,
0001
0000
1000
0000
,
0010
0000
0100
0000
,
0001
0010
0001
0000
,
1000
0010
1000
0000
,
0100
0000
0010
0000
,
0001
0000
1000
0000
,
0010
0100
0010
0000
,
1000
0001
1000
0000
,
1100
0000
0011
0000
,
0101
0000
1010
0000
,
1001
0000
0000
0000
;

//---------------dance-single - ----------------
#NOTES:
     dance-single:
     :
     Beginner:
     1:
     0.095,0.145,0.040,0.000,0.000,62.000,4.000,0.000,0.000,0.000,0.000,0.095,0.145,0.040,0.000,0.000,62.000,4.000,0.000,0.000,0.000,0.000:
0000
0000
0000
0000
,
0000
0000
0000
0000
,
0000
0000
0000
0000
,
0000
0000
0000
0000
,
1000
0000
0000
0000
,
0001
0000
0000
0000
,
1000
0000
1000
0000
,
0001
0000
0001
0000
,
1000
0000
0000
0000
,
0100
0000
0000
0000
,
0010
0000
0000
0000
,
0001
0000
0000
0000
,
1000
0000
0000
0000
,
0010
0000
0000
0000
,
0100
0000
0000
0000
,
0001
0000
0000
0000
,
1000
0000
1000
0000
,
1000
0000
0000
0000
,
0001
0000
0001
0000
,
0001
0000
0000
0000
,
0010
0000
0010
0000
,
0010
0000
0010
0000
,
0100
0000
0100
0000
,
0100
0000
0100
0000
,
1000
0000
0000
0000
,
0010
0000
0010
0000
,
0100
0000
0000
0000
,
0001
0000
0001
0000
,
1000
0000
0000
0000
,
0100
0000
0100
0000
,
0010
0000
0000
0000
,
0001
0000
0000
0000
,
1000
0000
0000
0000
,
0010
0000
0000
0000
,
0100
0000
0100
0000
,
0100
0000
0000
0000
,
0001
0000
0000
0000
,
1000
0000
0000
0000
,
0001
0000
1001
0000
,
1000
0000
1001
0000
,
0001
0000
0000
0000
,
0100
0000
0000
0000
,
0010
0000
0010
0000
,
0010
0000
0000
0000
,
1000
0000
0000
0000
,
0001
0000
0000
0000
,
1000
0000
1001
0000
,
0001
0000
1001
0000
,
1000
0000
0000
0000
;

//---------------dance-single - ----------------
#NOTES:
     dance-single:
     :
     Hard:
     8:
     0.523,0.467,0.161,0.613,0.337,287.000,16.000,61.000,0.000,0.000,0.000,0.523,0.467,0.161,0.613,0.337,287.000,16.000,61.000,0.000,0.000,0.000: // measure 0
0000
0000
0000
0000
,  // measure 1
0000
0000
0000
0000
,  // measure 2
0000
0000
0000
0000
,  // measure 3
0000
0000
0000
0000
,  // measure 4
2000
3020
0032
0023
,  // measure 5
2030
3200
0302
0203
,  // measure 6
2300
0000
3010
1000
0020
0000
0130
0010
,  // measure 7
0100
0000
0100
0001
0000
0001
1000
0000
0100
0000
0010
0001
2000
0000
0000
0000
,  // measure 8
3001
0000
0100
0000
0020
0000
0000
1000
0000
0000
1000
0000
0000
1000
0000
0000
,  // measure 9
1030
0000
0100
0000
0020
0000
0000
0001
0000
0000
0001
0000
0000
0001
0000
0000
,  // measure 10
0031
0000
0010
0000
0002
0000
0000
0100
0000
0000
0100
0000
0000
0100
0000
0000
,  // measure 11
0103
0000
0010
0000
2000
0000
0000
0100
0000
0000
0100
0000
0000
0100
0000
0000
,  // measure 12
3100
0000
0010
0000
0001
1000
0000
2001
0000
0000
0001
0000
0000
0001
0000
0000
,  // measure 13
3001
0000
0100
0000
0010
1000
0000
1002
0000
0000
1000
0000
0000
1000
0000
0000
,  // measure 14
1003
0000
0010
0000
0100
0001
0000
0201
0000
0000
0001
0000
0000
0001
0000
0000
,  // measure 15
0301
0000
1000
0001
1000
0001
0000
0020
0000
0000
0100
0000
0100
0000
0100
0000
,  // measure 16
0230
0000
0000
0000
2300
0000
0000
3002
0000
0000
1000
0000
1000
0000
1000
0000
,  // measure 17
2003
0000
0000
3020
0000
0000
0230
0000
0000
0000
0001
0000
0000
0000
0001
0000
,  // measure 18
0302
0000
0000
0000
0203
0000
0000
2300
0000
0000
3200
0000
0000
0000
0301
0000
,  // measure 19
2000
0000
0000
3200
0000
0000
0302
0000
0000
0000
0100
0000
0000
0100
0000
0000
,  // measure 20
0103
0000
0000
0100
1000
0000
0000
1000
0010
0000
0100
0000
0001
0000
0010
0000
,  // measure 21
0002
0000
0000
0203
0000
0000
0320
0000
0000
0000
1000
0000
1000
0000
1000
0000
,  // measure 22
1030
0000
0001
0000
0010
0000
0010
0200
0000
0000
1300
0000
0010
0000
0100
0000
,  // measure 23
0001
0000
0000
0101
0000
0000
0001
0000
1000
0000
0000
1001
0000
0000
1000
0000
,  // measure 24
0100
0000
1100
0000
1000
0010
1010
0000
,  // measure 25
0020
0000
0000
0032
0000
0000
0023
0000
0000
0000
1000
0000
0000
0000
1030
0000
,  // measure 26
0000
0000
1000
0000
0000
0001
0000
0010
0000
0000
0100
0000
1000
0000
0001
0100
,  // measure 27
0020
0000
0000
2030
0000
0000
3002
0000
0000
0000
0000
0000
0000
0000
0000
0000
,  // measure 28
0013
0011
0001
1001
,  // measure 29
2000
0000
0000
3020
0000
0000
0230
0000
0000
0000
0001
0000
0001
0000
0001
0000
,  // measure 30
0301
0000
0000
0000
0101
0000
0001
1000
0000
0000
0000
0000
1001
0000
0001
0000
,  // measure 31
0011
0000
0000
0110
0000
0000
1100
0000
0000
0000
1000
0000
0010
0000
0100
0000
,  // measure 32
0001
0000
0000
0001
1000
0000
0010
1000
0010
0000
1000
0000
0001
0000
0010
0000
,  // measure 33
0100
0000
0000
0100
1000
0000
0001
1000
0001
0000
1000
0000
0001
0000
0100
0000
,  // measure 34
0010
0000
0000
0010
1000
0000
0010
0000
0100
0000
0000
0100
0010
0000
0100
0000
,  // measure 35
0001
0000
0000
0001
1000
0000
0100
0000
0000
0100
1000
0000
0001
0000
1000
0000
,  // measure 36
0002
0000
0000
0023
0000
0000
2030
0000
0000
0000
3010
0000
0001
0000
1000
0000
,  // measure 37
0002
0000
0000
0203
0000
0000
2300
0000
0000
0000
3100
0000
0001
0000
0010
0000
,  // measure 38
2000
0000
3001
0100
2000
0000
3001
0100
,  // measure 39
0010
0000
0000
1000
0000
0000
0001
0000
0010
0100
0000
0100
1000
0000
0001
0000
,  // measure 40
0100
0000
0000
0100
0010
0000
1000
0001
0010
0000
0100
0000
1000
0000
0001
0000
,  // measure 41
1000
0000
0000
1000
0100
0000
0010
0001
1000
0000
0010
0000
0100
0000
0001
0000
,  // measure 42
1000
0000
0000
1000
0100
0000
0010
0000
0100
0000
0000
0100
0010
0000
0001
0000
,  // measure 43
0010
0000
0000
0010
0001
0000
1000
0000
0000
1000
0010
0000
0100
0000
0001
0000
,  // measure 44
2000
0000
0000
3020
0000
0000
0032
0000
0000
0000
0013
0000
1000
0000
0001
0000
,  // measure 45
2000
0000
0000
3200
0000
0000
0302
0000
0000
0000
0103
0000
1000
0000
0001
0000
,  // measure 46
0100
0000
0000
0010
0000
0000
1000
0000
0001
0000
0001
0000
1001
0000
0000
0000
,  // measure 47
1000
0000
0000
0100
0000
0000
0010
0000
0001
0000
0000
0000
1001
0000
0002
0000
,  // measure 48
2000
0000
0000
0000
0000
0000
0000
3003
;
