#TITLE:Kangaroo Court;
#SUBTITLE:;
#ARTIST:Capital Cities;
#TITLETRANSLIT:;
#SUBTITLETRANSLIT:;
#ARTISTTRANSLIT:;
#GENRE:;
#CREDIT:;
#BANNER:Kangaroo Court - Capital Citiesbn.png;
#BACKGROUND:Kangaroo Court - Capital Citiesbg.png;
#LYRICSPATH:Kangaroo Court - Capital Cities.lrc;
#CDTITLE:encorerebirth.png;
#MUSIC:Kangaroo Court - Capital Cities.ogg;
#OFFSET:0.000;
#SAMPLESTART:50.435;
#SAMPLELENGTH:19.200;
#SELECTABLE:YES;
#BPMS:0.000=100.000
,80.000=50.000
,82.000=100.000
;
#STOPS:
;
#BGCHANGES:;
#KEYSOUNDS:;
#ATTACKS:;

//---------------dance-single - Spork!----------------
#NOTES:
     dance-single:
     :
     Beginner:
     1:
     0.090,0.119,0.086,0.134,0.000,43.000,9.000,14.000,0.000,0.000,0.000,0.090,0.119,0.086,0.134,0.000,43.000,9.000,14.000,0.000,0.000,0.000: // measure 0
0000
0000
0000
0000
,  // measure 1
0000
0000
0000
0000
,  // measure 2
0000
0000
0000
0000
,  // measure 3
0000
0000
0000
0000
,  // measure 4
2000
0000
3000
0000
,  // measure 5
2000
0000
3000
0000
,  // measure 6
0002
0000
0003
0000
,  // measure 7
0002
0000
0003
0000
,  // measure 8
0100
0000
0100
0000
,  // measure 9
0020
0000
0030
0000
,  // measure 10
0010
0000
0010
0000
,  // measure 11
0200
0000
0300
0000
,  // measure 12
0001
0000
0000
0000
,  // measure 13
1000
0000
0000
0000
,  // measure 14
0100
0000
0000
0000
,  // measure 15
0100
0000
0000
0000
,  // measure 16
1000
0000
0000
0000
,  // measure 17
0001
0000
0000
0000
,  // measure 18
0010
0000
0000
0000
,  // measure 19
0010
0000
0000
0000
,  // measure 20
0000
0000
1001
0000
,  // measure 21
0000
0000
1001
0000
,  // measure 22
0000
0000
0100
0000
,  // measure 23
0100
0000
0010
0000
,  // measure 24
0010
0000
0110
0000
,  // measure 25
0000
0000
0110
0000
,  // measure 26
0000
0000
0001
0000
,  // measure 27
0001
0000
1000
0000
,  // measure 28
1000
0000
0200
0000
,  // measure 29
0000
0000
0320
0000
,  // measure 30
0000
0000
0031
0000
,  // measure 31
1000
0000
2002
0000
,  // measure 32
0000
0000
3003
0000
,  // measure 33
0000
0000
0110
0000
,  // measure 34
0000
0000
1001
0000
,  // measure 35
0000
0000
2000
0000
,  // measure 36
3000
0000
0002
0000
,  // measure 37
0003
0000
1001
0000
,  // measure 38
0000
0000
0110
0000
,  // measure 39
0000
0000
0020
0000
,  // measure 40
0030
0000
0200
0000
,  // measure 41
0000
0000
0300
0000
;

//---------------dance-single - Spork!----------------
#NOTES:
     dance-single:
     :
     Easy:
     4:
     0.244,0.278,0.163,0.316,0.000,128.000,17.000,33.000,0.000,0.000,0.000,0.244,0.278,0.163,0.316,0.000,128.000,17.000,33.000,0.000,0.000,0.000: // measure 0
0000
0000
0000
0000
,  // measure 1
0000
0000
0000
0000
,  // measure 2
0000
0000
0000
0000
,  // measure 3
0000
0000
0000
0000
,  // measure 4
2000
0000
3010
1000
,  // measure 5
0002
0000
0103
0001
,  // measure 6
0020
0000
0031
0010
,  // measure 7
0200
0000
1300
0010
,  // measure 8
0200
0010
0320
1000
,  // measure 9
2030
0000
3010
1000
,  // measure 10
0200
0010
0320
0001
,  // measure 11
0032
0000
0103
0001
,  // measure 12
1000
0100
0010
0001
,  // measure 13
0100
0001
0010
0100
,  // measure 14
2000
0000
3010
1000
,  // measure 15
0002
0000
2003
0000
,  // measure 16
3001
0100
0010
1000
,  // measure 17
0001
1000
0010
0100
,  // measure 18
0002
0000
0013
0001
,  // measure 19
2000
0000
3002
0000
,  // measure 20
0003
0000
1001
0001
,  // measure 21
0010
0100
0110
0010
,  // measure 22
0100
1000
1000
0001
,  // measure 23
0001
0001
0100
0010
,  // measure 24
0010
0010
0110
0010
,  // measure 25
1000
0001
1001
1000
,  // measure 26
0100
0010
0010
0100
,  // measure 27
0100
0100
1000
0001
,  // measure 28
1000
0100
1002
1000
,  // measure 29
0013
0001
0200
0001
,  // measure 30
0320
1000
0230
0010
,  // measure 31
0310
1000
0200
2300
,  // measure 32
3002
0203
0300
0000
,  // measure 33
0000
0000
0101
1001
,  // measure 34
0202
0303
1100
1001
,  // measure 35
1100
1000
0020
0100
,  // measure 36
0130
0010
0200
0010
,  // measure 37
0310
0000
1010
1001
,  // measure 38
2200
3300
0101
1001
,  // measure 39
0011
0001
0200
0010
,  // measure 40
0310
0100
0020
0100
,  // measure 41
0200
0000
0330
0000
;

//---------------dance-single - Spork!----------------
#NOTES:
     dance-single:
     :
     Medium:
     5:
     0.277,0.278,0.240,0.307,0.024,145.000,25.000,32.000,0.000,0.000,0.000,0.277,0.278,0.240,0.307,0.024,145.000,25.000,32.000,0.000,0.000,0.000: // measure 0
0000
0000
0000
0000
,  // measure 1
0000
0000
0000
0000
,  // measure 2
0000
0000
0000
0000
,  // measure 3
0000
0000
0000
0000
,  // measure 4
0021
0000
0030
0000
0001
1000
0001
0000
,  // measure 5
0201
0000
0300
0000
0010
0100
0010
0000
,  // measure 6
1020
0000
0030
0000
1000
0001
1000
0000
,  // measure 7
1200
0000
0300
0000
0010
0100
0010
0000
,  // measure 8
0002
0010
0203
0001
,  // measure 9
0320
0000
0030
0000
1000
0001
1000
0000
,  // measure 10
2001
0100
3020
1000
,  // measure 11
0230
0000
0300
0000
0010
0100
0010
0000
,  // measure 12
1000
1100
0100
0110
,  // measure 13
0010
1001
0100
1100
,  // measure 14
0200
0000
0310
0001
,  // measure 15
0200
0000
0310
1000
,  // measure 16
0001
0101
0100
0110
,  // measure 17
0010
1001
0100
0101
,  // measure 18
0200
0000
0310
1000
,  // measure 19
0200
0000
0320
0000
,  // measure 20
0030
0000
1001
0001
,  // measure 21
0010
0001
0010
0000
0011
0000
0001
0000
,  // measure 22
0100
0010
0100
0000
0020
0000
2030
0000
,  // measure 23
3002
0023
0130
0010
,  // measure 24
0001
1000
0001
0000
0010
0000
0010
0000
,  // measure 25
0010
1001
0002
0023
,  // measure 26
0230
1300
1010
0110
,  // measure 27
0101
0000
0000
0000
1001
0000
0000
0000
1000
0000
0000
1000
0000
0000
1000
0000
,  // measure 28
0000
0100
0210
0000
,  // measure 29
1300
0001
0101
0001
,  // measure 30
0020
0000
0032
0000
,  // measure 31
1003
0001
0101
0110
,  // measure 32
1010
2000
0002
0000
,  // measure 33
3003
0000
0000
0000
1000
0100
1000
0100
,  // measure 34
0010
0000
0000
0000
0001
0100
0001
0100
,  // measure 35
0010
0000
0000
0000
2000
0000
0000
0000
0000
0000
0001
0000
0000
0001
0000
0000
,  // measure 36
3001
0000
0000
0000
0002
0000
0000
0000
0000
0000
1000
0000
0000
1000
0000
0000
,  // measure 37
1003
0000
1000
0000
0001
0010
0001
0010
,  // measure 38
0100
0000
0000
0000
1000
0010
1000
0010
,  // measure 39
0100
0000
0000
0000
0020
0000
0000
0000
0000
0000
0100
0000
0000
0100
0000
0000
,  // measure 40
0130
0000
0000
0000
0200
0000
0000
0000
0000
0000
0010
0000
0000
0010
0000
0000
,  // measure 41
0320
0000
0030
0000
;

//---------------dance-single - Spork!----------------
#NOTES:
     dance-single:
     :
     Challenge:
     10:
     0.723,0.680,0.230,0.556,1.000,446.000,24.000,58.000,38.000,0.000,0.000,0.723,0.680,0.230,0.556,1.000,446.000,24.000,58.000,38.000,0.000,0.000: // measure 0
0000
0000
0000
0000
,  // measure 1
0000
0000
0000
0000
,  // measure 2
0000
0000
0000
0000
,  // measure 3
0000
0000
0000
0000
,  // measure 4
MM01
0000
0010
0001
0010
0000
0001
0000
1000
0000
0010
0000
1000
0000
0M01
0000
0010
0000
0001
0000
M100
0000
0010
0000
0100
0000
0001
0000
1000
0000
0010
0000
,  // measure 5
1M0M
0000
0010
1000
0010
0000
1000
0000
0001
0000
0010
0000
0001
0000
1M00
0000
0010
0000
1000
0000
010M
0000
0010
0000
0100
0000
1000
0000
0001
0000
0010
0000
,  // measure 6
MM01
0000
0010
0001
0010
0000
0001
0000
0100
0000
0001
0000
0010
0000
0M01
0000
1000
0000
0001
0000
M100
0000
0010
0000
0100
0000
0001
0000
1000
0000
0100
0000
,  // measure 7
10MM
0000
0100
0000
1000
0000
0010
0000
0100
0000
0001
0000
1000
0000
00M1
0000
1000
0000
0100
1000
010M
0000
1000
0000
0010
0000
0100
0000
0001
0000
1000
0000
,  // measure 8
1MM1
0000
1000
0100
1000
0002
0000
M013
0001
0100
00M1
1000
0100
0020
0000
0030
,  // measure 9
M10M
0000
0010
0100
0010
0000
0100
0000
1000
0000
0010
0000
0100
0000
M001
0000
0000
0000
0001
0000
1M00
0000
0000
0000
0010
0000
1000
0000
0100
0000
0010
0000
,  // measure 10
M11M
0000
0010
0001
0010
0200
0000
130M
0010
1000
0M01
0010
0001
0200
0000
0300
,  // measure 11
M01M
0000
0100
0000
0010
0000
1000
0000
0001
0000
0010
0000
0001
0000
1M00
0000
0001
0000
1000
0001
10M0
0000
0001
0000
0100
0000
0001
0000
0010
0000
0100
0000
,  // measure 12
1000
0000
0100
1000
1010
0000
1000
0010
0100
0000
0010
0000
0101
0000
0001
1000
,  // measure 13
0000
1000
0100
0000
0110
0000
0020
0000
0000
0000
0031
1000
0001
0000
0100
0010
,  // measure 14
0000
0000
0010
1000
0010
0000
1000
0000
0100
0000
0010
0000
0200
0000
0000
0000
0000
0000
0000
0000
1300
0000
0001
0000
1000
0000
0000
0000
0100
0000
1000
0000
,  // measure 15
0010
0000
0100
0000
0001
0000
0100
0000
0010
0000
1000
0000
0100
0000
0010
0000
0001
0000
0010
0001
0010
0000
0001
0000
1000
0000
0010
0000
1000
0000
0100
0000
,  // measure 16
1000
0001
0100
0000
0101
0000
0001
1000
0000
1000
0010
0000
0110
0000
0010
0100
,  // measure 17
0000
0000
0100
0001
0100
0000
0001
0000
0010
0000
0100
0000
2000
0000
0010
0000
0000
0000
0000
0000
3010
0000
0000
0000
1000
0000
0001
0000
0000
0000
0001
0000
,  // measure 18
0010
0000
0001
0010
0001
0000
0010
0000
0100
0000
1000
0000
0020
0000
0000
0000
0000
0000
0000
0000
1030
0000
0000
0000
0001
0000
0100
0000
0000
0000
0100
0000
,  // measure 19
0010
0000
1000
0000
0100
0000
0010
0000
0001
0000
1000
0000
0001
0000
0100
0000
0010
0000
1000
0001
1000
0000
0010
0000
0100
0000
0001
0000
0010
0000
0100
0000
,  // measure 20
0000
0000
0000
0000
0000
0000
0110
0000
1002
0000
0203
0020
0300
2000
0030
0002
,  // measure 21
3000
0000
0023
0000
0200
0030
0300
0200
2000
0300
3020
0200
0030
0002
0300
2003
,  // measure 22
0000
0000
3100
0020
0200
0000
0030
2300
0002
0000
3000
0000
0203
0000
0300
0200
,  // measure 23
0000
0020
0000
0000
0000
0000
0300
0000
0000
0230
0000
0000
0002
0000
0000
0300
0000
0000
0000
0000
0000
0003
0000
0000
0011
0000
0000
0000
0000
0000
0000
0000
0000
0010
0000
0000
0100
0000
0000
1000
0000
0000
0010
0000
0000
0100
0000
0000
,  // measure 24
0001
0010
1000
0010
0001
1000
0010
0200
0000
0000
0000
0000
0020
0000
0000
0300
,  // measure 25
2000
0000
0030
0002
3000
0000
0000
0003
1200
0000
0000
2000
0300
0020
3000
0200
,  // measure 26
0030
0000
0302
0000
0020
0003
0000
0032
0200
0003
0300
0200
0020
0300
0030
0020
,  // measure 27
2000
0030
3000
2000
0002
3000
0003
0000
0011
0000
0000
1010
0000
0000
0011
0001
,  // measure 28
0100
0000
0101
0000
1100
0000
0100
1000
0020
0000
0000
0000
1000
0000
0000
0000
,  // measure 29
0001
0030
0110
0100
0001
0021
0000
0130
,  // measure 30
1200
0000
0000
0000
0001
0000
0000
0020
0300
0000
0000
0000
1000
0000
0000
0000
,  // measure 31
0100
0000
0030
0000
0011
0000
0001
0000
2000
0020
3000
0200
0030
0002
0300
0020
,  // measure 32
0003
0000
0000
0000
0031
0000
1000
0000
0001
0000
0100
0001
1000
0000
0010
0000
1000
0000
0100
1000
0100
0000
1000
0000
0010
0000
0100
0000
0001
0000
1000
0000
,  // measure 33
0001
0000
0010
0001
0010
0000
0001
0000
0100
0000
0010
0000
1000
0000
0001
0000
0010
0000
0010
0000
0001
0000
0100
0000
0100
0000
0001
0000
1000
0000
1000
0000
,  // measure 34
0010
0000
1000
0100
1000
0000
0010
0000
1000
0000
0001
0000
0010
0000
0100
0000
0010
0000
0010
0000
0100
0000
1000
0000
1000
0000
0100
0000
0001
0000
0001
0000
,  // measure 35
0000
0000
0000
0000
0100
0000
0000
0000
0010
0000
0000
0000
0001
0000
0000
0000
0000
0000
0000
0000
0001
0000
0000
0000
0100
0000
0000
0000
0000
0000
0000
0000
1001
0000
0000
0000
0000
0000
0000
0001
0010
0000
0000
0000
0000
0000
0000
0000
0000
0000
0000
0010
0100
0000
0000
0000
0000
0000
0000
0000
0000
0000
0000
0100
,  // measure 36
1000
0000
0000
0000
0000
0000
0000
0000
0010
0000
0000
0000
1000
0000
0000
0000
0000
0000
0000
0000
1000
0000
0000
0000
0100
0000
0000
0000
0000
0000
0000
0000
1001
0000
0000
0000
0000
0000
0000
1000
0100
0000
0000
0000
0000
0000
0000
0000
0000
0000
0000
0100
0010
0000
0000
0000
0000
0000
0000
0000
0000
0000
0000
0010
,  // measure 37
0001
0000
1000
0001
1000
0000
0001
0000
0100
0000
0000
0000
0100
0000
0001
0000
0010
0000
0010
0000
0001
0000
0100
0000
0100
0000
0001
0000
1000
0000
1000
0000
,  // measure 38
0010
1000
0100
0010
0001
1000
0010
0100
0010
0010
0100
0001
0001
0100
1000
1000
,  // measure 39
0000
0000
0000
0000
0100
0000
0000
0000
0010
0000
0000
0000
1000
0000
0000
0000
0000
0000
0000
0000
1000
0000
0000
0000
0100
0000
0000
0000
1000
0000
0000
0000
1001
0000
0000
0000
0000
0000
0000
1000
01M0
0000
0000
0000
0000
0000
0000
0000
0000
0000
0000
1000
001M
0000
0000
0000
0000
0000
0000
0000
0000
0000
0000
1000
,  // measure 40
00M1
0000
0000
0000
0000
0000
0000
0000
0100
0000
0000
0000
0001
0000
0000
0000
0000
0000
0000
0000
0001
0000
0000
0000
0010
0000
0000
0000
0001
0000
0000
0000
1001
0000
0000
0000
0000
0000
0000
0001
0M10
0000
0000
0000
0000
0000
0000
0000
0000
0000
0000
0001
M100
0000
0000
0000
0000
0000
0000
0000
0000
0000
0000
0001
,  // measure 41
1M00
0000
0001
1000
0001
0000
1000
0000
0010
0000
0100
0000
0001
0000
0020
0000
0000
0000
0000
0000
0000
0000
0000
0000
0030
0000
0000
0000
0000
0000
0000
0000
;

//---------------dance-single - Spork!----------------
#NOTES:
     dance-single:
     :
     Hard:
     8:
     0.459,0.437,0.259,0.268,0.484,280.000,27.000,28.000,0.000,0.000,0.000,0.459,0.437,0.259,0.268,0.484,280.000,27.000,28.000,0.000,0.000,0.000: // measure 0
0000
0000
0000
0000
,  // measure 1
0000
0000
0000
0000
,  // measure 2
0000
0000
0000
0000
,  // measure 3
0000
0000
0000
0000
,  // measure 4
2010
0000
0000
0000
3100
0000
0000
0110
0000
0000
0011
0000
0001
0000
0100
0000
,  // measure 5
0102
0000
0000
0000
0013
0000
0000
0110
0000
0000
1100
0000
1000
0000
0001
0000
,  // measure 6
0012
0000
0000
0000
0103
0000
0000
0110
0000
0000
0101
0000
0001
0000
1000
0000
,  // measure 7
2100
0000
0000
0000
3010
0000
0000
0110
0000
0000
1010
0000
1000
0000
0100
0000
,  // measure 8
0010
0000
0001
0100
0001
0100
0000
0100
0010
1000
0010
1000
0001
0010
0000
0000
,  // measure 9
0120
0000
0000
0000
0031
0000
0000
0101
0000
0000
1001
0000
0001
0000
1000
0000
,  // measure 10
0010
0000
1000
0100
1000
0100
0000
0100
0010
0001
0010
0001
1000
0010
0000
0000
,  // measure 11
0120
0000
0000
0000
1030
0000
0000
1100
0000
0000
0110
0000
0000
0000
0100
1000
,  // measure 12
0001
0000
0100
0000
0001
0000
0010
0001
1000
0000
0010
0000
1000
0000
0100
1000
,  // measure 13
0000
1000
0020
0000
0000
0000
0230
0000
0000
0000
0301
1000
0001
0000
1000
0100
,  // measure 14
0000
0000
0100
0000
1000
0000
0020
0000
0000
0000
1030
0001
1000
0000
0001
0100
,  // measure 15
0000
0000
0010
0000
0100
0000
0001
0010
0000
0010
0100
0000
0100
1000
0001
1000
,  // measure 16
0010
1000
0100
0000
0010
0000
0001
0100
0000
0100
0010
0000
1000
0000
0100
1000
,  // measure 17
0000
0000
0010
0000
1000
0000
0001
0100
0000
0000
0001
0000
0010
0100
0000
0020
,  // measure 18
0000
0000
0000
0000
0031
0000
0200
0000
0000
0000
0310
0000
1000
0001
0000
0100
,  // measure 19
0000
0000
0001
0000
0010
0000
0100
0000
1000
0000
0010
0000
1000
0001
1000
0001
,  // measure 20
0000
0000
0000
0000
0000
0000
0002
0000
1003
0000
0010
1000
0000
0100
0000
0010
,  // measure 21
0000
0000
0010
0000
0001
0000
0000
0001
0100
0000
0001
1000
0000
0010
0000
0100
,  // measure 22
0000
0000
0100
0010
0100
0000
0000
0100
0001
0000
0000
0000
0010
0000
0000
0010
,  // measure 23
0000
0100
0000
0000
0000
0000
0000
0000
0000
0100
0000
0000
1000
0000
0000
0000
0000
0000
0000
0000
0000
0000
0000
0000
1001
0000
0000
0000
0000
0000
0000
0000
0000
1000
0000
0000
0100
0000
0000
1000
0000
0000
0001
0000
0000
0100
0000
0000
,  // measure 24
0001
0010
0100
1000
0010
0100
0001
2000
0000
0000
0000
0000
3002
0000
0000
0000
,  // measure 25
2003
0000
0000
0002
3000
0000
0000
0000
0103
0000
0000
0010
0000
0100
0000
0001
,  // measure 26
0000
0000
0001
0000
1000
0000
0000
1000
0100
0000
0000
1000
0010
0000
0000
1000
,  // measure 27
0001
0000
0000
0001
1000
0000
0000
0000
1100
0000
0000
0101
0000
0000
1100
0000
,  // measure 28
1000
0010
0100
0000
0210
0000
0001
0000
,  // measure 29
0010
0000
1300
0000
0100
0101
0000
0001
,  // measure 30
0021
0130
0210
1000
,  // measure 31
0010
0000
0000
0000
0301
0000
0000
0000
0100
1000
0000
0010
0000
1000
0000
0001
,  // measure 32
0000
0000
0001
0100
0001
0000
0010
0200
0000
0000
0000
0000
0000
0000
0000
0000
,  // measure 33
0320
0000
0000
0000
0000
0000
0000
0000
0031
0100
0000
1000
0100
0000
0001
0100
,  // measure 34
0000
0000
0001
0000
0010
0000
0001
0000
1000
0100
0000
0001
0100
0000
1000
0100
,  // measure 35
0000
0010
0100
0010
0000
0001
0100
0000
0020
0000
1000
0000
0000
0100
0000
0000
,  // measure 36
1030
0000
0001
1000
0000
1000
0100
0000
0020
0000
0001
0000
0000
0100
0000
0000
,  // measure 37
0031
0000
0000
0000
1001
0000
0000
0000
1000
0010
0000
0001
0010
0000
1000
0010
,  // measure 38
0000
0000
0200
0000
0010
0000
0300
0000
0001
0010
0000
1000
0010
0000
0001
0010
,  // measure 39
0000
0100
0010
0100
0000
1000
0010
0000
0200
0000
0010
0000
0000
0001
0000
0000
,  // measure 40
0310
0000
1000
0001
0000
0001
0010
0000
0200
0000
0010
0000
0000
1000
0000
0000
,  // measure 41
0320
0200
0330
0000
;
