#TITLE:Jigsaw Hustle;
#SUBTITLE:;
#ARTIST:Diablo Swing Orchestra;
#TITLETRANSLIT:;
#SUBTITLETRANSLIT:;
#ARTISTTRANSLIT:;
#GENRE:;
#CREDIT:;
#BANNER:[Scrabble] - Jigsaw Hustle.png;
#BACKGROUND:[Scrabble] - Jigsaw Hustle-bg.png;
#LYRICSPATH:;
#CDTITLE:cdtitle.png;
#MUSIC:[Scrabble] - Jigsaw Hustle.mp3;
#OFFSET:-0.673000;
#SAMPLESTART:55.752995;
#SAMPLELENGTH:15.737701;
#SELECTABLE:YES;
#BPMS:0.000000=122.000000
,194.750000=61.000000
,201.000000=122.000000
;
#STOPS:194.750000=0.369000
;
#BGCHANGES:;
#KEYSOUNDS:;
#ATTACKS:;

//---------------dance-single - ----------------
#NOTES:
     dance-single:
     :
     Hard:
     7:
     0.480573,0.478023,0.388765,0.452237,0.285624,318.000000,49.000000,57.000000,0.000000,0.000000,0.000000,0.480573,0.478023,0.388765,0.452237,0.285624,318.000000,49.000000,57.000000,0.000000,0.000000,0.000000:
0000
0000
0000
0000
,
0000
0000
0000
0000
,
0000
0000
0000
0000
,
0000
0000
0000
0000
0000
0000
0000
0000
0000
0000
0000
0000
0001
1000
0001
1000
,
0002
0010
1000
0010
,
2003
0010
0001
0010
,
3002
0100
1000
0100
,
2003
0000
0000
0000
3100
0000
0000
0000
0010
0001
0010
0001
0000
0010
0000
0002
,
0000
0000
1003
0000
0001
0001
0100
0010
,
2020
3030
2002
3003
0001
0001
0010
0100
,
2200
0000
3300
0000
2200
0000
3300
0000
1000
0000
0001
0000
0100
0010
0100
0000
,
0001
1000
0001
0020
0000
0130
1000
0000
,
0001
0000
0000
0100
0000
0000
0020
0000
0000
0000
0000
0000
1030
0000
0000
0000
,
0002
0000
0000
0023
0000
0000
2030
0000
0000
0000
3200
0000
0302
0000
0000
0000
,
1003
0000
0000
0000
0001
1000
0000
0002
0000
0000
0000
0000
0103
0000
0000
0000
,
0010
0000
0000
1000
0000
0000
0200
0000
0010
0000
0000
0000
0310
0000
0001
0000
,
1000
0000
0000
2000
0000
0000
3001
0000
1000
0000
0000
0200
0000
0000
0310
0000
,
0001
0000
0000
0100
0000
0010
0000
0000
1000
0000
0000
1000
0000
0000
0001
0000
,
0100
0000
0000
0001
0000
0000
1000
0000
0001
0000
0000
0010
0000
0000
1000
0000
,
0010
0000
0001
0000
0100
0000
0010
0000
1000
0001
1000
0000
0001
1000
0001
2000
,
0000
3001
2000
0010
,
3002
0000
0000
0203
0000
0000
2300
0000
0000
0000
3020
0000
0032
0000
0000
0000
,
0013
0000
0000
0001
0000
0000
0100
0000
0010
0000
1000
0000
0001
0000
0000
0000
,
1000
0000
0000
0100
0000
0000
0010
0000
0001
0000
1000
0000
1000
0000
1000
0000
,
0001
0000
0000
1000
0010
1000
0000
0000
0001
0000
1000
0000
0100
0000
1000
0000
,
0001
0000
0000
0010
0100
0010
0000
0000
0001
0000
0000
1000
0010
0000
1000
0000
,
0002
0000
0000
0003
0100
0000
0010
0000
2000
0000
0000
3000
0001
0000
0000
0000
,
0011
0000
0000
1100
0000
0000
1001
0000
0000
0101
0000
0000
1010
0000
0000
0000
,
1000
0000
0000
0100
0000
0000
0020
0000
0001
0000
0000
0000
0230
0000
0000
0000
,
1300
0000
0000
0010
0000
0000
0200
0000
0001
0000
0000
0000
0320
0000
0000
0000
,
1030
0000
0000
0000
0010
0000
1000
0000
0100
0000
0000
0010
0000
0000
0002
0000
,
0000
1003
0001
0000
1000
0100
0001
0100
,
1000
0000
0000
0010
0000
0000
0100
0000
0001
0000
0000
0020
0000
0000
0031
0000
,
1000
0010
0000
1000
0002
0000
0023
0000
,
0130
0000
0010
0001
1000
0001
0100
0010
,
1000
0000
0002
0000
0013
0000
0001
1000
,
1001
0000
0000
0101
0000
0000
1001
0000
0000
1100
0000
0000
1001
0000
0000
0000
,
1010
0000
0000
0110
0000
0000
0101
0000
0000
1001
0000
0000
1100
0000
0000
0000
,
0011
0000
0000
0110
0000
0000
1100
0000
0000
1001
0000
0000
0101
0000
0000
0000
,
2001
0000
0000
0001
0000
0001
0000
3001
0000
0000
1000
0000
0001
0000
1000
0000
,
0001
0000
0000
0000
0100
0000
0000
0000
0010
0000
0000
1000
0000
0001
0000
1001
,
0000
0000
0000
0000
1000
0000
0000
0000
0100
0000
0000
0010
0000
0001
0000
1001
,
0000
0000
0000
0000
0001
0000
0000
0000
0100
0000
0000
0010
0000
1000
0000
1001
,
0000
0000
1000
0000
0001
0100
1000
0100
,
0001
0000
1000
0000
0010
0000
1000
0000
0100
0000
0010
0000
0001
0000
0000
0100
,
0000
0000
0010
0000
1000
0000
0100
0000
0010
0000
0001
0000
0100
0000
0000
0010
,
0000
0000
1000
0000
0010
0000
0001
0000
0010
0000
1000
0000
0100
0000
0000
0010
,
0000
0000
0001
0000
0010
0000
0100
0000
2000
0000
0000
0000
3010
0000
0000
2002
,
0000
0000
0000
0000
3003
0000
0000
0000
0001
1000
0001
1000
0000
0000
0000
0000
,
0002
0023
0230
2300
,
0002
3003
1001
0000
0110
0000
1000
0001
,
1000
0001
1000
0010
0100
0002
0000
0000
,
0013
0000
0000
0000
0001
0000
0000
0100
0000
0000
0020
0000
0000
0000
0000
0000
,
2030
0000
3001
0000
1000
0010
0001
0010
,
1000
0100
0010
0000
0002
0000
1003
0000
,
0001
0000
1000
0000
1010
0000
0000
1001
0000
0000
0101
0000
0000
1001
0000
0000
,
1100
0000
0000
0000
0011
0000
0000
1001
0000
0000
1100
0000
0000
1001
0000
0000
,
0101
0000
0000
0000
1010
0000
0000
0110
0000
0000
0101
0000
0000
1010
0000
0000
,
1001
0000
0000
0000
0011
0000
0000
1100
0000
0000
1000
0000
0001
0000
0000
0100
,
0000
0010
0000
2002
0000
0000
0000
0000
0000
0000
0000
0000
0000
0000
0000
0000
,
0000
3003
0000
0000
;

//---------------dance-single - ----------------
#NOTES:
     dance-single:
     :
     Challenge:
     9:
     0.602983,0.645331,0.158680,0.452237,0.579181,455.000000,20.000000,57.000000,0.000000,0.000000,0.000000,0.602983,0.645331,0.158680,0.452237,0.579181,455.000000,20.000000,57.000000,0.000000,0.000000,0.000000:
0000
0000
0000
0000
,
0000
0000
0000
0000
,
0000
0000
0000
0000
,
0000
0000
0000
0000
0000
0000
0000
0000
0000
0000
0000
0000
0001
0100
0010
1000
,
0002
0010
1000
0010
,
2003
0010
0001
0010
,
3002
0100
1000
0100
,
2003
0000
0000
0000
3100
0000
0000
0000
0010
0001
1000
0010
0000
0010
0000
1020
,
0000
0000
1030
0000
1000
1000
0100
0010
,
0022
0033
2002
3003
0001
0001
0100
0010
,
2020
0000
3030
0000
2020
0000
3030
0000
1000
0000
0001
0000
0010
0100
0010
0001
,
1000
0000
0010
0000
0001
0000
0010
0000
1000
0000
0100
0000
0010
0001
0010
0001
,
1000
0000
0000
1000
0001
0000
0100
0000
0020
0000
0000
0000
1030
0000
0000
0000
,
0002
0000
0000
0023
0000
0000
2030
0000
0000
0000
3200
0000
0302
0000
0003
0010
,
0001
0000
0000
0000
0001
0100
0000
0100
0010
0000
0000
0010
1000
0000
0001
0000
,
0010
0000
0000
0010
0100
0000
0010
0100
2000
0000
0000
0000
3001
0000
0100
0000
,
0010
1000
0000
0200
0000
0000
0310
0000
0010
0001
0000
0200
0000
0000
1300
0000
,
0100
0000
0001
0100
0000
0010
0000
0000
1000
0000
0000
1000
0000
0000
0001
0000
,
1000
0100
1000
0100
0000
1000
0100
0010
0001
1000
0001
1000
0000
0001
0100
0010
,
1000
0000
0001
0000
0100
0000
0010
0000
1000
0001
1000
0000
0001
1000
0001
0020
,
0000
0130
2001
0010
,
3002
0000
0000
0203
0000
0000
2300
0000
0000
0000
3020
0000
0032
0000
0010
0000
,
0013
0000
0000
0010
0001
0000
0100
0000
1000
0000
0100
0000
0001
0000
0010
0000
,
0100
0000
0000
0100
1000
0000
0010
0000
0001
0000
0010
0000
1000
0000
0100
0000
,
0010
0000
0000
0010
0001
1000
0000
0000
0001
0000
0100
0000
1000
0000
0100
0000
,
0001
0000
0000
0010
0001
1000
0000
0000
0001
0000
0000
1000
0100
0000
0010
0000
,
0002
0000
0000
0003
0100
0000
0010
0000
2000
0000
0000
3000
0100
0010
0100
0010
,
0001
0000
0001
0100
0000
0100
0010
0000
0010
1000
0000
0001
1000
0010
1000
0001
,
2000
0000
0000
3200
0000
0000
0310
0000
0001
0000
0100
0000
1000
0000
0100
0000
,
0002
0000
0000
0023
0000
0000
0130
0000
1000
0000
0010
0000
0001
0000
0010
0000
,
1000
0000
0000
0000
0100
0000
0010
0000
0002
0000
0000
0203
0000
0000
0310
0000
,
1000
0001
1000
0001
1000
0000
0100
0000
0010
0000
0001
1000
0001
0000
1000
0001
,
2000
0000
0000
3002
0000
0000
0103
0000
0010
0000
1000
0100
0010
0000
0100
0010
,
0001
0000
0200
0000
0000
0000
0310
0000
1000
0000
0001
0010
0100
0000
1000
0010
,
0100
0000
0001
1000
0001
0010
1000
0010
,
0002
0000
0000
0000
0203
0000
0000
0301
0100
0000
0010
0000
0010
0000
1000
0001
,
1000
0000
1000
0100
0000
0100
0010
0000
0010
0001
0000
0001
1000
0000
0001
0000
,
0100
0000
0100
0010
0000
0010
1000
0000
1000
0001
0000
0001
0010
0100
0010
0100
,
1000
0000
1000
0001
0000
0001
0100
0000
0100
0010
0000
0010
1000
0001
1000
0001
,
1000
0000
0000
1001
0000
1001
0000
1001
0000
1000
0100
0010
0001
1000
0000
1002
,
0000
0000
1003
0000
0100
0000
1000
0000
0100
0000
1000
0100
0000
0110
0000
1001
,
0000
0000
0001
0000
0100
0000
0001
0000
0100
0000
0001
0100
0000
0110
0000
1001
,
0000
0000
1000
0000
0010
0000
1000
0000
0010
0000
1000
0010
0000
0110
0000
1001
,
0000
0000
0001
0000
0010
0000
0001
0000
0010
0000
0001
1000
0001
1000
0001
0100
,
0000
0100
0001
1000
0001
0000
0100
0000
1000
0000
0100
0000
0001
0000
0010
0100
,
0000
0100
1000
0001
1000
0000
0010
0000
0001
0000
0010
0000
1000
0000
0100
0010
,
0000
0001
0010
0001
1000
0000
0001
0000
0100
0000
1000
0000
0100
0000
0001
0010
,
0000
0100
1000
0001
1000
0000
0010
0000
0200
0000
0000
0000
0310
0000
0000
2002
,
0000
0000
0000
0000
3003
0000
0000
0000
0001
0010
0100
1000
0000
0000
0000
0000
,
0002
0023
0230
2300
,
0002
3003
1001
0000
0110
0000
1000
0001
,
1000
0001
1000
0010
0100
0002
0010
0000
,
0103
0000
0000
0000
0010
0000
0000
0100
0010
0000
2000
0000
0000
0000
3002
0000
,
0010
0000
1003
0000
1000
0100
0001
0100
,
1000
0000
0020
0000
0100
0000
0000
0000
1030
0000
0000
0000
1000
0001
1000
0001
,
0000
0100
0010
0000
1000
0100
1000
0100
0000
0010
0001
0010
0001
0010
0000
0001
,
0100
0000
0010
0000
0100
0010
0100
0010
0000
1000
0001
1000
0001
1000
0000
0001
,
0010
0100
0010
0100
1000
0000
0010
0100
0000
0001
0010
0000
0100
0010
0000
0001
,
1000
0001
1000
0001
0100
0000
0010
1000
0000
0001
0010
0100
0010
0100
0010
0001
,
0000
1000
0000
2002
0000
0000
0000
0000
0000
0000
0000
0000
0000
0000
0000
0000
,
0000
3003
0000
0000
;

//---------------dance-single - ----------------
#NOTES:
     dance-single:
     :
     Medium:
     6:
     0.411434,0.478023,0.150746,0.571247,0.134878,272.000000,19.000000,72.000000,0.000000,0.000000,0.000000,0.411434,0.478023,0.150746,0.571247,0.134878,272.000000,19.000000,72.000000,0.000000,0.000000,0.000000:
0000
0000
0000
0000
,
0000
0000
0000
0000
,
0000
0000
0000
0000
,
0000
0000
0000
0000
0000
0000
1000
0100
,
0020
0001
0000
0031
,
2000
0001
0000
3001
,
0200
0001
0000
0301
,
2000
0000
0000
0000
3100
0000
0000
0000
0010
0000
0000
0001
0000
1000
0000
0002
,
0000
0000
1003
0000
0001
0100
0010
1000
,
0002
0003
2000
3000
0001
0010
0100
1000
,
0002
0003
2000
3000
0001
0100
0020
0030
,
1000
0100
0010
0002
0000
0103
0010
0000
,
1000
0000
0000
0001
0000
0000
0020
0000
0000
0000
0000
0000
0031
0000
0000
0000
,
0002
0000
0000
2003
0000
0000
3020
0000
0000
0000
0230
0000
0302
0000
0000
0000
,
1003
0000
0001
1000
0100
0000
0100
0000
,
0010
0000
0000
0001
0000
0000
1000
0000
0020
0000
0000
0000
1030
0000
0000
0000
,
0001
1000
0100
0000
0100
1000
0001
0000
,
1000
0000
0010
0100
0001
0000
1000
0001
,
0010
0001
0100
1000
,
0010
0000
0001
0000
0100
0000
0000
0000
0010
0000
0000
0000
0010
0000
0000
2001
,
0000
3001
2000
0010
,
3002
0000
0000
0203
0000
0000
0320
0000
0000
0000
2030
0000
3002
0000
0000
0000
,
0013
0000
0001
0100
0010
1000
0001
0000
,
1000
0000
0100
0010
0001
1000
0010
0000
,
1000
0000
0100
0000
0010
0001
0100
0001
,
1000
0000
0010
0000
0100
0000
0001
1000
,
0200
0000
0310
0001
2000
0000
3001
0000
,
2002
0000
0000
3003
0000
0000
0220
0000
0000
0330
0000
0000
1001
0000
0000
0000
,
1000
0000
0000
0001
0000
0000
0020
0000
0000
0000
0031
0000
0100
0000
0000
0000
,
0010
0000
0000
1000
0000
0000
0002
0000
0000
0000
1003
0000
0100
0000
0000
0000
,
0010
0000
0000
0000
0001
0000
1000
0000
0001
0000
0000
1000
0000
0000
0020
0000
,
0000
0000
0130
0000
0001
1000
0100
0010
,
0001
0000
0000
0001
0000
0000
0001
0000
1000
0000
0020
0000
0000
0000
0000
0000
,
1030
0010
0000
0100
0002
0000
0013
0000
,
0001
0000
1000
0001
1000
0100
0010
0001
,
1000
0001
0100
0010
,
2002
0000
0000
3003
0000
0000
0220
0000
0000
0330
0000
0000
0001
0000
2000
0000
,
0200
0000
0000
3300
0000
0000
0022
0000
0000
0033
0000
0000
0010
0000
0002
0000
,
0200
0000
0000
0303
0000
0000
2020
0000
0000
3030
0000
0000
1000
0000
0001
0000
,
2000
0000
0000
0001
0000
0001
0000
3001
0000
0000
1000
0000
0001
0000
0000
0000
,
1001
0000
0000
0000
0001
0000
0000
0000
0100
0000
0000
0001
0000
0001
0000
0001
,
0000
0000
0000
0000
1000
0000
0000
0000
0100
0000
0000
1000
0000
1000
0000
1000
,
0000
0000
0000
0000
0001
0000
0000
0000
0010
0000
0000
0001
0000
0001
0000
0001
,
0000
0000
0000
0000
1000
0000
0000
0000
0010
0000
0000
1000
0000
1000
0000
1000
,
0000
0000
0010
0000
1000
0000
0010
1000
,
0100
0000
0010
0000
0001
0000
0010
0001
,
0100
0000
0010
0000
1000
0000
0001
0100
,
1000
0000
0000
0000
0001
0000
0010
0000
1000
0000
0000
0000
0001
0000
0000
2002
,
0000
0000
0000
0000
3003
0000
0000
0000
1000
0000
0000
1001
0000
0000
0000
0000
,
0002
0023
0230
2300
,
0002
3003
1001
0000
1100
0000
0110
0000
,
0011
0000
0001
0100
0010
2000
0000
3010
,
1000
0000
0000
0000
0100
0000
0000
0010
0000
0000
0002
0000
0000
0000
1003
0000
,
0010
0000
1000
0000
0001
0010
0100
1000
,
0001
1000
0010
0000
2000
0000
3001
0000
,
1000
0000
0000
0000
2002
0000
0000
3003
0000
0000
2200
0000
0000
3300
0000
0000
,
0100
0000
0020
0000
0002
0000
0000
0033
0000
0000
0202
0000
0000
0303
0000
0000
,
0100
0000
0020
0000
2000
0000
0000
3030
0000
0000
2002
0000
0000
3003
0000
0000
,
0001
0000
1000
0000
0001
0000
0000
1000
0000
0000
0001
0000
1000
0000
0000
0001
,
0000
1000
0000
0020
0000
0000
0000
0000
0000
0000
0000
0000
0000
0000
0000
0000
,
0000
0030
0000
0000
;

//---------------dance-single - ----------------
#NOTES:
     dance-single:
     :
     Easy:
     3:
     0.268622,0.334616,0.103142,0.436369,0.003967,169.000000,13.000000,55.000000,0.000000,0.000000,0.000000,0.268622,0.334616,0.103142,0.436369,0.003967,169.000000,13.000000,55.000000,0.000000,0.000000,0.000000:
0000
0000
0000
0000
,
0000
0000
0000
0000
,
0000
0000
0000
0000
,
0000
0000
0000
1000
,
0002
0010
0000
0013
,
0002
1000
0000
1003
,
0002
0100
0000
0103
,
0002
1003
0010
1000
,
0002
0003
1000
0100
,
0020
0030
0200
0300
0010
0000
0001
0000
,
0200
0300
0200
0300
0000
0000
0020
0000
,
1030
0100
0010
0001
,
1000
0001
0200
0000
,
1300
0100
0001
0010
,
0200
0300
0020
0030
,
0001
1000
0020
0030
,
1000
1000
0001
1000
,
0001
0001
1000
0001
,
0010
0000
0100
0000
,
0010
0001
0100
0010
,
1000
0001
0020
0000
,
1030
0010
0001
0100
,
0020
0030
2000
3000
,
0001
1000
0200
0300
,
1000
1000
0010
1000
,
0001
0001
0010
0001
,
2000
3000
0002
0003
,
2002
0000
0000
3003
,
1000
0100
0020
0030
,
0001
0100
0020
0030
,
0000
0010
1000
0001
,
1000
0100
0010
0001
,
1000
1000
0020
0030
,
0100
0100
0002
0003
,
0000
1000
0100
0010
,
0001
2000
3000
0001
,
2002
0000
3003
0001
,
0202
0000
0303
1000
,
2200
0000
3300
0001
,
2002
0000
3003
0010
,
1001
0000
1000
0100
,
0001
0000
0001
0010
,
1000
0000
1000
0100
,
0001
0000
0001
0010
,
1000
1000
1000
1000
,
0100
0100
0100
0100
,
0001
0001
0001
0001
,
0010
0010
1000
0100
,
0220
0330
1001
0000
,
0002
0023
0230
2300
,
0002
3003
2002
0000
0000
0000
0000
0000
,
3003
0001
0001
0020
,
0030
0100
0100
2000
,
3000
0001
1000
0010
,
0100
0001
2000
3001
,
0000
2002
0000
3003
,
1000
2020
0000
3030
,
0001
0022
0000
0033
,
0001
1000
0010
0100
,
0000
0000
0000
2002
0000
0000
0000
0000
0000
0000
0000
0000
0000
0000
0000
0000
,
0000
3003
0000
0000
;

//---------------dance-single - ----------------
#NOTES:
     dance-single:
     :
     Beginner:
     1:
     0.137145,0.239011,0.023802,0.206284,0.000000,92.000000,3.000000,26.000000,0.000000,0.000000,0.000000,0.137145,0.239011,0.023802,0.206284,0.000000,92.000000,3.000000,26.000000,0.000000,0.000000,0.000000:
// measure 0
0000
0000
0000
0000
,  // measure 1
0000
0000
0000
0000
,  // measure 2
0000
0000
0000
0000
,  // measure 3
0000
0000
0000
0000
,  // measure 4
0002
0000
0000
0003
,  // measure 5
2000
0000
0000
3000
,  // measure 6
0020
0000
0000
0030
,  // measure 7
0200
0300
0001
0001
,  // measure 8
0002
0003
0000
0000
,  // measure 9
0010
0000
0010
0000
,  // measure 10
0200
0300
0000
1000
,  // measure 11
1000
0000
0001
0000
,  // measure 12
1000
0000
0000
0000
,  // measure 13
0002
0000
0000
0003
,  // measure 14
1000
0000
1000
0000
,  // measure 15
0010
0000
0100
0000
,  // measure 16
0001
0000
0000
0000
,  // measure 17
1000
0000
0000
0000
,  // measure 18
0001
0000
0010
0000
,  // measure 19
0100
0000
1000
0000
,  // measure 20
0001
0000
0000
0000
,  // measure 21
2000
0000
0000
3000
,  // measure 22
0001
0000
0001
0000
,  // measure 23
0010
0000
0100
0000
,  // measure 24
1000
0000
0000
0000
,  // measure 25
0001
0000
0000
0000
,  // measure 26
1000
0000
0010
0000
,  // measure 27
0100
0000
0001
0000
,  // measure 28
2000
0000
3000
0000
,  // measure 29
0002
0000
0003
0000
,  // measure 30
0010
0000
0001
0000
,  // measure 31
1000
0000
0010
0000
,  // measure 32
0200
0000
0300
0000
,  // measure 33
0020
0000
0030
0000
,  // measure 34
1000
0000
0100
0000
,  // measure 35
0010
0000
0001
0000
,  // measure 36
2000
0000
3000
0000
,  // measure 37
0002
0000
0003
0000
,  // measure 38
0200
0000
0300
0000
,  // measure 39
0020
0000
0030
0000
,  // measure 40
1000
0000
1000
0000
,  // measure 41
0001
0000
0001
0000
,  // measure 42
1000
0000
1000
0000
,  // measure 43
0001
0000
0001
0000
,  // measure 44
1000
1000
1000
0000
,  // measure 45
0001
0001
0001
0000
,  // measure 46
1000
1000
1000
0000
,  // measure 47
0001
0000
1000
0000
,  // measure 48
2002
3003
1001
0000
,  // measure 49
1000
0001
0010
0100
,  // measure 50
1000
2002
0000
3003
,  // measure 51
0000
2000
0000
3000
,  // measure 52
0000
0002
0000
0003
,  // measure 53
0000
0010
0000
0001
,  // measure 54
0000
1000
0000
0010
,  // measure 55
0000
2000
0000
3000
,  // measure 56
0000
0200
0000
0300
,  // measure 57
0000
0020
0000
0030
,  // measure 58
0000
0001
0000
0100
,  // measure 59
0000
0020
0000
0000
,  // measure 60
0000
0030
0000
0000
;
