#VERSION:0.81;
#TITLE:じゃんぴょん☆まじっく;
#SUBTITLE:;
#ARTIST:sei☆shin feat.茉莉亜;
#TITLETRANSLIT:Janpyon magic;
#SUBTITLETRANSLIT:;
#ARTISTTRANSLIT:;
#GENRE:;
#ORIGIN:;
#CREDIT:;
#BANNER:[Scrabble] - Janpyon magic.png;
#BACKGROUND:[Scrabble] - Janpyon magic-bg.png;
#PREVIEWVID:;
#JACKET:[Scrabble] - Janpyon magic-jacket.png;
#CDIMAGE:;
#DISCIMAGE:;
#LYRICSPATH:;
#CDTITLE:cdtitle.png;
#MUSIC:[Scrabble] - Janpyon magic.ogg;
#OFFSET:-1.025000;
#SAMPLESTART:76.414734;
#SAMPLELENGTH:12.000000;
#SELECTABLE:YES;
#BPMS:0.000=194.000;
#STOPS:;
#DELAYS:;
#WARPS:;
#TIMESIGNATURES:0.000=4=4;
#TICKCOUNTS:0.000=4;
#COMBOS:0.000=1;
#SPEEDS:0.000=1.000=0.000=0;
#SCROLLS:0.000=1.000;
#FAKES:;
#LABELS:0.000=Song Start;
#BGCHANGES:;
#KEYSOUNDS:;
#ATTACKS:
;

//---------------dance-single - ----------------
#NOTEDATA:;
#CHARTNAME:;
#STEPSTYPE:dance-single;
#DESCRIPTION:;
#CHARTSTYLE:;
#DIFFICULTY:Hard;
#METER:8;
#RADARVALUES:0.671502,0.599860,0.661136,0.282192,0.000000,466.000000,82.000000,35.000000,0.000000,0.000000,0.000000,0.000000,0.000000,0.671502,0.599860,0.661136,0.282192,0.000000,466.000000,82.000000,35.000000,0.000000,0.000000,0.000000,0.000000,0.000000;
#CREDIT:;
#NOTES:
0000
0000
0000
0000
,
0000
0000
0000
0000
,
0000
0000
0000
0000
,
0000
0000
0000
0000
,
0000
0000
0000
0000
,
1100
0000
1010
0000
1000
0001
0100
0000
,
0110
0000
0010
1000
0001
1000
0100
0001
,
0100
0010
0001
0000
1001
0000
0001
0100
,
1000
0000
0001
0010
1000
0100
0001
0100
,
1000
1010
0001
0101
,
0010
1001
0100
1001
,
0001
0100
1000
0010
,
0001
0100
1000
0100
0001
1000
0001
0000
,
0101
0000
0011
0000
0001
1000
0100
0000
,
0110
0000
0010
0001
1000
0001
0100
1000
,
0100
0010
1000
0000
1001
0000
1000
0100
,
0001
0000
1000
0010
0001
0100
1000
0100
,
0001
0011
1000
1100
,
0010
1001
0100
1001
,
1000
0100
0001
0010
,
1000
0100
0001
0100
1000
0001
1000
0000
,
1001
0000
1001
0000
0001
0100
0000
0110
,
0000
0110
0000
0100
0001
0000
1001
0000
,
0110
0000
1001
0000
1000
0100
0000
0110
,
0000
0110
0000
0100
1000
0001
0100
0000
,
0110
0000
0110
0000
0010
1000
0000
1001
,
0000
1001
0000
1000
0010
1000
0100
0010
,
0001
0100
1000
0100
0001
1000
0100
0010
,
0000
0110
0000
0100
0010
0001
1000
0000
,
1002
0100
2003
0100
,
0010
3002
0100
0103
,
2001
0100
3002
0100
,
0023
1000
0100
0130
,
1002
0100
0023
1000
,
0230
0001
2300
0010
,
3001
0101
0010
1001
,
0001
1000
0100
1000
0010
0010
0010
0000
,
2001
0100
3002
0100
,
0010
2003
0100
3100
,
1002
0100
2003
0100
,
3020
0001
0100
0130
,
2001
0100
3020
0001
,
0230
1000
0302
0010
,
1003
0100
0001
0100
1000
0001
0100
0010
,
0000
0110
0000
0100
0010
1000
0001
0000
,
1002
0000
0100
0000
1000
1000
2003
0000
,
0100
0000
3002
0000
0010
0010
0013
0000
,
2001
0000
0100
0000
0001
0001
3002
0000
,
0100
0000
2003
0000
0010
0010
3010
0000
,
1002
0000
0100
0000
1003
0100
0110
0000
,
2001
0000
0100
0000
3001
0100
0110
0000
,
1000
0100
0001
0000
0001
0100
1000
0000
,
0001
0100
1000
0000
1000
0100
0001
0000
,
2001
0100
3020
0001
,
0000
0000
0001
0000
1030
0100
0110
0000
,
1002
0100
0023
1000
,
0000
0000
1000
0000
0031
0100
0110
0000
,
1000
0001
0100
0000
0001
1000
0100
0000
,
1000
0001
0100
0100
1000
0001
1001
0000
,
0001
1000
0100
0000
1000
0001
0100
0000
,
0001
1000
0100
0100
0001
1000
1001
0000
,
1000
0001
0100
0000
1001
0000
0001
1000
,
0100
0000
0010
0001
1000
0001
0100
1000
,
0100
0010
1000
0000
1001
0000
1000
0100
,
0001
0000
1000
0010
0001
0100
1000
0100
,
0001
0011
1000
1100
,
0010
1001
0100
1001
,
1000
0100
0001
0010
,
1000
0100
0001
0100
1000
0001
1000
0000
,
0001
1000
0100
0000
1001
0000
1000
0001
,
0100
0000
0010
1000
0001
1000
0100
0001
,
0100
0010
0001
0000
1001
0000
0001
0100
,
1000
0000
0001
0010
1000
0100
0001
0100
,
1000
1010
0001
0101
,
0010
1001
0100
1001
,
0001
0010
0001
1000
0100
1000
0001
1000
,
0010
0100
0010
1000
0100
0100
1000
0001
,
1000
0010
1000
0001
0100
0001
1000
0001
,
0010
0100
0010
0001
0100
0100
0001
1000
,
0001
0100
1000
0000
1000
0100
0001
0000
,
1000
0100
0001
0000
0001
0100
1000
0000
,
0001
1000
0100
0000
1000
0001
0100
0000
,
1001
0110
1001
0110
,
1001
0000
1001
0000
1000
0100
0000
0110
,
0000
0110
0000
0100
1000
0000
1001
0000
,
0110
0000
1001
0000
0001
0100
0000
0110
,
0000
0110
0000
0100
0001
1000
0100
0000
,
0110
0000
0110
0000
0010
0001
0000
1001
,
0000
1001
0000
0001
0010
0001
0100
0010
,
1000
0100
0001
0100
1000
0001
0100
0010
,
0000
0110
0000
0100
0010
1000
0001
0000
,
1002
0000
2003
0000
,
3200
0000
0000
0000
,
0300
0000
0000
0000
;

//---------------dance-single - ----------------
#NOTEDATA:;
#CHARTNAME:;
#STEPSTYPE:dance-single;
#DESCRIPTION:;
#CHARTSTYLE:;
#DIFFICULTY:Medium;
#METER:6;
#RADARVALUES:0.653073,0.599860,0.959453,0.314443,0.000000,409.000000,119.000000,39.000000,0.000000,0.000000,0.000000,0.000000,0.000000,0.653073,0.599860,0.959453,0.314443,0.000000,409.000000,119.000000,39.000000,0.000000,0.000000,0.000000,0.000000,0.000000;
#CREDIT:;
#NOTES:
0000
0000
0000
0000
,
0000
0000
0000
0000
,
0000
0000
0000
0000
,
0000
0000
0000
0000
,
0000
0000
0000
0000
,
0101
0011
0100
1001
,
1001
0000
0001
0100
1000
0100
0001
0000
,
1100
1010
0100
1001
,
1001
0000
1000
0100
0001
0100
1000
0001
,
1000
0101
0010
1100
,
0010
1001
0100
1001
,
1000
0100
0001
0010
,
1000
0001
1000
0001
1000
0001
1000
0000
,
1100
1010
0100
1001
,
1001
0000
1000
0100
0001
0100
1000
0000
,
0101
0011
0100
1001
,
1001
0000
0001
0100
1000
0100
0001
1000
,
0001
1100
0010
0101
,
0010
1001
0100
1001
,
0001
0100
1000
0010
,
0001
1000
0001
1000
0001
1000
0001
0000
,
1001
0000
1001
0000
1000
0100
0000
0110
,
0000
0110
0000
0100
1000
0100
1000
0000
,
1001
0000
1001
0000
0001
0100
0000
0110
,
0000
0110
0000
0100
0001
0100
0001
0000
,
1001
0000
1001
0000
1000
0001
0000
0101
,
0000
0101
0000
0001
1000
0001
1000
0000
,
1001
0000
1001
0000
0001
1000
0000
1100
,
0000
1100
0000
1000
0001
1000
0001
0000
,
2001
0100
3002
0100
,
0010
2003
0100
3100
,
1002
0100
2003
0100
,
3020
0001
0100
0130
,
2001
0100
3020
0001
,
0230
1000
0302
0010
,
1003
1100
0010
1001
,
1000
0001
0100
0001
0010
0010
0010
0000
,
1002
0100
2003
0100
,
0010
3002
0100
0103
,
2001
0100
3002
0100
,
0023
1000
0100
0130
,
1002
0100
0023
1000
,
0230
0001
2300
0010
,
3002
0100
2003
0100
,
3001
0000
1000
0001
1000
0001
1000
0000
,
2001
0100
0000
3002
,
0100
0023
1000
0031
,
1002
0100
0000
2003
,
0100
3020
0001
1030
,
1002
0000
0100
0000
0010
0010
0013
0000
,
2001
0000
0100
0000
0010
0010
3010
0000
,
1002
0100
1000
0013
,
2001
0100
0001
3010
,
1002
0100
0023
1000
,
0000
1000
0100
0130
,
2001
0100
3020
0001
,
0000
0001
0100
0130
,
0001
1000
0100
0000
1000
0001
0100
0000
,
0001
1000
0001
1000
0001
0000
1001
0000
,
1000
0001
0100
0000
0001
1000
0100
0000
,
1000
0001
1000
0001
1000
0000
1001
0000
,
1100
1010
0100
1001
,
1001
0000
1000
0100
0001
0100
1000
0000
,
0101
0011
0100
1001
,
1001
0000
0001
0100
1000
0100
0001
1000
,
0001
1100
0010
0101
,
0010
1001
0100
1001
,
0001
0100
1000
0010
,
0001
1000
0001
1000
0001
1000
0001
0000
,
0101
0011
0100
1001
,
1001
0000
0001
0100
1000
0100
0001
0000
,
1100
1010
0100
1001
,
1001
0000
1000
0100
0001
0100
1000
0001
,
1000
0101
0010
1100
,
0010
1001
0100
1001
,
0101
1100
0101
1001
,
1100
0101
1100
1001
,
0101
0011
0101
1001
,
1100
1010
1100
1001
,
1000
0100
0001
0000
0001
0100
1000
0000
,
0001
0100
1000
0000
1000
0100
0001
0000
,
1000
0001
0100
0000
0001
1000
0100
0000
,
1001
0110
1001
0110
,
1001
0000
1001
0000
0001
0100
0000
0110
,
0000
0110
0000
0100
0001
0100
0001
0000
,
1001
0000
1001
0000
1000
0100
0000
0110
,
0000
0110
0000
0100
1000
0100
1000
0000
,
1001
0000
1001
0000
0001
1000
0000
1100
,
0000
1100
0000
1000
0001
1000
0001
0000
,
1001
0000
1001
0000
1000
0001
0000
0101
,
0000
0101
0000
0001
1000
0001
1000
0000
,
2001
0000
3002
0000
,
0203
0000
0000
0000
,
0300
0000
0000
0000
;

//---------------dance-single - ----------------
#NOTEDATA:;
#CHARTNAME:;
#STEPSTYPE:dance-single;
#DESCRIPTION:;
#CHARTSTYLE:;
#DIFFICULTY:Easy;
#METER:4;
#RADARVALUES:0.544803,0.599860,0.967516,0.338630,0.000000,311.000000,120.000000,42.000000,0.000000,0.000000,0.000000,0.000000,0.000000,0.544803,0.599860,0.967516,0.338630,0.000000,311.000000,120.000000,42.000000,0.000000,0.000000,0.000000,0.000000,0.000000;
#CREDIT:;
#NOTES:
0000
0000
0000
0000
,
0000
0000
0000
0000
,
0000
0000
0000
0000
,
0000
0000
0000
0000
,
0000
0000
0000
0000
,
1100
1010
0100
1001
,
1001
0000
0100
0100
,
0101
0011
0100
1001
,
1001
0000
0100
0100
,
1001
0000
1100
0000
,
0101
0000
1001
0100
,
1001
0110
1001
0110
,
1002
0100
0100
0103
,
0101
0011
0100
1001
,
1001
0000
0100
0100
,
1100
1010
0100
1001
,
1001
0000
0100
0100
,
1001
0000
0101
0000
,
1100
0000
1001
0100
,
1001
0110
1001
0110
,
2001
0100
0100
3100
,
1001
1001
0001
0100
,
0001
0001
1000
0100
,
1001
1001
1000
0100
,
1000
1000
0001
0100
,
1001
1001
1000
0001
,
0100
0100
0001
1000
,
1001
1001
0001
1000
,
0100
0100
1000
0001
,
1002
0000
2003
0100
,
0010
3002
0100
0103
,
2001
0000
3002
0100
,
0023
1000
0100
0130
,
1002
0000
2003
0000
,
3200
0000
0320
0000
,
0031
0101
0010
1001
,
0001
1000
0100
0100
,
2001
0000
3002
0100
,
0010
2003
0100
3100
,
1002
0000
2003
0100
,
3020
0001
0100
0130
,
2001
0000
3002
0000
,
0203
0000
0320
0000
,
1030
1000
0001
0100
,
0001
0001
1000
0100
,
1002
0100
0000
2003
,
0100
3020
0001
1030
,
2001
0100
0000
3002
,
0100
0023
1000
0031
,
2001
0100
0100
3100
,
1002
0100
0100
0103
,
2001
0100
0001
3010
,
1002
0100
1000
0013
,
2001
0100
3020
0001
,
0000
0001
0100
0130
,
1002
0100
0023
1000
,
0000
1000
0100
0130
,
1000
0001
0100
1000
,
0100
0001
1000
1001
,
0001
1000
0100
0001
,
0100
1000
0001
1001
,
0101
0011
0100
1001
,
1001
0000
0100
0100
,
1100
1010
0100
1001
,
1001
0000
0100
0100
,
1001
0000
0101
0000
,
1100
0000
1001
0100
,
1001
0110
1001
0110
,
2001
0100
0100
3100
,
1100
1010
0100
1001
,
1001
0000
0100
0100
,
0101
0011
0100
1001
,
1001
0000
0100
0100
,
1001
0000
1100
0000
,
0101
0000
1001
0100
,
1001
0110
1001
0110
,
1001
0101
1001
0011
,
1001
1100
1001
1010
,
1001
0110
1001
0110
,
1002
0100
0000
0103
,
2001
0100
0000
3100
,
0001
1000
0100
0000
1000
0001
0100
0000
,
1001
0110
1001
0110
,
1001
1001
1000
0100
,
1000
1000
0001
0100
,
1001
1001
0001
0100
,
0001
0001
1000
0100
,
1001
1001
0001
1000
,
0100
0100
1000
0001
,
1001
1001
1000
0001
,
0100
0100
0001
1000
,
1002
0000
2003
0000
,
3200
0000
0000
0000
,
0300
0000
0000
0000
;
