#TITLE:イゴモヨス=オムルのテーマによるブヨブヨ・スケッチの試み;
#SUBTITLE:;
#ARTIST:日本楽音ノイズ協会;
#TITLETRANSLIT:Igomoyos=omul no theme ni yoru buyobuyo sketch no kokoromi;
#SUBTITLETRANSLIT:;
#ARTISTTRANSLIT:Nihon gakuon noise kyoukai;
#GENRE:;
#CREDIT:Silverhawke;
#MENUCOLOR:;
#METERTYPE:DDR;
#BANNER:[Scrabble] - Igomoyos=omul no theme ni yoru buyobuyo sketch no kokoromi.png;
#BACKGROUND:[Scrabble] - Igomoyos=omul no theme ni yoru buyobuyo sketch no kokoromi-bg.png;
#LYRICSPATH:;
#CDTITLE:cdtitle.png;
#MUSIC:[Scrabble] - Igomoyos=omul no theme ni yoru buyobuyo sketch no kokoromi.mp3;
#OFFSET:-0.028;
#SAMPLESTART:15.328;
#SAMPLELENGTH:15.000;
#SELECTABLE:YES;
#LISTSORT:;
#BPMS:0.000=200.000;
#STOPS:;
#BGCHANGES:;
#ATTACKS:;

//---------------dance-single - ----------------
#NOTES:
     dance-single:
     :
     Hard:
     9:
     0.859,1.000,0.500,0.271,0.521: // measure 1
0000
0000
0000
0000
,  // measure 2
0000
0000
0000
0000
,  // measure 3
0000
0000
0000
0000
,  // measure 4
0000
0000
0000
0000
0000
0000
0000
0000
0000
0001
0000
0010
,  // measure 5
0100
0000
1000
0010
0100
0000
0001
0010
,  // measure 6
0100
1000
0001
0100
0010
0000
0100
0001
,  // measure 7
2000
0100
3001
0011
,  // measure 8
0000
0011
0000
0000
0101
0000
0000
0101
,  // measure 9
0000
0000
1010
0000
0000
1010
0000
0000
,  // measure 10
1100
0000
0000
1100
0000
0000
0010
0000
,  // measure 11
0010
0001
0000
0001
0100
0000
0100
0010
,  // measure 12
0000
0010
1000
0000
1000
0001
0000
0001
,  // measure 13
0010
0200
2300
3020
0230
0302
1003
0100
,  // measure 14
0010
0001
0010
0100
1000
0010
0100
0001
,  // measure 15
1000
0000
0100
0010
0100
0000
0000
0000
1000
0000
1000
0000
0010
0000
0100
0000
,  // measure 16
0001
0000
0010
0000
0100
1000
0100
0000
0010
0000
0000
0000
0001
0000
0100
0000
,  // measure 17
0010
1000
0001
0010
0100
0010
0001
1000
,  // measure 18
0010
0100
0010
0000
1000
0000
0000
0000
0001
0000
0100
0000
0010
0000
1000
0000
,  // measure 19
0001
1000
0001
0000
0010
0000
0100
0000
1000
0000
0010
0000
0110
0000
0000
0000
,  // measure 20
0000
0000
0001
1000
0001
0000
0010
0000
1000
0000
0010
0000
0000
0000
0100
0000
,  // measure 21
1000
0001
0101
0000
0010
0000
1000
0000
,  // measure 22
1100
0000
0010
0000
0001
0000
1010
0010
,  // measure 23
0100
0101
0001
1000
0100
0110
0000
0001
,  // measure 24
0100
0000
0000
0010
0000
0000
1000
0000
0100
0000
1000
0000
0001
0000
0100
0000
0001
0000
0020
0000
0000
0030
0000
0000
,  // measure 25
1100
1000
0001
0101
0100
0010
1010
0000
,  // measure 26
0001
0000
0010
0100
0000
1000
0100
0000
0000
0010
0000
0001
,  // measure 27
0100
0000
0010
1000
0000
0001
0010
0000
0010
0100
1000
0001
,  // measure 28
0100
0000
0000
0000
0010
0000
0000
0000
0100
0000
0000
0000
0001
0000
0000
0000
0000
0000
1000
0000
0000
0100
0000
0000
1000
0000
0000
0000
0000
0000
0010
0000
0000
0000
0000
0000
0100
0000
0000
0000
0000
0000
1000
0000
0000
0000
0000
0000
,  // measure 29
0100
0000
0001
0000
2000
0000
0000
0000
3010
0000
0100
0000
0001
1000
0001
0000
,  // measure 30
0010
0100
1000
0100
0001
0100
0010
0001
,  // measure 31
1000
0000
0000
0010
0000
0000
0200
0000
0000
0000
0000
0000
0301
0000
0000
0000
0001
0000
0010
0000
0000
0000
0010
0000
,  // measure 32
0100
0000
0100
1000
0010
1000
0010
0100
0010
0100
0001
0100
,  // measure 33
0001
0000
1000
1000
0000
0000
0100
0000
0010
0001
0000
0000
,  // measure 34
0100
0000
0010
1000
0000
1000
0001
0000
0001
0010
0000
0000
,  // measure 35
0100
0000
1000
0002
0000
0000
0100
0000
0000
0013
0000
0000
,  // measure 36
0001
0000
0100
0100
0000
0000
0010
0000
1000
0100
0000
0000
,  // measure 37
0010
0000
0001
0100
0000
0100
0010
0000
0010
1000
0000
0000
,  // measure 38
0001
0000
0000
0000
1000
0000
0020
0030
0000
0000
0000
0000
0022
0033
0000
0000
0000
0000
2002
3003
0000
0000
0000
0000
,  // measure 39
0001
0000
0100
0010
0000
1000
0000
0000
0001
0010
0000
0100
,  // measure 40
0000
0000
1000
0001
0000
0100
0000
0000
0010
1000
0000
0001
,  // measure 41
0010
0100
1000
0001
0000
0100
0000
0000
0010
1000
0000
0001
,  // measure 42
0010
0100
0010
0001
1000
0001
0100
0010
0100
0001
0010
0001
,  // measure 43
1000
0010
0100
0001
0000
0001
1000
0100
0010
0001
0000
0001
,  // measure 44
1000
0010
0100
0010
0000
1000
0001
0000
0010
0010
0100
1000
,  // measure 45
0001
0000
0000
0001
0100
0010
1000
0000
1000
0100
0010
0001
,  // measure 46
0100
0000
0100
0010
1000
0001
0010
0000
0001
0001
0000
0000
,  // measure 47
1000
0000
0100
1000
0000
0100
1000
0000
,  // measure 48
0100
0000
1000
0000
0010
0100
0010
0100
0010
0000
0000
0000
1000
0000
0100
0000
,  // measure 49
0000
0000
1000
0000
0001
0000
0000
0000
1000
0000
0001
0000
0000
0000
0010
0100
,  // measure 50
0010
0000
0001
0010
0000
0001
0010
0000
,  // measure 51
0100
1000
0010
0100
0101
0010
1000
1100
,  // measure 52
0010
0001
0011
0100
1000
1010
0002
0000
,  // measure 53
0013
0000
0001
0100
0010
1000
0100
0000
,  // measure 54
0010
0000
0000
0000
0001
0000
0000
0000
2000
0000
0000
0000
3000
0000
0010
0100
,  // measure 55
0010
2000
3002
0023
,  // measure 56
0130
1000
0001
0100
0000
0010
1000
0000
,  // measure 57
0001
0000
0010
0000
0100
0010
0001
1000
,  // measure 58
0000
0010
1000
0001
0010
0100
1000
0010
,  // measure 59
0110
0000
1000
0000
0001
0000
0010
0100
,  // measure 60
0001
0000
0100
0000
1000
0001
1000
0000
0110
0000
0000
0001
0000
0000
0100
0000
,  // measure 61
0000
0010
0000
0000
1001
0000
0000
0110
0000
0000
0101
0000
0000
1100
0000
0000
,  // measure 62
2002
0000
0000
0000
3003
0000
0010
0100
1000
0000
0000
0000
0001
0000
0000
0000
,  // measure 63
0000
1001
0000
0000
0100
0010
0100
0010
,  // measure 64
1000
0000
0100
0000
0010
0000
0001
0000
1000
0000
0010
0100
0010
0000
1000
0000
,  // measure 65
0001
0010
0100
1000
0001
0200
0320
2030
,  // measure 66
0000
0000
0000
3002
0000
0000
1003
0010
1000
0001
0010
0001
,  // measure 67
0100
0000
0000
0000
0000
0000
0010
0000
0000
0000
0000
0000
1000
0000
0000
0001
0000
0000
0010
0000
0100
0000
0010
0000
,  // measure 68
0100
1000
0001
0100
0010
1000
0001
1000
,  // measure 69
0100
0000
0010
0000
0001
0100
0010
0000
1000
0000
0100
0000
1000
0000
0020
0000
,  // measure 70
0230
0000
0302
0000
0000
0000
0013
0000
0100
0000
1000
0000
0001
0000
0100
0010
,  // measure 71
0100
0000
0001
0000
0010
0000
0100
0000
1000
0001
1000
0000
0010
0000
0000
0000
,  // measure 72
0100
0001
0010
0100
,  // measure 73
1000
0000
0101
0001
0010
1100
0000
0000
,  // measure 74
1010
1000
0100
0011
0001
0100
1001
0000
,  // measure 75
0001
0101
0000
1000
1100
0000
0001
1001
,  // measure 76
0000
1000
1010
0000
0001
0011
0000
1000
,  // measure 77
1001
0000
0000
0000
0010
0000
0110
0000
0000
0000
1000
0000
1100
0000
0000
1100
,  // measure 78
0000
0000
0101
0000
0000
0101
0000
0000
1001
0000
0000
1001
0000
0000
0010
0000
,  // measure 79
0100
0001
0010
0100
1000
0001
0000
1000
,  // measure 80
0010
0100
0001
0010
0100
1000
1001
0000
,  // measure 81
0001
0100
0001
0000
0000
0000
1000
0100
1000
0000
0000
0000
0000
0000
0110
0000
,  // measure 82
0000
0000
0001
0100
0010
0100
0001
0010
,  // measure 83
0100
0001
0100
1000
0010
0100
0001
0010
,  // measure 84
1000
0010
0100
1000
0010
0001
0010
0100
,  // measure 85
0001
1000
1100
0010
0010
0001
0100
0100
,  // measure 86
0010
1000
1000
0001
0010
0100
1000
0010
,  // measure 87
0010
0100
0001
0001
1000
0100
0100
0010
,  // measure 88
0001
0000
1000
0000
0010
0000
0100
0001
0100
0000
0010
0000
1000
0001
1000
0000
,  // measure 89
0100
0000
0010
0001
0010
0000
0100
0000
1000
0001
1000
0000
0010
0000
0100
0001
,  // measure 90
0100
0000
0010
0000
1000
0001
1000
0000
0010
0100
0010
0100
0010
0100
0001
1000
,  // measure 91
0001
1000
0001
1000
0000
0000
0000
0000
1100
0000
0000
0000
0101
0000
0000
0000
,  // measure 92
1001
0000
0110
0000
1010
0000
0011
0100
,  // measure 93
2020
0000
0000
0000
,  // measure 94
0000
0000
0000
0000
0000
0000
0000
0000
0000
3000
0000
0000
0000
0002
0000
0000
,  // measure 95
0000
0000
0000
0000
,  // measure 96
0000
0003
0000
0000
,  // measure 97
0000
0030
0000
0000
;

//---------------dance-single - ----------------
#NOTES:
     dance-single:
     :
     Medium:
     7:
     0.554,0.694,0.331,0.203,0.114: // measure 1
0000
0000
0000
0000
,  // measure 2
0000
0000
0000
0000
,  // measure 3
0000
0000
0000
0000
,  // measure 4
0000
0000
0000
1000
,  // measure 5
1001
0000
0001
0010
0001
0000
0100
0000
,  // measure 6
0010
0000
1000
0000
0100
0000
0010
0001
,  // measure 7
2000
0000
3001
1000
,  // measure 8
0000
1100
0000
0000
0001
0000
0000
0101
,  // measure 9
0000
0000
1000
0000
0000
1010
0000
0000
,  // measure 10
0001
0000
0000
0011
0000
0000
1000
0000
,  // measure 11
1000
0100
0000
0000
0010
0000
0010
0001
,  // measure 12
0000
0000
0001
0000
0001
0100
0000
0000
,  // measure 13
0010
1000
0010
0100
0001
1000
0001
0000
,  // measure 14
0001
0010
0000
0010
0100
0000
0100
1000
,  // measure 15
0001
1000
0010
0000
0010
0100
0000
0100
,  // measure 16
0001
1000
0100
0010
0001
0000
1000
0000
,  // measure 17
1000
0010
0000
0010
0100
0000
0100
0001
,  // measure 18
1000
0001
0010
0000
0010
0100
0000
0100
,  // measure 19
1000
0001
1000
0010
0100
0000
0001
0000
,  // measure 20
0000
1000
0100
1000
0000
0001
0000
0100
,  // measure 21
0010
1000
0001
0000
0010
0000
1100
0000
,  // measure 22
1000
0000
0010
0000
0101
0000
1000
0100
,  // measure 23
1000
0000
0001
0100
0010
0100
0000
0001
,  // measure 24
1000
0000
0200
0000
0320
0000
0032
0003
,  // measure 25
1100
0000
0000
0101
0000
0000
1001
0000
,  // measure 26
0001
0000
0001
0100
0000
0000
0010
0000
0000
1000
0000
1000
,  // measure 27
0100
0000
0000
0010
0000
0000
0001
0000
0001
0000
0000
0001
,  // measure 28
0100
0000
0010
0000
1000
0000
1000
0100
,  // measure 29
0000
0100
0010
0000
0110
0000
1001
0000
,  // measure 30
0001
0000
0001
0100
0000
0100
0010
0000
,  // measure 31
0110
1001
2000
3200
,  // measure 32
0320
0032
0203
0320
,  // measure 33
1030
0000
0000
0101
0000
0000
0010
0000
1000
0010
0000
0000
,  // measure 34
0100
0000
0000
0001
0000
0000
0010
0000
0100
0010
0000
0000
,  // measure 35
0001
0000
1000
0002
0000
0000
0000
0000
0000
0103
0000
0000
,  // measure 36
0010
0000
1000
0010
0000
0000
0100
0000
0010
0100
0000
0000
,  // measure 37
0001
0000
1000
0001
0000
1000
0001
0000
0100
0010
0000
0000
,  // measure 38
1000
1100
0101
1001
,  // measure 39
0001
0000
0000
0010
0000
0100
0010
0000
0000
0001
0000
1000
,  // measure 40
0000
0000
1000
0100
0000
0010
0000
0000
0001
0000
0000
1000
,  // measure 41
0010
0100
0001
1000
,  // measure 42
1100
0101
0011
1010
,  // measure 43
1000
0100
0001
0100
,  // measure 44
1000
0100
0001
0100
,  // measure 45
1000
0010
0001
0010
,  // measure 46
1000
0010
0100
0001
,  // measure 47
2000
0000
0000
0010
0000
0000
0010
0000
,  // measure 48
0000
3010
0100
0001
0020
0000
0000
0100
,  // measure 49
0000
0000
0032
0000
0000
1000
0000
0103
,  // measure 50
0020
0000
0000
1000
0000
0000
1000
0000
,  // measure 51
0000
0230
0000
0000
0301
0000
0001
1000
,  // measure 52
0000
1000
0100
0000
0100
0010
0002
0000
,  // measure 53
1003
0000
1000
0001
0000
0001
0100
0000
,  // measure 54
0100
0000
0100
0000
0010
0000
0000
1000
,  // measure 55
0001
0010
0100
1000
,  // measure 56
0010
0100
0010
1000
0000
0001
0010
0000
,  // measure 57
0100
0000
1000
0000
0001
0000
0001
1000
,  // measure 58
0000
0000
1000
0000
1000
0001
0000
0000
,  // measure 59
0100
0000
0100
0010
0000
0010
1000
0000
,  // measure 60
0001
0000
0000
0000
0010
0000
0000
0000
0100
0000
0000
0100
0000
0000
0100
0000
,  // measure 61
0000
0100
0000
0000
0010
0000
0000
0010
0000
0000
0010
0000
0000
0010
0000
0000
,  // measure 62
0001
0000
0000
1000
0010
0000
0100
0000
,  // measure 63
0000
0001
0000
0000
1000
0100
1000
0001
,  // measure 64
0100
0020
0000
0030
,  // measure 65
1000
0100
0010
0001
0000
1000
0000
0010
,  // measure 66
0000
0010
0200
0302
,  // measure 67
1003
0000
0100
0000
0000
0100
0000
0000
,  // measure 68
0010
0001
1000
0000
0010
0100
0001
1000
,  // measure 69
0001
0000
0010
0100
1000
0001
1000
0000
,  // measure 70
0001
0100
0000
0010
1000
0001
0010
0000
,  // measure 71
0100
1000
0001
0100
,  // measure 72
0010
1000
0100
0010
,  // measure 73
0001
0000
0100
0000
0000
1001
0000
0000
,  // measure 74
0010
0000
0000
0110
0000
0000
1000
0000
,  // measure 75
0000
1100
0000
0000
0001
0000
0000
0101
,  // measure 76
0000
0000
1000
0000
0000
1010
0000
0000
,  // measure 77
0001
0000
0000
0000
0000
0000
0011
0000
0000
0000
0000
0000
1000
0000
0000
1000
,  // measure 78
0000
0000
0001
0000
0000
0001
0000
0000
0100
0000
0000
0100
0000
0000
0010
0000
,  // measure 79
0000
0010
0000
0000
1000
0000
0100
0000
0010
0000
0001
0000
0000
0000
0000
0000
,  // measure 80
1000
0010
0100
0001
0000
0001
1000
0000
,  // measure 81
0000
0100
0000
0000
0010
0000
0000
1001
,  // measure 82
0000
0000
0001
0000
0001
0100
0000
0100
,  // measure 83
0010
0000
0010
1000
0000
1000
0002
0000
,  // measure 84
0000
0000
2003
0000
,  // measure 85
0000
0000
3001
0000
0000
0011
0000
0000
,  // measure 86
0110
0000
0000
1100
0000
0000
1000
0000
,  // measure 87
0000
1010
0000
0000
0110
0000
0000
0101
,  // measure 88
0000
0000
0001
0000
0001
0010
0000
0010
,  // measure 89
0100
0000
0100
1000
0000
1000
0010
0000
,  // measure 90
0010
0100
0000
0100
0001
0010
0100
1000
,  // measure 91
0010
0100
0000
0000
0001
0000
0101
0000
,  // measure 92
1000
0000
1100
0000
0010
0000
1001
0100
,  // measure 93
0021
0000
0000
0000
,  // measure 94
0000
0000
0000
0000
0000
0000
0000
0000
0000
0000
0000
0000
0000
2000
0000
0000
,  // measure 95
0000
0000
0000
0000
,  // measure 96
0000
3000
0000
0000
,  // measure 97
0000
0030
0000
0000
;

//---------------dance-single - ----------------
#NOTES:
     dance-single:
     :
     Easy:
     4:
     0.346,0.367,0.136,0.068,0.008: // measure 1
0000
0000
0000
0000
,  // measure 2
0000
0000
0000
0000
,  // measure 3
0000
0000
0000
0000
,  // measure 4
0000
0000
0000
0001
,  // measure 5
0100
0010
1000
0000
,  // measure 6
0000
0001
0010
0100
,  // measure 7
2000
0000
3001
0100
,  // measure 8
0000
0100
0000
0000
0010
0000
0000
0010
,  // measure 9
0000
0000
1000
0000
0000
1000
0000
0000
,  // measure 10
0001
0000
0000
0001
0000
0000
0010
0000
,  // measure 11
0000
0010
0000
0000
0100
0000
0000
0100
,  // measure 12
0000
0000
1000
0000
0000
1000
0000
0000
,  // measure 13
0001
0000
0000
0100
0000
0000
0001
0000
,  // measure 14
0001
0010
0000
0000
0100
0000
0000
1000
,  // measure 15
0000
0000
0001
0000
0001
0100
0000
0000
,  // measure 16
0010
0000
0000
1000
0000
0000
1000
0000
,  // measure 17
1000
0100
0000
0000
0010
0000
0000
0001
,  // measure 18
0000
0000
1000
0000
1000
0010
0000
0000
,  // measure 19
0100
0000
0000
0001
0000
0000
1000
0000
,  // measure 20
0000
0100
0010
0000
0001
0000
0000
1000
,  // measure 21
0010
0100
0001
0001
,  // measure 22
1000
0001
0001
1000
,  // measure 23
0000
0100
0000
0000
0000
0110
0000
0000
,  // measure 24
0001
0010
0100
1000
,  // measure 25
0001
0000
0000
0100
0000
0000
0010
0000
,  // measure 26
1000
0100
0100
0010
,  // measure 27
0001
0001
1000
0000
,  // measure 28
0001
0000
1000
0000
0100
0000
0000
0010
,  // measure 29
0000
0011
0000
0000
,  // measure 30
0100
0000
0000
0010
0000
0000
1010
0000
,  // measure 31
0000
0000
0001
0001
,  // measure 32
0001
1000
1000
1000
,  // measure 33
0010
0100
0001
0100
,  // measure 34
0000
0000
0001
0010
,  // measure 35
0100
1000
0000
0000
,  // measure 36
1000
0100
0010
0100
,  // measure 37
0000
0000
1000
0010
,  // measure 38
0100
0001
0001
0001
,  // measure 39
1000
0000
1100
0000
,  // measure 40
0010
0000
0001
0000
,  // measure 41
1000
0000
0101
0000
,  // measure 42
0010
0010
0010
0000
,  // measure 43
1000
0100
0010
0001
,  // measure 44
0010
0100
1000
0000
,  // measure 45
0001
0100
0010
1000
,  // measure 46
0010
0100
0001
0000
,  // measure 47
1000
0000
0000
1000
0000
0000
1000
0000
,  // measure 48
0000
1000
0000
0000
0100
0000
0000
0010
,  // measure 49
0000
0000
0001
0000
0000
0100
0000
0000
,  // measure 50
0010
0000
0000
1000
0000
0000
1000
0000
,  // measure 51
0000
1000
0000
0000
0001
0000
0000
0010
,  // measure 52
0000
0000
0100
0000
0000
1000
0000
0000
,  // measure 53
0001
0000
0000
0100
0000
0000
0010
0000
,  // measure 54
0010
0000
0010
0000
1000
0000
0000
0100
,  // measure 55
0000
0010
0001
0001
,  // measure 56
1000
0000
0000
0010
0000
0000
0100
0000
,  // measure 57
0000
0001
0000
0000
1000
0000
0000
0100
,  // measure 58
0000
0010
0001
0010
,  // measure 59
0001
0000
0000
1000
0000
0000
0010
0000
,  // measure 60
0000
0100
0000
0000
0001
0000
0000
0011
,  // measure 61
0000
0000
1000
0000
0000
1010
0000
0000
,  // measure 62
2002
0000
0000
3003
0000
0000
0100
0000
,  // measure 63
0000
0010
0000
0000
1000
0000
0100
0000
,  // measure 64
0010
0000
0002
0000
0000
0003
0000
0000
,  // measure 65
1000
0000
0010
0000
0010
0000
0100
0100
,  // measure 66
0000
0001
1000
1000
,  // measure 67
0100
0000
0010
0000
0000
0010
0000
0000
,  // measure 68
0001
0100
0010
1000
,  // measure 69
0001
1000
0001
0010
,  // measure 70
0000
0100
0000
0000
1000
0000
0001
0000
,  // measure 71
0100
0000
0000
0010
0000
0000
1000
0000
,  // measure 72
0100
0010
0001
0010
,  // measure 73
0100
0000
1000
0000
0000
0100
0000
0000
,  // measure 74
0010
0000
0000
0001
0000
0000
1000
0000
,  // measure 75
0000
1100
0000
0000
0001
0000
0000
0011
,  // measure 76
0000
0000
0001
0000
0000
0101
0000
0000
,  // measure 77
1000
0000
0000
0000
0000
0000
1010
0000
0000
0000
0000
0000
0001
0000
0000
0001
,  // measure 78
0000
0000
0001
0000
0000
0000
0000
0000
1000
0000
0000
1000
0000
0000
1000
0000
,  // measure 79
0000
0000
0100
0000
0000
0010
0000
0000
,  // measure 80
0001
0000
0000
1000
0000
0000
0020
0000
,  // measure 81
0000
0000
0000
0000
0000
0000
0000
0030
,  // measure 82
0000
0000
1000
0000
0000
0001
0000
0000
,  // measure 83
0100
0000
0000
0010
0000
0000
2000
0000
,  // measure 84
0000
3000
0000
0000
0002
0000
0000
0003
,  // measure 85
0000
0000
0100
0000
0000
0010
0000
0000
,  // measure 86
1000
0000
0000
0001
0000
0000
0010
0000
,  // measure 87
0000
0100
0000
0000
1000
0000
0000
0001
,  // measure 88
0000
0000
1000
0000
0000
1010
0000
0000
,  // measure 89
0001
0000
0000
0101
0000
0000
1000
0000
,  // measure 90
0000
1100
0000
0000
0001
0000
0000
0011
,  // measure 91
0000
0000
0100
0100
,  // measure 92
0100
0000
0100
0000
0100
0000
0100
0010
,  // measure 93
0002
0000
0000
0000
,  // measure 94
0000
0000
0000
0000
,  // measure 95
0000
0000
0000
0000
,  // measure 96
0000
0000
0000
0000
,  // measure 97
0000
0003
0000
0000
;
