#TITLE:Hold My Hand;
#SUBTITLE:;
#ARTIST:Jess Glynne;
#TITLETRANSLIT:;
#SUBTITLETRANSLIT:;
#ARTISTTRANSLIT:;
#GENRE:;
#CREDIT:;
#BANNER:banner.png;
#BACKGROUND:Hold My Hand-bg.png;
#LYRICSPATH:;
#CDTITLE:;
#MUSIC:Hold My Hand.ogg;
#OFFSET:-0.112120;
#SAMPLESTART:49.864456;
#SAMPLELENGTH:12.000000;
#SELECTABLE:YES;
#BPMS:0.000000=123.000000
,168.000000=61.500000
,200.000000=123.000000
;
#STOPS:
;
#BGCHANGES:;
#KEYSOUNDS:;
#ATTACKS:;

//---------------dance-single - ----------------
#NOTES:
     dance-single:
     :
     Beginner:
     2:
     0.100621,0.089582,0.006838,0.000000,0.000000,102.000000,1.000000,0.000000,0.000000,0.000000,0.000000,0.100621,0.089582,0.006838,0.000000,0.000000,102.000000,1.000000,0.000000,0.000000,0.000000,0.000000:
0000
0000
0000
0000
,
0000
0000
0000
0000
,
1000
0000
0000
0000
,
0100
0000
0000
0000
,
0010
0000
0000
0000
,
0001
0000
0000
0000
,
1000
0000
0000
0000
,
0010
0000
0000
0000
,
0100
0000
0000
0000
,
0001
0000
0000
0000
,
1000
0000
1000
0000
,
0001
0000
0001
0000
,
0100
0000
0100
0000
,
0010
0000
0010
0000
,
1000
0000
1000
0000
,
0100
0000
0100
0000
,
0010
0000
0010
0000
,
0001
0000
0001
0000
,
1000
0000
0000
0000
,
0010
0000
0000
0000
,
0100
0000
0000
0000
,
0001
0000
0000
0000
,
0010
0000
0000
0000
,
0100
0000
0000
0000
,
1000
0000
0000
0000
,
0001
0000
0000
0000
,
1000
0000
1000
0000
,
0001
0000
0001
0000
,
1000
0000
1000
0000
,
0001
0000
0001
0000
,
0100
0000
0100
0000
,
0010
0000
0010
0000
,
0100
0000
0100
0000
,
0010
0000
0010
0000
,
0000
1000
1000
0000
,
0100
0000
0100
0000
,
0000
0010
0010
0000
,
0001
0000
0001
0000
,
0000
1000
1000
0000
,
0010
0000
0010
0000
,
0000
0100
0100
0000
,
0001
0000
0000
0000
,
1000
0000
0000
0000
,
0001
0000
0000
0000
,
0100
0000
0100
0000
,
0010
0000
0000
0000
,
1000
0000
0000
0000
,
0100
0000
0000
0000
,
0010
0000
0010
0000
,
0001
0000
0000
0000
,
1000
0000
1000
0000
,
0001
0000
0000
0000
,
0001
0000
0001
0000
,
1000
0000
0000
0000
,
0010
0000
0010
0000
,
0100
0000
0100
0000
,
0010
0000
0000
0000
,
0010
0000
1001
0000
,
0000
1000
1000
0000
,
0001
0000
0001
0000
,
0000
0100
0100
0000
,
0010
0000
0010
0000
,
0000
1000
1000
0000
,
0100
0000
0100
0000
,
0000
0010
0010
0000
,
0001
0000
0001
0000
;

//---------------dance-single - ----------------
#NOTES:
     dance-single:
     :
     Easy:
     4:
     0.203195,0.314733,0.020515,0.218826,0.000000,173.000000,3.000000,32.000000,0.000000,0.000000,0.000000,0.203195,0.314733,0.020515,0.218826,0.000000,173.000000,3.000000,32.000000,0.000000,0.000000,0.000000:
0000
0000
0000
0000
,
0000
0000
0000
0000
,
1000
0000
0001
0000
,
0100
0000
0010
0000
,
1000
0000
0000
0000
,
0001
0000
0000
0000
,
1000
0000
0100
0000
,
0010
0000
0001
0000
,
1000
0000
0000
0000
,
0001
0000
0000
0000
,
1000
0100
0010
0100
,
1000
0001
1000
0000
,
0001
0000
0001
0000
,
1000
0000
1000
0000
,
0001
0100
0010
0100
,
0001
1000
0001
0000
,
1000
0000
1000
0000
,
0001
0000
0001
0000
,
1000
0100
0010
0001
,
0010
0100
0010
0100
,
1000
0000
0001
0000
,
0100
0000
0010
0000
,
1000
0010
0100
0001
,
0100
0010
0100
0010
,
1000
0000
0001
0000
,
0020
0000
0000
0030
,
0001
0000
0001
0000
,
0100
0000
0010
1000
,
0100
0000
0100
0000
,
1000
0000
0001
0001
,
0100
0000
0100
0100
,
0001
0000
0001
0001
,
1000
0000
0001
0000
,
1000
1000
1001
0000
,
0000
0001
0001
0000
,
2000
3020
0230
0301
,
0000
0010
0010
0000
,
0200
2300
3020
0130
,
0000
0001
0001
0000
,
0020
0230
2300
3001
,
0000
0100
0100
0000
,
0010
1000
0001
0000
,
2000
0000
0000
3100
,
0020
0000
0000
0031
,
0200
0310
2000
3001
,
0020
0000
0000
0130
,
2000
0000
0000
3010
,
0200
0000
0000
0301
,
0020
0230
2300
3002
,
0203
0000
0000
0000
0320
0000
1030
1000
,
0001
0000
1000
0000
,
0010
0100
0001
0100
,
0010
0000
1000
0000
,
0100
0010
0100
1000
,
0001
0001
1000
1000
,
0010
0010
0100
0100
,
0001
0000
1000
0000
,
0001
0010
0100
1100
,
0000
0001
0001
0000
,
2000
3020
0230
0301
,
0000
1000
1000
0000
,
0002
0023
0230
1300
,
0000
0010
0010
0000
,
0200
0320
2030
3001
,
0000
0100
0100
0000
,
0001
0010
0100
1001
;

//---------------dance-single - ----------------
#NOTES:
     dance-single:
     :
     Medium:
     6:
     0.278417,0.360379,0.047868,0.389784,0.003419,221.000000,7.000000,57.000000,0.000000,0.000000,0.000000,0.278417,0.360379,0.047868,0.389784,0.003419,221.000000,7.000000,57.000000,0.000000,0.000000,0.000000:
0000
0000
0000
0000
,
0000
0000
0000
0000
,
1000
0000
0001
0000
,
0100
0000
0010
0000
,
1000
0000
0000
1000
0000
0000
1000
0000
,
0001
0000
0000
0001
0000
0000
0001
0000
,
1000
0000
0010
0000
,
0100
0000
0001
0000
,
0010
0000
0000
0010
0000
0000
0010
0000
,
0100
0000
0000
0100
0000
0000
0100
0000
,
1000
0001
0100
0010
,
1000
0100
0010
0001
,
1000
0000
0000
0010
0000
0000
0100
0000
,
0001
0000
0000
0010
0000
0000
0100
0000
,
1000
0001
0100
0010
,
1000
0010
0100
0001
,
1000
0000
0000
0100
0000
0000
0010
0000
,
0001
0000
0000
0100
0000
0000
0010
0000
,
2000
3020
0230
0302
,
2003
3200
0320
0230
,
1300
0000
0001
0000
,
1000
0010
0100
0000
,
0002
0203
0320
2030
,
3200
0320
0230
2300
,
3001
0000
1000
0000
,
0001
0000
0000
0000
1000
0100
1000
0000
,
0001
0000
0100
0000
,
0010
0000
0000
0000
0100
0001
0100
0000
,
0001
0000
0010
0000
,
0100
0000
0000
0000
0010
0100
0010
0000
,
0001
1000
0010
0100
,
0001
0010
0100
0010
,
0001
0000
1000
0000
,
0001
1000
0001
0000
0100
0000
1001
0000
,
0000
1000
0100
0000
0100
0000
0000
1000
,
0002
0203
0320
1030
,
0000
0001
0100
0000
0100
0000
0000
0001
,
2000
3200
0320
0031
,
0000
0100
0010
0000
0010
0000
0000
0100
,
0002
0023
0230
1300
,
0000
0100
0010
0000
0010
0000
0000
0001
,
0100
0000
0010
0000
1000
0000
0000
0001
,
0020
0230
0000
2300
,
3020
0230
0000
0302
,
0023
0032
2003
3020
,
0230
0000
0302
2003
,
3200
2300
0000
3020
,
0230
0302
0000
0013
,
2100
3001
0102
1003
,
2020
0000
0030
0000
3002
0000
0100
0103
,
0010
0000
1000
0000
,
0100
0000
0000
0000
0010
0001
0100
0000
,
0010
0000
0100
0000
,
0001
0000
0000
0000
1000
0100
0010
0000
,
0100
1000
0010
0100
,
0001
0010
0100
0010
,
0001
0000
1000
0000
,
0001
0100
0001
0000
0011
0000
1100
0000
,
0000
0001
0100
0000
0100
0000
0000
0010
,
2000
3200
0320
0031
,
0000
1000
0010
0000
0010
0000
0000
0100
,
0002
0023
0230
1300
,
0000
0010
0100
0000
0100
0000
0000
0001
,
2000
3200
0320
0130
,
0000
1000
0001
0000
0001
0000
0000
0100
,
0010
0000
0000
0000
0100
0000
0000
0000
0001
0000
0000
0001
0000
0000
1001
0000
;

//---------------dance-single - ----------------
#NOTES:
     dance-single:
     :
     Hard:
     9:
     0.503104,0.675710,0.321400,0.273532,0.345335,428.000000,47.000000,40.000000,0.000000,0.000000,0.000000,0.503104,0.675710,0.321400,0.273532,0.345335,428.000000,47.000000,40.000000,0.000000,0.000000,0.000000:
// measure 0
0000
0000
0000
0000
,  // measure 1
0000
0000
0000
0000
,  // measure 2
1000
0000
0000
1000
0000
0000
1000
0000
0000
0100
0000
0000
0100
0000
0100
0000
,  // measure 3
0010
0000
0000
0010
0000
0000
0010
0000
0000
0001
0000
0000
0001
0000
0100
0000
,  // measure 4
0010
0000
0000
0010
0000
0000
0010
0000
0000
0000
0010
0000
0100
0000
0001
0000
,  // measure 5
0010
0000
0000
0010
0000
0000
0010
0000
0000
0000
0100
0000
1000
0000
0010
0000
,  // measure 6
0100
0000
0000
0100
0000
0000
0100
0000
0000
0001
0000
0000
0001
0000
0001
0000
,  // measure 7
0010
0000
0000
0010
0000
0000
0010
0000
0000
0100
0000
0000
0100
0000
1000
0000
,  // measure 8
0001
0000
0000
0001
0000
0000
0001
0000
0000
0000
1000
0000
0010
0000
0100
0000
,  // measure 9
0010
0000
0000
0010
0000
0000
0010
0000
0000
0000
1000
0000
0100
0000
0010
0000
,  // measure 10
0001
0000
0000
1000
0000
0000
0010
0000
0100
0000
0000
0001
0000
0000
0010
0000
,  // measure 11
0100
0000
0000
1000
0000
0000
0100
0000
0010
0000
0000
0000
0001
0000
0100
0000
,  // measure 12
0010
0000
0000
0010
0000
0000
0010
0000
0000
0000
0100
0000
0001
0000
0010
0000
,  // measure 13
0100
0000
0000
0100
0000
0000
0100
0000
0000
0000
1000
0000
0010
0000
0100
0000
,  // measure 14
0001
0000
0000
0010
0000
0000
0100
0000
1000
0000
0000
0010
0000
0000
0100
0000
,  // measure 15
0001
0000
0000
1000
0000
0000
0100
0000
1000
0000
0000
0000
0001
0000
0010
0000
,  // measure 16
0001
0000
0000
0001
0000
0000
0001
0000
0000
0000
1000
0000
0010
0000
0100
0000
,  // measure 17
0010
0000
0000
0010
0000
0000
0010
0000
0000
0000
1000
0000
0001
1000
0001
0000
,  // measure 18
1000
0100
0010
0100
1000
0010
0100
0010
,  // measure 19
1000
0100
0001
0100
1000
0010
0001
0010
,  // measure 20
1000
0100
0010
0000
0001
0100
0010
0100
,  // measure 21
0001
0010
0100
0000
0010
0001
0100
0010
,  // measure 22
0100
1000
0100
0001
0010
1000
0010
0001
,  // measure 23
0100
0010
0100
0001
0010
0100
0010
0001
,  // measure 24
1000
0010
0100
0000
0001
0010
0100
0010
,  // measure 25
0001
0100
0010
0000
0100
0000
0010
0000
,  // measure 26
1100
0000
0000
0101
0000
0000
1100
0000
0000
0101
0000
0000
0001
0000
1000
0000
,  // measure 27
0011
0000
0000
1010
0000
0000
0011
0000
0001
0000
0100
0000
0010
0000
1000
0000
,  // measure 28
0101
0000
0000
1010
0000
0000
0101
0000
0000
1010
0000
0000
0001
0000
1000
0000
,  // measure 29
0011
0000
0000
1100
0000
0000
0011
0000
0001
0000
0100
0000
0010
0000
1000
0000
,  // measure 30
0200
0000
0310
0100
2000
0000
3010
0100
,  // measure 31
0002
0000
0013
0100
0020
0000
0031
0100
,  // measure 32
0010
0000
0000
1010
0000
0000
0101
0000
0000
0011
0000
0000
0001
0000
0010
0000
,  // measure 33
0100
0000
1000
0000
0010
0000
0100
0000
0001
0000
1000
0000
0001
1000
0001
0000
,  // measure 34
0000
0000
1000
0000
0100
0010
0100
0010
0000
0000
0000
0100
0000
0000
1000
0000
,  // measure 35
0020
0230
0302
1003
,  // measure 36
0000
0000
0001
0000
0010
0100
0010
0100
0000
0000
0000
0010
0000
0000
1000
0000
,  // measure 37
0020
0230
2300
3001
,  // measure 38
0000
0000
1000
0000
0010
0100
0010
0100
0000
0000
0000
0001
0000
0000
1000
0000
,  // measure 39
0020
0230
0302
1003
,  // measure 40
0000
0000
0001
0000
1000
0010
1000
0010
0000
0000
0000
0000
0000
0000
0100
0000
,  // measure 41
0001
0010
0100
1000
0010
0000
0010
1000
,  // measure 42
0200
0000
0000
0010
0320
0000
0000
0000
0000
0000
0000
0031
0100
0010
1000
0010
,  // measure 43
0200
0000
0000
0001
0302
0000
0000
0000
0000
0000
0000
0013
0100
1000
0100
0010
,  // measure 44
0012
0000
0000
0103
0010
1000
0100
0010
0210
0000
0000
1300
0010
0100
0001
1000
,  // measure 45
2001
0000
0000
0000
0000
0001
0001
3001
0000
0000
0000
0001
1000
0010
0100
0001
,  // measure 46
0012
0000
0000
0010
0023
0000
0000
0000
0000
0000
0000
0130
1000
0010
0100
0010
,  // measure 47
2010
0000
0000
0001
3002
0000
0000
0000
0000
0000
0000
0013
0100
1000
0010
0100
,  // measure 48
0102
0000
0000
0013
0110
1000
0010
0100
0210
0000
0000
0301
0011
0100
1000
0010
,  // measure 49
1020
0000
0000
0000
0000
0000
0130
0000
0001
0010
0100
1000
0100
0010
0001
0100
,  // measure 50
1010
0000
0000
0101
0000
0000
1010
0000
0000
0101
0000
0000
0001
0000
0010
0000
,  // measure 51
1100
0000
0000
0011
0000
0000
0001
0000
0100
0000
0010
0000
1000
0000
0100
0000
,  // measure 52
0110
0000
0000
1100
0000
0000
0110
0000
0000
0011
0000
0000
0001
0000
0100
0000
,  // measure 53
0110
0000
0000
1010
0000
0000
0110
0000
0100
0000
0001
0000
0010
0000
0100
0000
,  // measure 54
2000
0000
3001
0100
0002
0000
1003
0010
,  // measure 55
2000
0000
3001
0010
0002
0000
1003
0010
,  // measure 56
0101
0000
0000
0011
0000
0000
1100
0000
0000
1010
0000
0000
0010
0000
0100
0000
,  // measure 57
0001
0000
0001
0000
0001
0000
0001
0000
0010
0000
0100
0000
1000
0100
1000
0000
,  // measure 58
0000
0000
0001
0000
0100
0010
0100
0010
0000
0000
0000
0100
0000
0000
0001
0000
,  // measure 59
0020
0230
2300
3001
,  // measure 60
0000
0000
1000
0000
0010
0100
0010
0100
0000
0000
0000
0001
0000
0000
0010
0000
,  // measure 61
0002
0203
0320
1030
,  // measure 62
0000
0000
0001
0000
0100
0010
0100
0010
0000
0000
0000
1000
0000
0000
0100
0000
,  // measure 63
0020
0230
2300
3001
,  // measure 64
0000
0000
1000
0000
0001
0100
0001
0100
0000
0000
0000
0000
0000
0000
0001
0000
,  // measure 65
0010
0000
0100
0000
1000
0000
0001
0000
1010
0000
0000
0101
0000
0000
1001
0000
;
