#VERSION:0.82;
#TITLE:Discloze;
#SUBTITLE:;
#ARTIST:lapix;
#TITLETRANSLIT:;
#SUBTITLETRANSLIT:;
#ARTISTTRANSLIT:;
#GENRE:;
#ORIGIN:;
#CREDIT:;
#BANNER:[Scrabble] - Discolze-bn.png;
#BACKGROUND:[Scrabble] - Discolze-bg.png;
#PREVIEWVID:;
#JACKET:[Scrabble] - Discolze-jacket.png;
#CDIMAGE:;
#DISCIMAGE:;
#LYRICSPATH:;
#CDTITLE:;
#MUSIC:[Scrabble] - Discloze.mp3;
#OFFSET:-0.500000;
#SAMPLESTART:91.736023;
#SAMPLELENGTH:14.999999;
#SELECTABLE:YES;
#BPMS:0.000=145.000,
100.000=140.000,
128.000=128.000,
196.000=145.000;
#STOPS:;
#DELAYS:;
#WARPS:;
#TIMESIGNATURES:0.000=4=4;
#TICKCOUNTS:0.000=4;
#COMBOS:0.000=1;
#SPEEDS:0.000=1.000=0.000=0;
#SCROLLS:0.000=1.000;
#FAKES:;
#LABELS:0.000=Song Start;
#BGCHANGES:;
#KEYSOUNDS:;
#ATTACKS:
;

//---------------dance-single - ----------------
#NOTEDATA:;
#CHARTNAME:;
#STEPSTYPE:dance-single;
#DESCRIPTION:;
#CHARTSTYLE:;
#DIFFICULTY:Hard;
#METER:9;
#RADARVALUES:0.737644,0.831899,0.241130,0.781594,0.577881,498.000000,29.000000,94.000000,0.000000,0.000000,0.000000,0.000000,0.000000,0.737644,0.831899,0.241130,0.781594,0.577881,498.000000,29.000000,94.000000,0.000000,0.000000,0.000000,0.000000,0.000000;
#CREDIT:;
#NOTES:
0000
0000
0000
0000
,
0000
0000
0000
0000
,
0000
0000
0000
0000
,
0000
0000
0000
0000
,
0000
0000
0000
0000
,
2002
0000
0000
0000
,
0000
0000
0000
3003
,
2000
0000
0000
0000
3010
0000
0010
0000
0100
0000
0100
0001
0000
0001
0010
0000
,
0120
0000
0000
0000
0100
0000
0000
0000
0130
0000
0010
0001
0100
0000
0010
0000
,
1001
0000
1000
0000
0020
0000
0130
0000
0001
0010
0002
0003
1000
0000
0010
0000
,
0200
0302
0023
0230
2300
3020
2030
3200
,
0310
0002
0000
0000
0103
0002
0000
0000
1003
0010
1000
0000
0100
0000
0010
0000
,
0001
0100
0010
0100
0001
0000
1000
0000
0010
0100
0001
0100
0010
0000
0100
0000
,
0001
0000
1000
0000
0200
0000
1300
0000
0010
1000
0020
0030
0100
0000
0010
0100
,
0001
0000
0000
0000
0010
0000
0000
0000
0001
0000
0000
0000
1000
0000
0000
0000
0010
0000
0000
0000
1000
0000
0000
0000
0001
0000
0000
0010
0000
0000
0100
0000
0000
1000
0000
0000
0001
0000
0000
0000
1000
0000
0000
0000
0001
0000
0000
0000
,
1000
0000
1000
0010
0000
0001
0000
0010
1000
0000
0100
0000
0001
0000
0100
0000
,
2002
0000
0000
0000
0003
0000
0000
0000
0020
0000
0000
3000
0000
0030
0000
0000
,
1010
1000
0002
0013
0002
0203
2300
3200
,
0301
0010
0000
0001
0100
0000
0010
0000
2000
0000
3200
0000
0302
0000
0203
0000
,
1300
0020
0000
0000
0130
0020
0000
0000
1030
0100
1000
0000
0001
0000
1000
0000
,
0001
0010
1000
0010
0001
0000
1000
0000
0001
0100
1000
0100
0001
0000
1000
0000
,
0010
0000
0100
0000
0002
0000
1003
0000
0100
0010
0000
0010
0001
0000
1000
0100
,
1000
0000
0000
0000
0010
0000
0000
0000
1000
0000
0000
0000
0001
0000
0000
0000
0010
0000
0000
0000
0001
0000
0000
0000
2000
0000
0000
0000
0000
0000
0000
0000
0000
0000
0000
0000
3010
0000
0000
0100
0000
0000
0010
0000
0000
0000
0000
0000
,
2001
0000
0000
0000
3010
0000
1000
0000
1002
0000
1003
0010
0100
0000
0210
0000
,
0000
0000
0301
0010
0000
0010
0001
0000
1000
0010
0100
0010
2000
0000
3000
0000
,
0022
0033
2020
3030
,
0202
0000
0000
0000
0303
0000
0001
0100
1000
0100
0000
0001
1000
0000
0000
0000
,
2002
3003
0022
0033
,
2020
0000
0000
0000
3030
0000
1000
0010
0001
0010
0000
1000
0001
0000
0000
0000
,
0011
0101
1010
1100
,
1001
0011
1010
1001
,
1000
0100
0001
0010
0001
0100
1000
0010
,
0100
0010
0100
0010
1000
0001
1000
0001
0020
0000
0000
0000
0031
0100
0010
0000
,
2001
0000
0000
0000
3001
0000
0010
0000
0001
0100
0000
0100
0002
0000
0000
0000
,
2003
0000
0000
0000
3100
0000
0010
0000
0001
0200
0000
0000
0310
0000
2000
0000
,
3002
0000
0000
0000
1003
0000
0020
0000
1030
0100
0000
1000
0010
0000
0100
0000
,
0002
0000
0000
0000
1003
0010
1000
0000
0100
0010
0000
0010
0100
1000
0010
0000
,
1002
0000
0000
0000
1003
0000
0010
0000
0001
0010
0000
1000
0020
0000
0000
0000
,
2030
0000
0000
0000
3200
0300
0200
0300
0020
0030
0200
0300
2000
3000
0002
0003
,
2010
0000
0000
0000
3100
0000
1000
0000
0001
0100
0000
0010
1000
0000
0100
0000
,
0020
0000
0000
0000
0031
0000
1000
0000
0010
0100
0010
0100
0010
1000
0001
1000
,
1002
0000
1003
0000
0010
0000
0100
0010
0000
0010
0100
0000
0002
0000
0000
0000
,
2003
0000
3100
0000
0010
0000
0001
0010
0000
0001
0010
0000
0100
0000
0020
0000
,
0031
0000
1000
0000
0010
0000
0100
0001
0000
0001
0100
0000
0020
0000
0000
0000
,
2030
0000
3001
0000
0010
0000
0001
0010
0000
0001
0100
0000
0010
0000
1000
0000
,
2001
0000
3010
0000
1000
0000
0100
0001
0000
0001
0100
0000
1000
0000
0010
0000
,
0100
0001
0010
0000
0001
0000
0010
1000
0000
0001
0100
0000
1000
0000
0010
0000
,
1000
0001
0010
0000
0100
0000
0010
0001
0000
0010
0001
0000
0100
0000
0010
0000
,
1000
0100
1000
0100
0020
0000
0000
0000
0031
0010
0100
1000
0002
0000
0000
0000
,
2003
0000
0000
0000
,
3020
0000
0000
0000
,
0230
0000
0000
0000
0000
0000
0000
0000
0301
0000
1000
0000
0001
0010
0000
0100
,
1000
0010
1000
0000
0001
0010
0100
1000
0001
0000
2000
0000
3020
0000
0230
0000
,
0301
1000
0001
0000
1000
0000
0010
0000
1000
0100
1000
0000
0001
0100
0001
0000
,
1000
0000
0010
0000
0100
0001
0010
0001
0000
0001
1000
0010
0100
0000
0010
1000
,
0001
0000
1000
0100
0000
0010
0000
0001
0100
0010
1000
0000
0100
0010
0100
0000
,
1000
0001
0010
1000
0001
0100
1000
0001
,
0010
0100
0010
0000
0001
0000
1000
0000
0001
0010
0001
0000
1000
0010
1000
0000
,
0001
0000
0100
0000
0010
1000
0100
0010
0000
0010
0001
0100
0010
0000
1000
0001
,
0010
0000
0001
0100
0000
0010
0000
0100
0001
0010
0100
0000
1000
0010
1000
0000
,
0001
0000
0010
0000
0010
1000
0000
1000
0010
0000
0010
0001
0000
0001
0100
0000
,
0010
1000
0002
0200
0000
0000
0303
0000
1000
0000
0100
0000
0010
0000
0001
0000
,
1000
0010
0200
0002
0000
0000
0303
0000
0001
0000
0010
0000
0100
0000
1000
0000
,
0001
0000
1000
0010
0000
0100
0000
0010
1000
0100
0010
0000
0001
0100
0001
0000
,
1000
0100
0001
1000
0001
0100
1000
0010
,
0200
0001
0010
0001
,
1000
0000
0000
0000
0301
0000
0202
0000
0000
0000
0303
0000
0001
0100
0010
0000
,
0220
0000
0000
0000
,
0000
0000
0000
0000
,
0330
0000
0000
0000
;

//---------------dance-single - ----------------
#NOTEDATA:;
#CHARTNAME:;
#STEPSTYPE:dance-single;
#DESCRIPTION:;
#CHARTSTYLE:;
#DIFFICULTY:Beginner;
#METER:2;
#RADARVALUES:0.192429,0.315548,0.066519,0.166297,0.000000,134.000000,8.000000,20.000000,0.000000,0.000000,0.000000,0.000000,0.000000,0.192429,0.315548,0.066519,0.166297,0.000000,134.000000,8.000000,20.000000,0.000000,0.000000,0.000000,0.000000,0.000000;
#CREDIT:;
#NOTES:
0000
0000
0000
0000
,
0000
0000
0000
0000
,
0000
0000
0000
0000
,
0000
0000
0000
0000
,
0000
0000
0000
0000
,
2002
0000
0000
0000
,
0000
0000
0000
0000
,
0000
0000
3003
0000
,
0010
0010
0010
0000
,
1000
1000
1000
0000
,
0001
0001
0001
0000
,
0100
0100
0100
0000
,
0010
0000
0100
0000
,
0001
0001
0001
0000
,
1000
1000
1000
0000
,
0010
0010
0010
0000
,
0220
0000
0000
0330
,
0100
0100
0100
0000
,
0001
0001
0001
0000
,
1000
1000
1000
0000
,
0010
0000
0100
0000
,
0010
0010
0010
0000
,
1000
1000
1000
0000
,
1001
0000
1001
0000
,
2002
0000
0000
3003
,
2000
3000
1000
0000
,
0002
0003
0001
0000
,
0200
0300
0100
0000
,
0020
0030
0010
0000
,
1000
1000
1000
0000
,
0001
0001
0001
0000
,
0010
0010
0010
0010
,
0020
0000
0030
0000
,
0100
0000
0010
0000
,
0100
0000
0010
0000
,
1000
0000
0001
0000
,
1000
0000
0002
0003
,
0001
0000
0100
0000
,
0001
0000
0100
0000
,
0010
0000
1000
0000
,
0010
0000
2000
3000
,
1000
0000
0100
0000
,
1000
0000
0100
0000
,
0010
0000
0001
0000
,
0010
0000
0002
0003
,
0001
0000
1000
0000
,
0001
0000
1000
0000
,
0010
0000
0100
0000
,
0010
0000
0100
0000
,
1001
0000
0000
0000
,
0000
0000
0000
0000
,
0000
0000
1000
1000
,
1000
1000
1000
0000
,
0001
0000
0010
0000
,
0001
0001
0001
0000
,
1000
0000
0010
0000
,
1000
1000
1000
0000
,
0100
0000
0010
0000
,
0100
0100
0100
0000
,
1000
0000
0001
0000
,
1000
1000
1000
1000
,
2000
3000
1000
0000
,
0002
0003
0001
0000
,
0100
0000
0010
0000
,
0100
0100
0100
0000
,
0220
0000
0000
0000
,
0000
0000
0330
0000
,
2002
0000
0000
0000
,
0000
0000
0000
0000
,
3003
0000
0000
0000
;

//---------------dance-single - ----------------
#NOTEDATA:;
#CHARTNAME:;
#STEPSTYPE:dance-single;
#DESCRIPTION:;
#CHARTSTYLE:;
#DIFFICULTY:Easy;
#METER:5;
#RADARVALUES:0.380107,0.573723,0.157982,0.440686,0.008315,248.000000,19.000000,53.000000,0.000000,0.000000,0.000000,0.000000,0.000000,0.380107,0.573723,0.157982,0.440686,0.008315,248.000000,19.000000,53.000000,0.000000,0.000000,0.000000,0.000000,0.000000;
#CREDIT:;
#NOTES:
0000
0000
0000
0000
,
0000
0000
0000
0000
,
0000
0000
0000
0000
,
0000
0000
0000
0000
,
0000
0000
0000
0000
,
2002
0000
0000
0000
,
0000
0000
0000
3003
,
0020
0000
0000
0000
,
0130
0100
0100
0110
,
1001
1000
0001
0100
,
0010
0100
0010
0000
0100
0010
0100
0000
,
0002
0003
0000
0000
2000
3000
0000
0000
0010
0000
0000
0000
0100
0000
0000
0000
,
0001
1000
0001
0000
1000
0001
1000
0000
,
0001
0010
0100
1000
,
0002
1003
2000
3001
,
0100
0010
1000
0100
,
0220
0000
0000
0330
,
1001
0000
1000
0000
0010
0100
0010
0000
,
1000
0000
0001
0000
0010
0100
0010
0000
,
0002
0003
0000
0000
2000
3000
0000
0000
0100
0000
0000
0000
0010
0000
0000
0000
,
0001
0010
0001
0000
1000
0010
1000
0000
,
0001
1000
0100
0010
,
0002
0000
1003
0000
2000
0000
3001
1000
,
0002
0000
0013
0000
2000
0000
3010
0200
,
0000
0000
0000
0300
,
2002
3003
0220
0330
,
2002
3003
0220
0330
,
2002
3003
2020
3030
,
2002
3003
0022
0033
,
1000
1000
0001
0001
,
0100
0100
0010
0010
,
1000
0001
1000
0001
1000
0001
1000
0001
,
2000
0000
0002
3003
,
2001
0000
3010
0100
0010
0000
0010
0000
,
2000
0000
3100
0010
0100
0000
0100
0000
,
2000
0000
3001
0010
0001
0000
0001
0000
,
2000
0000
3001
0100
0002
0000
0003
0000
,
1002
0000
0013
0100
0010
0000
0010
0000
,
0002
0000
0103
0010
0100
0000
0100
0000
,
0002
0000
1003
0010
1000
0000
1000
0000
,
0002
0000
1003
0100
2000
0000
3000
0000
,
0001
0010
0001
0000
1000
0010
1000
0000
,
0001
0100
0001
0000
1000
0100
1000
0000
,
0001
1000
0001
0000
1000
0001
1000
0000
,
0010
0000
0100
0000
0010
0000
0000
0010
0000
0000
0100
0000
0010
0000
0100
0000
,
0001
0100
0001
0000
1000
0100
1000
0000
,
0001
0000
0010
0000
0001
0000
0000
0001
0000
0000
1000
0000
0001
0000
1000
0000
,
0010
1000
0010
0000
0100
0001
0100
0000
,
0001
1000
0001
1000
0001
1000
0001
1000
,
0002
0000
0000
0000
,
0203
0000
0000
0000
,
0320
0000
0130
0100
,
0001
1000
1001
0000
,
1001
0001
0010
0001
,
1000
1000
0010
1000
,
0001
0001
0100
0001
,
1000
1000
0100
1000
,
0001
0010
0100
1000
,
0001
0100
0010
1000
,
0001
0100
1000
0100
,
0001
0010
1000
0010
,
0002
1000
0100
0013
,
2000
0001
0010
3100
,
0001
0010
0100
1000
,
0010
0100
0001
1000
,
2001
0000
0000
0000
,
0000
0000
0000
3020
0000
0000
0030
0000
,
0220
0000
0000
0000
,
0000
0000
0000
0000
,
0330
0000
0000
0000
;

//---------------dance-single - ----------------
#NOTEDATA:;
#CHARTNAME:;
#STEPSTYPE:dance-single;
#DESCRIPTION:;
#CHARTSTYLE:;
#DIFFICULTY:Medium;
#METER:7;
#RADARVALUES:0.519083,0.602410,0.257760,0.623612,0.095621,331.000000,31.000000,75.000000,0.000000,0.000000,0.000000,0.000000,0.000000,0.519083,0.602410,0.257760,0.623612,0.095621,331.000000,31.000000,75.000000,0.000000,0.000000,0.000000,0.000000,0.000000;
#CREDIT:;
#NOTES:
// measure 0
0000
0000
0000
0000
,  // measure 1
0000
0000
0000
0000
,  // measure 2
0000
0000
0000
0000
,  // measure 3
0000
0000
0000
0000
,  // measure 4
0000
0000
0000
0000
,  // measure 5
2002
0000
0000
0000
,  // measure 6
0000
0000
0000
3003
,  // measure 7
2000
0010
0010
0010
,  // measure 8
3020
0000
0100
0000
0130
0010
0110
0000
,  // measure 9
1001
0000
2000
0000
3010
0100
0010
0100
,  // measure 10
0001
0010
0001
0010
0100
1000
0100
1000
,  // measure 11
0001
1000
0000
0000
1000
0001
0000
0000
1000
0000
0010
0000
0100
0000
0010
0000
,  // measure 12
1000
0100
1000
0000
0100
0000
0000
0000
0001
0100
0001
0000
0100
0000
0000
0000
,  // measure 13
0010
0100
0020
0000
0130
0001
0100
0000
,  // measure 14
0010
1000
0010
1000
0001
0100
0001
0100
,  // measure 15
0020
0130
0200
0310
,  // measure 16
2002
0000
0003
3000
,  // measure 17
1001
0000
0002
0000
0103
0010
1000
0010
,  // measure 18
0200
0000
0310
0000
1000
0100
0010
0100
,  // measure 19
1000
0001
0000
0000
0001
1000
0000
0000
0001
0000
0010
0000
0100
0000
1000
0000
,  // measure 20
0001
0010
0001
0000
0010
0000
0000
0000
1000
0010
1000
0000
0010
0000
0000
0000
,  // measure 21
1000
0100
2000
0000
3010
0100
0010
0000
,  // measure 22
1000
0000
0100
0000
1000
0000
0100
0000
0020
0000
0030
0000
0001
0010
0001
0000
,  // measure 23
2001
0000
3010
0000
1002
0000
0013
0022
,  // measure 24
0000
0000
0000
0033
,  // measure 25
2002
3003
2020
3030
,  // measure 26
2002
3003
0022
0033
,  // measure 27
2002
3003
2200
3300
,  // measure 28
2002
3003
0202
0303
,  // measure 29
1001
1010
1001
0011
,  // measure 30
1001
1100
1001
0101
,  // measure 31
1000
0010
0100
0001
1000
0100
0010
0001
,  // measure 32
2000
0000
0002
3003
,  // measure 33
2001
0000
0000
0000
3010
0000
0100
0000
0010
0100
0000
0000
0002
0000
0000
0000
,  // measure 34
2003
0000
3100
0010
0100
0000
2000
3000
,  // measure 35
0002
0000
0000
0000
0103
0000
0020
0000
0130
0010
0000
0000
2000
0000
0000
0000
,  // measure 36
3200
0000
1300
0010
0200
0000
0310
0000
,  // measure 37
1002
0000
0000
0000
0013
0000
0100
0000
0010
0100
0000
0000
0020
0000
0000
0000
,  // measure 38
0032
0000
1003
0010
0100
0010
1000
0100
,  // measure 39
0020
0000
0000
0000
0032
0000
0000
0000
1003
0001
0000
0000
1000
0000
0010
0000
,  // measure 40
2000
0000
3100
0010
0100
0010
0100
0010
,  // measure 41
1002
0000
0000
0000
0103
0000
0010
0000
0100
0010
0000
0000
0200
0000
0000
0000
,  // measure 42
0302
0000
1003
0010
1000
0000
0200
0300
,  // measure 43
0020
0000
0000
0000
0031
0000
0100
0000
0001
0100
0000
0000
0020
0000
0000
0000
,  // measure 44
2030
0000
0000
0000
3100
0000
1000
0100
0000
0100
1000
0000
0010
0000
1000
0000
,  // measure 45
2001
0000
0000
0000
3100
0000
0010
0000
0100
0010
0000
0000
0002
0000
0000
0000
,  // measure 46
2003
0000
0000
0000
3001
0000
1000
0001
0000
0001
1000
0000
0001
0000
1000
0000
,  // measure 47
0020
0000
0000
0000
0130
0000
0010
0000
0100
0001
0000
0000
2000
0000
0000
0000
,  // measure 48
3010
0100
0010
0100
0001
1000
0001
1000
,  // measure 49
0002
0000
0000
0000
,  // measure 50
0203
0000
0000
0000
,  // measure 51
0320
0000
0000
0000
0000
0000
0000
0000
1030
0000
0010
0000
1000
0010
0000
0010
,  // measure 52
1000
0100
0010
0001
1000
0000
0000
0000
,  // measure 53
1001
0010
0001
0100
0001
0010
0001
0000
,  // measure 54
1000
0010
1000
0100
1000
0010
1000
0000
,  // measure 55
0001
0010
0100
0010
0001
0100
0010
0000
,  // measure 56
1000
0100
0010
0100
1000
0010
0100
0001
,  // measure 57
1000
0100
1000
0001
1000
0100
1000
0000
,  // measure 58
0001
0100
0001
1000
0001
0100
0001
0000
,  // measure 59
1000
0010
0100
0010
1000
0100
0010
0000
,  // measure 60
0001
0100
0010
0100
0001
0010
0100
0010
,  // measure 61
0002
2000
0003
0000
0010
0000
3010
0000
,  // measure 62
2000
0002
3000
0000
0010
0000
0013
0000
,  // measure 63
0001
0100
0010
0100
0001
1000
0010
1000
,  // measure 64
0001
0010
0100
0010
0001
1000
0100
1000
,  // measure 65
0002
0000
0000
0000
,  // measure 66
0000
0000
0003
2002
0000
0000
3003
0000
,  // measure 67
0220
0000
0000
0000
,  // measure 68
0000
0000
0000
0000
,  // measure 69
0330
0000
0000
0000
;
