#TITLE:DJ Funktronic;
#SUBTITLE:;
#ARTIST:Humble Brothers;
#TITLETRANSLIT:;
#SUBTITLETRANSLIT:;
#ARTISTTRANSLIT:;
#GENRE:;
#CREDIT:;
#BANNER:banner.png;
#BACKGROUND:bg.png;
#LYRICSPATH:;
#CDTITLE:;
#MUSIC:The Sims™ 2 Soundtrack_ DJ Funktronic (Techno).ogg;
#OFFSET:0.000000;
#SAMPLESTART:19.199110;
#SAMPLELENGTH:12.797014;
#SELECTABLE:YES;
#BPMS:0.000000=75.019997
,8.000000=300.079987
,40.000000=150.039993
,52.000000=75.019997
,54.000000=300.079987
,110.000000=150.000000
,114.000000=300.000000
,170.000000=150.039993
,190.000000=300.079987
,318.000000=75.019997
,326.000000=300.079987
;
#STOPS:
;
#BGCHANGES:;
#KEYSOUNDS:;
#ATTACKS:;

//---------------dance-single - ----------------
#NOTES:
     dance-single:
     :
     Hard:
     10:
     0.958885,1.000000,0.361501,0.136784,0.200291,636.000000,37.000000,14.000000,0.000000,0.000000,0.000000,0.958885,1.000000,0.361501,0.136784,0.200291,636.000000,37.000000,14.000000,0.000000,0.000000,0.000000:
// measure 0
0000
0000
0000
0000
,  // measure 1
0000
0000
0000
0000
,  // measure 2
1000
0000
0001
0000
0101
0000
0001
0100
,  // measure 3
0010
0000
0100
0000
0001
0000
0010
0100
,  // measure 4
1000
0000
0010
0000
1010
0000
0010
0100
,  // measure 5
0001
0100
0010
0000
0010
1000
0100
0010
,  // measure 6
0001
0000
1000
0000
1010
0000
0010
1000
,  // measure 7
0100
0000
1000
0000
0010
0000
0100
0001
,  // measure 8
1000
0000
0001
0000
0011
0000
1000
0010
,  // measure 9
0100
0001
0100
0000
0001
0010
0100
1000
,  // measure 10
0002
0000
0000
0000
0100
0000
0103
0000
0010
0000
1000
0000
0100
1000
0100
0000
,  // measure 11
0010
0000
0001
0000
0100
0000
0001
0000
0010
0000
0100
0000
1000
0100
1000
0000
,  // measure 12
0002
0000
0000
0000
0100
0000
0103
0000
0010
0000
0100
0000
0001
0010
0100
0000
,  // measure 13
1000
0100
0010
0001
1000
0010
0100
0001
1000
0000
0000
0000
0010
0000
0000
0000
,  // measure 14
1100
0000
0100
0000
0010
0000
0001
0100
,  // measure 15
0010
0010
1000
0001
,  // measure 16
1001
0000
0001
0100
0000
0100
0010
0000
,  // measure 17
1000
0010
1000
0000
0001
0000
0010
0000
,  // measure 18
0110
0000
1000
0000
0001
0000
0100
0010
,  // measure 19
1000
0001
1000
0100
,  // measure 20
0110
0000
0010
0001
0000
0001
1000
0000
,  // measure 21
0010
1000
0010
0000
0100
0000
0001
0000
,  // measure 22
0101
0000
0000
0000
0001
0010
0100
1000
,  // measure 23
0001
0000
0100
0000
0010
0100
0010
0000
,  // measure 24
1010
0000
1000
0001
0000
0001
1000
0000
,  // measure 25
0100
1000
0100
0000
0010
0000
0001
0000
,  // measure 26
1001
0000
0000
0001
1000
0000
0010
1000
,  // measure 27
0100
0000
0000
0000
1000
0000
0000
0000
0020
0000
0000
0000
0100
0000
0000
0100
,  // measure 28
0000
0100
1000
1000
1030
0000
0100
0000
,  // measure 29
1100
0000
0100
0010
0001
0010
0100
0000
,  // measure 30
1000
0000
1000
0001
0100
0000
0001
0000
,  // measure 31
0100
0000
0010
1000
0010
0100
0001
0000
,  // measure 32
1001
1100
1000
0100
,  // measure 33
0011
0000
0001
1000
0010
1000
0001
0000
,  // measure 34
0001
1000
0010
0000
0100
0000
0001
0000
,  // measure 35
0011
0000
0010
0100
0000
0100
1000
0000
,  // measure 36
0001
1000
0001
1000
1001
0000
1000
0000
,  // measure 37
0010
0000
0100
0001
0010
0001
0100
0000
,  // measure 38
0010
1000
0010
0100
0001
0000
0001
0000
,  // measure 39
1001
0000
0001
0100
0010
1000
0010
0100
,  // measure 40
0001
0000
1001
0000
0001
0100
0001
0000
,  // measure 41
0100
0010
0100
0000
0010
1000
0010
0000
,  // measure 42
1000
0000
0100
0000
1000
0000
0000
0000
1000
0000
0000
0000
0100
0000
0000
0001
,  // measure 43
0000
0000
0100
0000
1000
0000
0010
0000
0100
0001
0000
0100
0010
0000
0100
1000
,  // measure 44
0000
0100
0010
0000
1000
0000
0000
0000
0100
0010
0000
0100
1000
0000
0100
0001
,  // measure 45
0100
0000
1000
0000
0000
1000
0010
0000
0100
0001
0000
0001
0100
0000
0100
1000
,  // measure 46
0100
0000
0001
0010
0000
0001
0100
0000
0010
1000
0010
1000
0001
0100
0001
0100
,  // measure 47
0001
0010
0100
1000
0000
0000
0000
0000
1000
0000
0000
0000
0100
0000
0000
0000
,  // measure 48
1000
0100
1000
0100
0010
0100
0010
0100
,  // measure 49
0010
0001
0010
0001
1000
0000
1000
0000
,  // measure 50
0001
0100
0001
0100
0010
0100
0010
0100
,  // measure 51
0010
1000
0010
1000
0001
0000
0001
0000
,  // measure 52
1000
0100
1000
0100
0010
0100
0010
0100
,  // measure 53
1000
0100
0010
0001
0100
0000
0010
0000
,  // measure 54
2000
0000
3000
0001
0010
0000
0100
0000
,  // measure 55
1000
0010
0100
0100
,  // measure 56
0001
0100
0010
0100
0001
0010
0100
0010
,  // measure 57
0001
0100
0010
1000
0010
0000
1000
0000
,  // measure 58
0100
0010
0100
0001
0100
0010
0100
1000
,  // measure 59
0010
0100
0001
1000
0001
0000
1000
0000
,  // measure 60
0001
0100
0010
0100
0001
0010
0100
0010
,  // measure 61
0001
0100
0010
1000
0010
1000
0010
0000
,  // measure 62
1100
0000
0000
0100
0000
0010
0001
0000
,  // measure 63
0101
0000
0001
0000
1000
0100
1000
0000
,  // measure 64
1000
0100
1000
0000
1000
0100
1000
0000
,  // measure 65
1000
0100
0010
0001
0100
0001
0100
0000
,  // measure 66
0100
0001
0100
0000
0100
0001
0100
0000
,  // measure 67
0100
0001
0010
0100
1000
0010
1000
0000
,  // measure 68
0010
0100
0010
0000
0100
0001
0100
0000
,  // measure 69
0001
0010
0100
1000
0001
0010
0001
0000
,  // measure 70
0010
0100
0010
0000
0100
1000
0100
0000
,  // measure 71
1000
0010
0100
0001
2000
0000
0010
0000
,  // measure 72
0010
0010
0010
3010
,  // measure 73
0010
0100
0001
0100
0020
0000
0100
0000
,  // measure 74
0100
0100
0100
0130
,  // measure 75
0100
0001
0010
0100
2000
0000
0100
0000
,  // measure 76
0100
0100
0100
3100
,  // measure 77
0100
0010
0001
0100
0020
0000
1000
0000
,  // measure 78
1000
1000
1000
1030
,  // measure 79
0010
0000
1000
0000
0100
0000
0010
0000
0001
0000
1000
0010
1000
0010
0100
0001
,  // measure 80
0000
0001
0000
1000
0010
0100
0001
0010
0100
0000
1000
0100
1000
0100
0010
0001
,  // measure 81
0000
0001
0000
1000
0001
1000
0001
0000
1000
0000
0000
0000
0100
0000
0000
0000
,  // measure 82
1100
0000
0100
0010
0100
1000
0100
0000
,  // measure 83
1100
0000
0100
0010
0001
0100
0001
0000
,  // measure 84
0101
0000
0001
0100
0010
1000
0100
0000
,  // measure 85
1100
0011
0001
0100
,  // measure 86
0101
0000
0001
0100
0010
0100
0001
0000
,  // measure 87
0101
0000
0001
0100
0010
1000
0100
0000
,  // measure 88
1100
0000
1000
0100
0010
0001
0100
0000
,  // measure 89
0202
0303
1000
0100
,  // measure 90
0110
0000
0010
0001
0100
0010
0100
0000
,  // measure 91
0110
0000
0010
0100
0001
0010
0100
0000
,  // measure 92
0110
0000
0010
0001
0100
0010
1000
0000
,  // measure 93
0001
1000
0010
1000
0100
0010
0100
0000
,  // measure 94
0110
0000
0010
0001
0100
0010
1000
0000
,  // measure 95
1001
0000
1000
0100
0010
0001
1000
0000
,  // measure 96
1001
0000
0001
0100
0010
1000
0001
1000
,  // measure 97
2002
0000
3003
0000
1000
0100
0010
0100
,  // measure 98
0001
0100
0010
0100
1000
0010
0100
0010
,  // measure 99
0001
0010
0100
0010
1000
0100
1000
0100
,  // measure 100
0001
0100
0001
0100
1000
0010
1000
0010
,  // measure 101
0001
0010
0001
0010
1000
0100
0001
0100
,  // measure 102
1000
0010
0001
0010
1000
0100
0001
0100
,  // measure 103
1000
0010
0002
0000
0000
0000
0010
0000
,  // measure 104
0000
0013
1000
0100
,  // measure 105
0020
0000
0030
0000
;

//---------------dance-single - ----------------
#NOTES:
     dance-single:
     :
     Medium:
     8:
     0.689504,0.773075,0.351731,0.185636,0.034196,439.000000,36.000000,19.000000,0.000000,0.000000,0.000000,0.689504,0.773075,0.351731,0.185636,0.034196,439.000000,36.000000,19.000000,0.000000,0.000000,0.000000:
0000
0000
0000
0000
,
0000
0000
0000
0000
,
1000
0100
0010
0001
,
0100
0001
0100
0001
,
1000
0010
0100
0001
,
0010
0001
0010
0001
,
1000
0100
0010
0001
,
0100
0010
1000
0010
,
0100
0001
0010
0100
,
1000
0100
0010
0001
,
2000
0000
3010
0000
0100
0001
0010
0001
,
0100
0100
0010
0010
1000
0100
0010
0001
,
2000
0000
3100
0000
0010
0001
1000
0010
,
0100
0100
0100
0100
0100
0000
0010
0000
,
1000
0000
0100
0000
0010
0000
0010
0100
,
0010
0001
1000
1000
,
0010
0000
0010
0100
0000
0100
0010
0000
,
1000
0001
0010
0100
,
1000
0000
0010
0000
0100
0000
0100
0001
,
0010
0100
0010
0010
,
0001
0000
0001
1000
0000
1000
0010
0000
,
0100
0100
0001
0100
,
0101
0000
0000
0000
0001
0100
0001
0100
,
0001
0000
1000
0010
,
1000
0000
1000
0100
0000
0100
0010
0000
,
0001
1000
0001
0100
,
0110
0000
0010
1000
,
0100
0010
0002
0000
,
0000
0003
1000
1000
,
0100
0100
1000
1000
,
0010
0000
0100
0010
0000
0000
1000
0000
,
0100
0010
0100
1000
,
1001
1001
0001
0100
,
0010
1000
0100
0001
,
0100
1000
0010
0100
,
0001
0010
1000
0010
,
0001
1000
1001
0001
,
0100
0100
0010
0010
,
1000
0000
0001
1000
0000
0000
1000
0000
,
0100
0010
0001
1000
,
0010
0010
0100
0001
,
0100
0001
0100
0000
0001
0000
0010
0000
,
0100
1000
0100
0000
0020
0000
0000
0000
,
0000
0030
0001
1000
,
0010
0110
0010
1000
,
0001
0011
0001
0100
,
0010
1010
1000
0100
,
0020
0030
0001
0100
,
0001
0100
0001
0000
1000
0000
0010
0000
,
1000
0010
1000
0000
0100
0000
1000
0000
,
0100
1000
0100
0000
0010
0000
0001
0000
,
0010
0001
0010
0000
0001
0000
0100
0000
,
0010
0100
0010
0000
0100
0000
0010
0000
,
1000
0100
1000
0000
0010
0000
0010
0000
,
0100
0001
0100
0000
0001
0010
0001
0000
,
0100
0001
0100
0000
0010
0000
1000
0000
,
0001
0010
0001
0010
0001
0000
0001
0000
,
1000
1000
0010
0100
,
0001
0010
0001
0010
0001
0000
1000
0000
,
0010
1000
0001
0100
,
0010
0100
0010
1000
0100
0000
0010
0000
,
0001
1000
0010
1000
,
1100
1000
0010
0100
,
0101
0001
2000
3000
,
0200
0300
0020
0030
,
0002
0000
1003
0001
2000
0000
3000
0000
,
0020
0030
0200
0300
,
0002
0000
1003
0001
1000
0000
0000
0000
,
1100
0000
0010
0000
,
0011
0000
0001
0100
0001
0000
0100
0000
,
0010
1000
0100
0010
,
0010
0000
0200
1000
,
0310
0000
0200
1000
,
0310
0000
0001
0200
,
0010
0300
0001
0200
,
0010
0300
0010
1000
,
0100
0001
0100
1000
,
0010
0100
0001
0010
,
1000
0010
0001
0100
,
0010
0000
0000
0000
0010
0000
0000
0000
1000
0000
0001
0000
0010
0100
0010
0001
,
0000
0100
0000
0010
2000
0000
3001
0001
0100
0000
0010
0000
1000
0001
1000
0001
,
0000
0000
0001
0100
,
0101
0001
0010
0010
,
0011
0001
0100
0010
,
1010
1000
0100
0010
,
0011
0001
1000
1000
,
1001
0001
0100
0010
,
0110
0010
1000
0100
,
0110
0010
0001
0100
,
0110
0000
0010
0000
1000
0010
1000
0000
,
1010
0100
0100
0100
,
1010
0100
0010
0001
,
1100
0001
0100
0010
,
0110
0000
0010
0000
1000
0100
1000
0000
,
1100
0010
0010
0010
,
1100
0100
0010
0001
,
0101
0001
0100
0010
,
1010
0000
1001
0000
0001
1000
0001
0000
,
1001
0000
0001
0100
0010
0000
0010
0000
,
0110
0000
0010
1000
0001
0000
0001
0000
,
1001
0000
1000
0100
0010
0000
0010
0000
,
0110
0000
1001
0000
0001
0100
0001
0000
,
0101
0000
0010
1000
0100
1000
0100
0000
,
1100
0000
0100
0010
0002
0000
0000
0000
,
0000
0000
0000
0000
,
0000
0000
0003
0000
;

//---------------dance-single - ----------------
#NOTES:
     dance-single:
     :
     Easy:
     5:
     0.459204,0.463845,0.078162,0.039081,0.019541,317.000000,8.000000,4.000000,0.000000,0.000000,0.000000,0.459204,0.463845,0.078162,0.039081,0.019541,317.000000,8.000000,4.000000,0.000000,0.000000,0.000000:
0000
0000
0000
0000
,
0000
0000
0000
0000
,
1000
0000
0001
0000
,
0100
0001
0100
0000
,
0001
0000
1000
0000
,
0100
1000
0100
0000
,
1000
0000
0010
0000
,
0100
0000
0001
0000
,
1000
0000
1000
0000
,
0001
1000
0001
0000
,
1000
0100
0010
0001
,
1000
1000
0001
0001
,
1000
0010
0100
0001
,
0020
0000
0000
0030
0100
0000
1000
0000
,
0100
0000
0010
0001
,
0010
0000
0001
0100
,
0001
0000
1000
0010
,
1000
0000
0001
0000
,
0101
0000
0001
0010
,
0001
0000
0010
0000
,
0100
0000
1000
0100
,
1000
0000
0001
0000
,
0101
0000
0001
0100
,
0010
0000
0010
1000
,
0100
0000
0100
0010
,
0001
0000
1000
0000
,
1001
0000
0100
0000
,
0100
0000
0020
0000
,
0000
0030
1001
1000
,
0001
0000
0001
0100
,
0010
0100
0001
0000
,
0001
0000
1000
0100
,
0010
0100
1000
0000
,
1010
0000
0010
0100
,
0010
0100
0010
0000
,
0010
0000
1000
0000
,
0001
0000
1001
0000
,
0001
0000
1000
0100
,
0010
0100
1000
0000
,
0001
0000
0100
0010
,
0100
0010
1000
0000
,
0100
0000
0010
0100
,
0010
0100
2000
0000
,
0000
3000
0001
0001
,
0001
0000
1000
1000
,
1000
0000
0010
1000
,
0001
0000
0010
0001
,
1000
0000
0001
0100
,
0001
0100
0010
0100
,
0001
0000
1000
0100
,
1000
0100
0010
0100
,
1000
0000
0001
0100
,
0010
0000
1000
0100
,
0010
0000
0001
0100
,
0010
0100
0001
0010
,
0100
0000
1000
0100
,
1000
0100
0010
0100
,
1000
0000
0001
0100
,
0001
0100
0001
0010
,
0001
0000
0100
0010
,
1000
0000
0100
0010
,
0001
0000
1000
0010
,
0100
0001
0010
0100
,
1000
0000
0010
0000
,
0010
0000
0010
0000
,
0010
0100
0010
0000
,
0010
0000
0010
0000
,
0010
1000
0001
0000
,
0001
0000
0001
0000
,
0001
1000
0100
0000
,
0100
0000
0100
0000
,
0100
0010
0010
0001
,
0100
0000
0010
1000
,
0100
0000
0100
1000
,
0010
0000
0010
0100
,
0001
0000
0010
0001
,
0100
0000
1000
0100
,
0001
0000
0010
1000
,
0010
0000
0001
0100
,
0010
0000
0000
0000
1000
0000
0000
0000
0001
0000
0000
0000
1100
0000
0000
0010
,
0000
0010
0000
0010
0100
0000
0000
0000
1000
0000
0000
0000
0101
0000
0000
0010
,
0000
0000
1000
0100
,
1000
0100
0010
0100
,
1000
0010
0100
0010
,
0100
0001
0100
0010
,
1000
0000
0001
0100
,
0001
0100
0010
0100
,
0010
1000
0100
0010
,
0100
1000
0010
0100
,
0001
0000
1000
0100
,
1000
0100
0001
0100
,
1000
0100
0001
0100
,
1000
0010
0100
0001
,
1000
0000
0001
0100
,
0001
0100
1000
0100
,
0001
0100
1000
0100
,
0001
0010
0100
1000
,
0001
0000
1000
0010
,
0100
0001
1000
0100
,
0010
0001
1000
0010
,
0001
0010
1000
0100
,
0001
0100
1000
0100
,
0001
1000
0010
0001
,
1000
0010
0200
0000
,
0000
0000
0000
0000
,
0000
0000
0300
0000
;

//---------------dance-single - ----------------
#NOTES:
     dance-single:
     :
     Beginner:
     3:
     0.247049,0.257692,0.068392,0.009770,0.000000,169.000000,7.000000,1.000000,0.000000,0.000000,0.000000,0.247049,0.257692,0.068392,0.009770,0.000000,169.000000,7.000000,1.000000,0.000000,0.000000,0.000000:
0000
0000
0000
0000
,
0000
0000
0000
0000
,
1000
0000
0000
0000
,
1000
0000
0000
0000
,
0001
0000
0000
0000
,
0001
0000
0000
0000
,
0100
0000
0000
0000
,
0010
0000
0000
0000
,
1000
0000
0000
0000
,
0001
0000
0000
0000
,
0010
0000
0010
0000
,
0100
0000
0100
0000
,
1000
0000
0001
0001
,
0001
0000
0100
0000
,
0010
0000
0000
0000
,
1001
0000
0001
0000
,
1000
0000
0000
0000
,
0110
0000
0010
0000
,
0100
0000
0000
0000
,
1001
0000
0001
0000
,
1000
0000
0000
0000
,
0110
0000
0010
0000
,
1000
0000
0000
0000
,
1001
0000
1000
0000
,
0100
0000
0000
0000
,
0110
0000
0010
0000
,
0001
0000
0000
0000
,
1001
0000
0100
0000
,
0000
0000
1000
0000
,
0001
0000
1000
0000
,
0000
0000
0010
0000
,
0100
0000
0010
0000
,
0000
0000
0100
0000
,
0001
0000
1000
0000
,
0000
0000
0001
0000
,
1000
0000
0100
0000
,
0100
0000
1000
0000
,
0001
0000
0001
0000
,
0000
0000
0100
0000
,
0010
0000
0010
0000
,
0000
0000
1000
0000
,
0100
0000
0010
0000
,
0001
0000
1000
0000
,
0000
0000
0001
0000
,
0000
0000
1000
0000
,
0000
0000
0010
0000
,
0000
0000
0100
0000
,
0000
0000
1000
0000
,
0100
0000
0010
0000
,
0001
0000
1000
0000
,
1000
0000
0001
0000
,
0000
0000
1000
0000
,
0010
0000
0100
0000
,
0001
0000
1000
0000
,
1000
0000
0001
0000
,
0000
0000
1000
0000
,
0100
0000
0010
0000
,
0001
0000
0010
0000
,
0100
0000
1000
0000
,
0000
0000
0001
0000
,
0100
0000
0010
0000
,
1000
0000
0010
0000
,
0100
0000
0001
0000
,
0000
0000
1000
0000
,
1000
0000
1000
0000
,
0000
0000
0001
0000
,
0001
0000
0001
0000
,
0000
0000
0100
0000
,
0100
0000
0100
0000
,
0000
0000
0010
0000
,
0010
0000
0010
0000
,
0000
0000
1000
0000
,
0100
0000
0010
0000
,
0000
0000
0001
0000
,
0100
0000
0010
0000
,
0000
0000
1000
0000
,
0100
0000
0010
0000
,
0001
0000
0100
0000
,
0010
0000
1000
0000
,
1000
0000
0001
1000
,
0000
0000
0010
0100
,
0000
0000
0001
0000
,
0001
0000
1000
0000
,
1000
0000
0010
0000
,
0100
0000
0010
0000
,
0100
0000
0001
0000
,
0001
0000
1000
0000
,
1000
0000
0100
0000
,
0010
0000
0001
0000
,
0001
0000
1000
0000
,
0010
0000
1000
0000
,
0010
0000
0100
0000
,
0001
0000
0010
0000
,
0100
0000
1000
0000
,
0010
0000
1000
0000
,
0010
0000
0100
0000
,
0001
0000
0100
0000
,
0001
0000
0010
0000
,
0001
0000
0010
0000
,
0010
0000
0100
0000
,
1000
0000
0100
0000
,
1000
0000
0010
0000
,
0100
0000
0001
0000
,
0010
0000
0200
0000
,
0000
0000
0000
0000
,
0000
0000
0300
0000
;
