#TITLE:Back To Life;
#SUBTITLE:(Basslouder Remix);
#ARTIST:MaLu Project;
#TITLETRANSLIT:;
#SUBTITLETRANSLIT:;
#ARTISTTRANSLIT:;
#GENRE:;
#CREDIT:;
#BANNER:[Scrabble] - Back To Life (Basslouder Remix)-banner.png;
#BACKGROUND:[Scrabble] - Back To Life (Basslouder Remix)-bakground.png;
#LYRICSPATH:;
#CDTITLE:cdtitle.png;
#MUSIC:[Scrabble] - Back To Life (Basslouder Remix).mp3;
#OFFSET:-0.205000;
#SAMPLESTART:26.837666;
#SAMPLELENGTH:13.333332;
#SELECTABLE:YES;
#BPMS:0.000000=144.000000
;
#STOPS:
;
#BGCHANGES:;
#KEYSOUNDS:;
#ATTACKS:;

//---------------dance-single - ----------------
#NOTES:
     dance-single:
     :
     Hard:
     7:
     0.422748,0.409862,0.261109,0.174073,0.003956,319.000000,33.000000,22.000000,0.000000,0.000000,0.000000,0.422748,0.409862,0.261109,0.174073,0.003956,319.000000,33.000000,22.000000,0.000000,0.000000,0.000000:
0000
0000
0000
0000
,
0000
0000
0000
0000
,
0000
0000
0000
0000
,
0000
0000
0000
0000
,
0000
0000
0000
0000
,
0000
0000
0000
0000
,
0000
0000
0000
0000
,
0000
0000
0000
0000
,
1000
0001
1000
0000
,
0100
0010
0100
0000
,
0010
0001
2000
3000
,
0000
0000
0001
0100
,
1000
0010
0001
1000
,
0100
0010
0100
1000
,
0010
1000
0100
1000
,
0002
0013
0002
1003
,
0000
0010
0100
0001
1000
0001
0010
0000
,
0000
0100
1000
0100
0010
0001
1000
0000
,
0000
0001
1000
0010
0100
0001
1000
0000
,
1010
0101
1100
1001
,
0000
0001
0010
0100
0010
0001
0100
0000
,
0000
0010
1000
0010
0100
0001
1000
0000
,
0000
0001
0010
0100
1000
0010
0100
0000
,
0110
1001
0110
1001
,
1010
0000
0010
0100
0001
0000
0011
0000
,
1001
0000
0001
1000
0100
0000
1010
0000
,
1001
0000
0010
1000
0001
0000
1001
0000
,
2000
3010
0002
0013
,
0000
0001
1000
0010
0100
0001
1000
0000
,
0000
0001
0100
0010
1000
0100
0010
0000
,
0000
0100
1000
0001
0010
0100
0010
0000
,
0001
0100
0020
0000
,
0030
0000
0000
0000
0000
0000
0000
0000
0000
0000
0000
0000
0000
0000
1000
0001
,
1000
0000
0010
1000
0000
0001
0100
0000
,
0001
0000
0001
0000
0001
0000
0001
0100
,
0010
0000
0010
0000
0010
1000
0001
0010
,
0100
0000
0100
0000
0100
0000
0100
0010
,
0001
0000
0001
0000
0001
1000
0100
0010
,
0100
0000
0100
0000
0100
0000
0100
1000
,
0010
0000
0010
0000
0010
0100
0001
1000
,
0001
0000
0001
0000
0001
0000
0001
0010
,
0100
0000
0100
0000
0100
1000
0010
0000
,
2000
0010
0010
3010
,
0002
0010
0010
0013
,
2000
3100
0002
0103
,
0001
0100
0010
1000
,
0002
0100
0100
0103
,
2000
0100
0100
3100
,
0002
0103
2000
3100
,
1000
0100
0010
0001
,
1000
0000
0001
0010
0100
0000
0100
0000
,
1000
0000
0001
0010
0100
0000
0100
0000
,
1000
0000
0001
0010
0100
0000
0100
0000
,
0020
0031
0200
0310
,
0000
0100
0001
0010
0000
0010
0100
1000
,
0000
1000
0001
0100
0000
0100
0001
0010
,
0000
0100
1000
0010
0100
0001
0010
0000
,
1001
0110
2002
3003
,
0001
0100
0000
0001
0010
0001
0100
1000
,
0100
0010
0000
0010
0100
0001
0100
0010
,
1000
0100
0000
0100
0010
0001
0010
1000
,
0010
0100
0000
0010
0001
1000
0010
1000
,
0001
0100
0000
0001
0100
0010
0001
0010
,
1000
0001
0000
1000
0100
0010
0001
0010
,
1000
0010
0000
0010
0100
0010
0001
1000
,
0100
0010
0000
0010
0001
1000
0020
0000
,
0130
0101
0001
0101
,
0001
1001
1000
1001
,
1000
1010
0010
1010
,
1001
0110
1001
0110
,
0001
0101
0100
0101
,
0010
0110
0100
0110
,
0010
1010
1000
1010
,
2000
3020
0200
0000
,
0330
0000
0000
0000
;

//---------------dance-single - ----------------
#NOTES:
     dance-single:
     :
     Medium:
     5:
     0.350406,0.380586,0.189897,0.126598,0.000000,270.000000,24.000000,16.000000,0.000000,0.000000,0.000000,0.350406,0.380586,0.189897,0.126598,0.000000,270.000000,24.000000,16.000000,0.000000,0.000000,0.000000:
0000
0000
0000
0000
,
0000
0000
0000
0000
,
0000
0000
0000
0000
,
0000
0000
0000
0000
,
0000
0000
0000
0000
,
0000
0000
0000
0000
,
0000
0000
0000
0000
,
0000
0000
0000
0000
,
0001
0000
0100
0000
,
0010
0010
0010
0000
,
0100
0000
0001
0000
,
1000
0000
0001
0000
,
1000
0010
1000
0010
,
0100
0001
0100
0001
,
0100
0010
1000
0001
,
2002
0000
0000
3003
,
1000
0000
0010
0000
0100
0001
0100
0000
,
0001
0000
0010
0000
0100
1000
0100
0000
,
1000
0010
0100
0001
,
1001
1001
0110
0110
,
0010
0000
1000
0000
0100
0010
0100
0000
,
0010
0000
0001
0000
0100
0010
0100
0000
,
0010
0000
1000
0000
0001
1000
0001
0000
,
1001
0001
0010
0100
,
1001
0000
1000
0010
0100
0000
0001
0000
,
0011
0000
0001
0010
0100
0000
1000
0000
,
1010
0000
1000
0010
0100
0000
0001
0000
,
0020
0031
0020
0130
,
0010
0000
0001
0000
0100
0010
0100
0000
,
0010
0000
1000
0000
0100
0010
0100
0000
,
0010
0001
0100
0010
,
1000
0001
0200
0000
,
0300
0000
0000
0000
0000
0000
0000
0010
,
0010
0000
0100
0001
0000
0001
1000
0000
,
0001
0010
0001
0020
,
0130
1000
0100
0100
,
0010
0001
0100
0020
,
1030
0010
0100
0100
,
0001
1000
0001
0200
,
0301
1000
0010
0100
,
0001
1000
0001
0200
,
0310
1000
0100
0020
,
0031
0000
0100
0000
0010
0000
1000
0001
,
1000
0000
0010
0000
0100
0000
0001
1000
,
0001
0100
0010
1000
,
0100
0100
0100
0100
,
0010
0000
0001
0000
0100
0000
0010
1000
,
0100
0000
0010
0000
0001
0000
0010
0001
,
0100
0010
1000
0001
,
0100
0100
0100
0100
,
1001
0001
1000
0001
,
1001
1000
0001
1000
,
1001
0001
1000
0001
,
0200
0310
0020
0130
,
0001
0100
0010
1000
,
0001
0100
0010
1000
,
0001
0010
1000
0010
,
0002
0203
0020
0330
,
0110
0100
0010
1000
,
1001
0001
0010
0001
,
0101
0100
0010
1000
,
1100
0100
0010
0100
,
1100
0100
0010
0001
,
1001
1000
0001
0100
,
1010
1000
0010
0100
,
0101
0000
0001
0000
0100
0010
1000
0000
,
0001
0000
1000
0000
0010
1000
0001
0000
,
0010
0000
0100
0000
0010
0001
0100
0000
,
0010
0000
1000
0000
0100
0010
0001
0000
,
0011
0011
1010
1010
,
1000
0000
0001
0000
0100
0010
1000
0000
,
0100
0000
0010
0000
0001
0010
0100
0000
,
0010
0000
0001
0000
0100
0010
1000
0000
,
0001
1000
0200
0000
,
0300
0000
0000
0000
;

//---------------dance-single - ----------------
#NOTES:
     dance-single:
     :
     Easy:
     3:
     0.217026,0.322034,0.094949,0.055387,0.000000,173.000000,12.000000,7.000000,0.000000,0.000000,0.000000,0.217026,0.322034,0.094949,0.055387,0.000000,173.000000,12.000000,7.000000,0.000000,0.000000,0.000000:
0000
0000
0000
0000
,
0000
0000
0000
0000
,
0000
0000
0000
0000
,
0000
0000
0000
0000
,
0000
0000
0000
0000
,
0000
0000
0000
0000
,
0000
0000
0000
0000
,
0000
0000
0000
0000
,
0001
0000
0000
0000
,
1000
0000
0000
0000
,
0010
0000
0000
0000
,
0100
0000
0000
0000
,
0001
0000
0001
0000
,
1000
0000
1000
0000
,
0010
0000
0100
0000
,
1001
0000
0000
0000
,
1000
0001
0100
0001
,
0000
1000
0010
1000
,
0000
0010
0100
0001
,
1001
1001
1001
1001
,
0000
0001
1000
0010
,
0000
1000
0001
0010
,
0000
0010
0001
0100
,
1001
0001
0001
0001
,
1001
0001
0100
0010
,
1001
1000
0100
0010
,
1001
0001
0100
0010
,
2000
0000
0000
0000
,
3000
0001
0001
1000
,
0000
0010
0010
0100
,
0000
0010
0100
0001
,
1000
0200
0020
0000
,
0330
0000
0000
0000
,
0200
0000
0000
0300
,
1000
0000
1000
0000
,
0001
0000
1000
0001
,
0010
0000
0010
0000
,
0100
0000
0010
0001
,
1000
0000
1000
0000
,
0010
0000
0100
0010
,
1000
0000
1000
0000
,
0001
0000
1000
0000
,
0001
0000
1000
0000
,
0010
0000
1000
0000
,
0100
0000
1000
0000
,
0010
0100
0001
1000
,
0001
0000
1000
0000
,
0010
0000
1000
0000
,
0001
0000
0100
0000
,
0010
0100
0001
1000
,
1001
0000
0000
0000
,
0110
0000
0000
0000
,
1001
0000
0000
0000
,
0020
0000
0000
0030
,
0100
0000
0100
0000
,
0010
0000
0010
0000
,
1000
0010
0100
0001
,
1000
0001
0020
0000
,
0031
0000
0100
0001
,
0010
0000
0100
0100
,
0010
0000
0100
1000
,
0001
0000
1000
1000
,
0010
0000
0100
0001
,
0010
0000
0100
0100
,
1000
0000
0100
1000
,
0010
0000
0100
0001
,
1000
1000
1000
1000
,
0001
0001
0001
0001
,
0100
0100
0100
0100
,
0010
0100
0001
1000
,
0010
0010
0010
0010
,
1000
1000
1000
1000
,
0001
0001
0001
0001
,
1000
0001
0020
0000
,
0030
0000
0000
0000
;

//---------------dance-single - ----------------
#NOTES:
     dance-single:
     :
     Challenge:
     9:
     0.515436,0.497690,0.348145,0.150335,0.083080,393.000000,44.000000,19.000000,0.000000,0.000000,0.000000,0.515436,0.497690,0.348145,0.150335,0.083080,393.000000,44.000000,19.000000,0.000000,0.000000,0.000000:
0000
0000
0000
0000
,
0000
0000
0000
0000
,
0000
0000
0000
0000
,
0000
0000
0000
0000
,
0000
0000
0000
0000
,
0000
0000
0000
0000
,
0000
0000
0000
0000
,
0000
0000
0000
0000
,
1000
0000
0100
1000
0000
0000
0000
0100
,
0010
0100
1000
0001
0100
0000
0000
0010
,
0000
2000
0000
0002
0000
0000
3003
0001
,
1000
0000
0000
0001
0100
1000
0010
0001
,
0000
0010
0100
1000
0000
0000
0001
1000
,
0100
0010
0100
0010
0001
1000
0010
0200
,
0000
0300
0000
0000
,
0001
0000
0000
0000
1000
0000
0000
0000
0100
0000
0000
0000
0010
0001
0000
0000
,
0000
0000
1000
0010
1000
0000
0100
0000
1000
0000
0001
0000
1000
0000
0010
0000
,
0000
0100
0010
1000
0100
0010
0001
1000
,
1000
0001
0100
0001
0010
0100
1000
0000
,
1010
1100
0011
0101
,
0000
0100
0001
0010
0100
1000
0010
0100
,
0100
0010
1000
0001
0010
0100
0010
0100
,
0100
1000
0100
0010
0001
1000
0010
0000
,
2001
0010
0100
3001
,
1100
0000
0000
0000
0100
0000
0010
0000
0001
0000
1000
0010
0000
0000
0000
0000
,
0110
0000
0000
0000
0100
0000
0001
0000
0010
0000
0100
1000
0000
0000
0000
0000
,
1001
0000
0000
0000
1000
0000
0010
0000
0100
0000
0001
1000
0000
0000
0000
0000
,
0010
0000
0000
1000
0000
0000
0200
0000
0000
0000
0320
0000
0000
0000
0000
0000
,
0030
0000
0100
0010
0100
0000
0010
0000
0001
0000
1000
0000
0001
0000
0000
0000
,
0000
1000
0001
0100
0010
1000
0001
0000
,
0000
0010
0100
0010
0001
1000
0100
0000
,
2000
3002
0023
0000
,
0130
0000
0000
0000
0000
0000
0000
0000
0000
0000
0000
0000
0000
0000
1000
0001
,
1000
0000
0010
1000
0000
1000
0001
0000
,
1000
0000
0100
0000
0010
0000
0100
0000
1000
0000
0010
0000
0100
0001
0100
0000
,
0001
0010
0100
0010
0001
0001
1000
0010
,
0100
0000
0001
0000
1000
0000
0001
0000
0010
0000
0001
0000
1000
0100
1000
0000
,
0010
0100
0001
0010
0100
0100
1000
0100
,
0010
0000
0010
0000
0100
0000
1000
0000
0001
0000
0001
0000
1000
0010
1000
0000
,
0001
0001
0100
0010
1000
1000
0010
1000
,
0100
0000
0100
0000
0010
0000
0100
0000
0010
0000
0010
0000
0001
0010
0001
0000
,
0010
0100
1000
0010
0100
0001
1000
0001
,
0100
0000
0001
1000
0001
0000
0100
0000
0010
0000
1000
0000
0010
0000
0000
0000
,
0000
1000
0100
0010
0001
1000
0001
0000
,
0000
0010
0100
0010
0001
1000
0100
0000
,
1100
0110
0011
1010
,
0000
1000
0010
1000
0100
1000
0010
0000
,
0000
1000
0001
0010
0001
0100
0010
0000
,
0000
1000
0100
1000
0001
0010
0100
0000
,
1002
0010
0100
1003
,
1001
0000
0000
0000
1000
0000
0100
0000
0010
0000
0001
1000
0000
0000
0000
0000
,
1001
0000
0000
0000
1000
0000
0100
0000
0010
0000
0001
1000
0000
0000
0000
0000
,
1010
0000
0000
0000
1000
0000
0100
0000
0010
0000
0001
1000
0000
0000
0000
0000
,
1000
0000
0000
0010
0000
0000
0200
0000
0000
0000
0302
0000
0000
0000
0000
0000
,
1003
0001
1000
0001
1000
0001
1000
0001
,
0010
0100
0010
0100
0010
0100
0010
0100
,
1000
0100
0001
0100
1000
0010
0100
0000
,
0020
2030
0002
3003
,
1000
0000
0001
0000
0000
0000
1000
0000
0001
0000
0010
0000
0100
1000
0001
0000
,
0100
0001
0000
1000
0010
0100
0001
1000
,
0100
0000
0010
0000
0000
0000
0100
0000
1000
0000
0010
0000
0100
0001
0010
0000
,
0100
0010
0000
0100
1000
0001
0010
0100
,
0010
0000
0001
0000
0000
0000
1000
0000
0001
0000
0010
0000
0100
1000
0001
0000
,
1000
0100
0000
1000
0001
0100
0001
0010
,
0100
0000
0010
0000
0000
0000
0100
0000
1000
0000
0010
0000
0100
0010
1000
0000
,
0001
1000
0000
0100
1000
0001
0020
0030
,
0110
0011
0110
0011
,
0110
1100
0110
1100
,
1001
0101
1001
1100
,
1001
0110
1001
0110
,
0101
1010
0101
1010
,
1100
0011
1100
0011
,
1100
0110
0011
0110
,
0200
2300
0002
0000
,
3003
0000
0000
0000
;

//---------------dance-single - ----------------
#NOTES:
     dance-single:
     :
     Beginner:
     1:
     0.122077,0.146379,0.079124,0.000000,0.000000,98.000000,10.000000,0.000000,0.000000,0.000000,0.000000,0.122077,0.146379,0.079124,0.000000,0.000000,98.000000,10.000000,0.000000,0.000000,0.000000,0.000000:
// measure 0
0000
0000
0000
0000
,  // measure 1
0000
0000
0000
0000
,  // measure 2
0000
0000
0000
0000
,  // measure 3
0000
0000
0000
0000
,  // measure 4
0000
0000
0000
0000
,  // measure 5
0000
0000
0000
0000
,  // measure 6
0000
0000
0000
0000
,  // measure 7
0000
0000
0000
0000
,  // measure 8
1000
0000
0000
0000
,  // measure 9
0010
0000
0000
0000
,  // measure 10
0100
0000
0000
0000
,  // measure 11
0000
0000
0000
0000
,  // measure 12
0001
0000
0001
0000
,  // measure 13
1000
0000
0000
0000
,  // measure 14
0010
0000
0000
0000
,  // measure 15
1001
0000
0000
0000
,  // measure 16
1000
0000
0000
0000
,  // measure 17
0001
0000
0000
0000
,  // measure 18
1000
0000
0000
0000
,  // measure 19
0010
0000
0010
0000
,  // measure 20
0100
0000
0000
0000
,  // measure 21
0001
0000
0000
0000
,  // measure 22
1000
0000
0000
0000
,  // measure 23
0010
0000
0010
0000
,  // measure 24
0110
0000
0000
0000
,  // measure 25
1001
0000
0000
0000
,  // measure 26
0110
0000
0000
0000
,  // measure 27
0010
0000
0000
0000
,  // measure 28
0001
0000
0000
0000
,  // measure 29
1000
0000
0000
0000
,  // measure 30
0010
0000
0100
0000
,  // measure 31
0010
0010
0010
0000
,  // measure 32
1001
0000
0000
0000
,  // measure 33
0000
0000
0000
0000
,  // measure 34
1000
0000
0000
0000
,  // measure 35
0100
0000
0000
0000
,  // measure 36
0010
0000
0000
0000
,  // measure 37
0001
0000
0000
0000
,  // measure 38
1000
0000
0000
0000
,  // measure 39
0010
0000
0000
0000
,  // measure 40
0100
0000
0000
0000
,  // measure 41
0001
0000
0000
0000
,  // measure 42
1000
0000
0000
0000
,  // measure 43
1000
0000
0000
0000
,  // measure 44
0001
0000
0001
0000
,  // measure 45
0100
0100
0100
0000
,  // measure 46
0010
0000
0000
0000
,  // measure 47
1000
0000
0000
0000
,  // measure 48
0010
0000
0100
0000
,  // measure 49
0010
0010
0010
0000
,  // measure 50
1001
0000
0000
0000
,  // measure 51
0110
0000
0000
0000
,  // measure 52
1001
0000
0000
0000
,  // measure 53
0010
0000
0000
0000
,  // measure 54
0100
0000
0100
0000
,  // measure 55
0010
0000
0010
0000
,  // measure 56
1000
0000
0001
0000
,  // measure 57
0100
0100
0100
0000
,  // measure 58
0010
0000
1000
0000
,  // measure 59
1000
0000
0001
0000
,  // measure 60
1000
0000
0001
0000
,  // measure 61
0010
0000
0001
0001
,  // measure 62
0001
0000
1000
0000
,  // measure 63
0100
0000
1000
0000
,  // measure 64
0010
0000
0100
0000
,  // measure 65
0010
0000
0100
0100
,  // measure 66
0110
0000
0000
0000
,  // measure 67
1000
0000
0000
0000
,  // measure 68
0010
0000
0100
0000
,  // measure 69
0010
0010
0010
0000
,  // measure 70
1000
0000
0000
0000
,  // measure 71
0001
0000
0000
0000
,  // measure 72
0010
0000
0001
0000
,  // measure 73
0100
0100
0100
0000
,  // measure 74
1001
0000
0000
0000
;
