#VERSION:0.83;
#TITLE:Achtung Panzer;
#SUBTITLE:;
#ARTIST:Raubtier;
#TITLETRANSLIT:;
#SUBTITLETRANSLIT:;
#ARTISTTRANSLIT:;
#GENRE:;
#ORIGIN:;
#CREDIT:;
#BANNER:[Scrabble] - Achtung Panzer.png;
#BACKGROUND:[Scrabble] - Achtung Panzer-bg.png;
#PREVIEWVID:;
#JACKET:[Scrabble] - Achtung Panzer-jacket.png;
#CDIMAGE:;
#DISCIMAGE:;
#LYRICSPATH:;
#CDTITLE:;
#MUSIC:[Scrabble] - Achtung Panzer.ogg;
#OFFSET:-0.270000;
#SAMPLESTART:40.688210;
#SAMPLELENGTH:14.999992;
#SELECTABLE:YES;
#DISPLAYBPM:95.000000;
#BPMS:0.000=95.000,
95.500=94.000,
96.000=95.000;
#STOPS:;
#DELAYS:;
#WARPS:;
#TIMESIGNATURES:0.000=4=4;
#TICKCOUNTS:0.000=4;
#COMBOS:0.000=1;
#SPEEDS:0.000=1.000=0.000=0;
#SCROLLS:0.000=1.000;
#FAKES:;
#LABELS:0.000=Song Start;
#BGCHANGES:;
#KEYSOUNDS:;
#ATTACKS:
;

//---------------dance-single - ----------------
#NOTEDATA:;
#CHARTNAME:;
#STEPSTYPE:dance-single;
#DESCRIPTION:;
#CHARTSTYLE:;
#DIFFICULTY:Beginner;
#METER:2;
#RADARVALUES:0.164515,0.267579,0.125806,0.000000,0.000000,119.000000,106.000000,13.000000,0.000000,0.000000,0.000000,0.000000,0.000000,0.000000,0.164515,0.267579,0.125806,0.000000,0.000000,119.000000,106.000000,13.000000,0.000000,0.000000,0.000000,0.000000,0.000000,0.000000;
#CREDIT:;
#DISPLAYBPM:95.000000;
#NOTES:
// measure 0
0000
0000
0000
0000
,  // measure 1
0000
0000
0000
0000
,  // measure 2
0000
0000
0000
0000
,  // measure 3
0000
0000
0000
0000
,  // measure 4
0010
0010
0100
0100
,  // measure 5
0001
0001
1000
1000
,  // measure 6
0001
0001
0010
0010
,  // measure 7
0100
0100
1000
1000
,  // measure 8
1001
0000
0000
0000
,  // measure 9
0110
0000
0000
0000
,  // measure 10
1001
0000
0000
0010
,  // measure 11
0110
0000
0000
0000
,  // measure 12
1100
0000
0000
0001
,  // measure 13
0011
0000
0000
0000
,  // measure 14
0101
0000
0000
0010
,  // measure 15
0110
0000
0010
0010
,  // measure 16
0010
0000
0100
0100
,  // measure 17
0100
0000
0001
0001
,  // measure 18
0001
0000
1000
1000
,  // measure 19
1000
0000
0010
0010
,  // measure 20
0010
0000
0100
0100
,  // measure 21
0100
0000
0001
0001
,  // measure 22
0001
0000
1000
1000
,  // measure 23
1000
0000
0100
0100
,  // measure 24
0100
0100
0100
0100
,  // measure 25
0100
0000
0010
0010
,  // measure 26
0010
0010
0010
0001
,  // measure 27
0001
0001
0001
0001
,  // measure 28
0000
1000
1000
1000
,  // measure 29
1000
1000
0001
0000
,  // measure 30
1000
0000
0010
0010
,  // measure 31
0010
0010
0010
0000
,  // measure 32
0100
0000
0001
0001
,  // measure 33
0001
0001
0001
0000
,  // measure 34
1000
0000
0100
0100
,  // measure 35
0100
0100
0100
0000
,  // measure 36
1000
0000
0010
0010
,  // measure 37
0010
0010
0100
0100
,  // measure 38
0010
0010
1001
1001
,  // measure 39
1001
1001
1001
0000
;

//---------------dance-single - ----------------
#NOTEDATA:;
#CHARTNAME:;
#STEPSTYPE:dance-single;
#DESCRIPTION:;
#CHARTSTYLE:;
#DIFFICULTY:Easy;
#METER:4;
#RADARVALUES:0.257141,0.344030,0.425804,0.038709,0.000000,186.000000,142.000000,44.000000,4.000000,0.000000,0.000000,0.000000,0.000000,0.000000,0.257141,0.344030,0.425804,0.038709,0.000000,186.000000,142.000000,44.000000,4.000000,0.000000,0.000000,0.000000,0.000000,0.000000;
#CREDIT:;
#DISPLAYBPM:95.000000;
#NOTES:
0000
0000
0000
0000
,
0000
0000
0000
0000
,
0000
0000
0000
0000
,
0000
0000
0000
0000
,
1000
0100
1000
0010
,
0100
0001
0010
0001
,
0100
0001
0010
0100
,
1000
0010
1000
0010
,
0110
0100
0000
0000
,
1001
0000
0000
0000
,
0011
0001
0000
0011
,
0110
0000
0000
0000
,
0110
1100
0000
1000
,
1010
0000
0000
0000
,
1010
0010
0000
0110
,
0101
0000
0001
1000
,
0100
1000
0000
0100
0010
0000
0002
0000
,
0013
0100
0000
0010
0100
0000
1000
0000
,
0010
1000
0000
0010
0100
0000
0002
0000
,
0013
0001
0000
0100
0010
0000
1000
0000
,
0010
0100
0000
0010
0100
0000
0002
0000
,
1003
0001
0000
1000
0100
0000
0010
0000
,
0100
0010
0000
0100
0010
0000
0002
0000
,
0103
0001
0000
0100
0001
0000
1000
0000
,
1001
0110
1100
0011
,
0101
0000
0101
0110
,
1010
1100
0110
0011
,
0110
0011
0101
0110
,
0000
0110
1010
1100
,
0110
0000
0011
0000
0100
0001
0100
0000
,
0010
1000
0010
0000
0100
0000
0110
0000
,
0010
0000
1010
0000
1000
0001
0100
0000
,
0001
1000
0100
0000
1000
0000
0110
0000
,
0001
0000
0011
0000
0100
0001
0010
0000
,
0100
1000
0010
0000
1000
0000
1010
0000
,
0100
0000
0101
0000
0001
0010
0100
0000
,
0010
0001
0100
0000
0001
0000
0110
0000
,
0010
1010
1000
0100
,
0010
0001
0011
0110
,
1100
1001
0101
0000
;

//---------------dance-single - ----------------
#NOTEDATA:;
#CHARTNAME:;
#STEPSTYPE:dance-single;
#DESCRIPTION:;
#CHARTSTYLE:;
#DIFFICULTY:Medium;
#METER:7;
#RADARVALUES:0.374652,0.479332,0.116128,0.000000,0.372578,271.000000,259.000000,12.000000,0.000000,0.000000,0.000000,0.000000,0.000000,0.000000,0.374652,0.479332,0.116128,0.000000,0.372578,271.000000,259.000000,12.000000,0.000000,0.000000,0.000000,0.000000,0.000000,0.000000;
#CREDIT:;
#DISPLAYBPM:95.000000;
#NOTES:
0000
0000
0000
0000
,
0000
0000
0000
0000
,
0000
0000
0000
0000
,
0000
0000
0000
0000
0000
0000
0000
0000
0100
0000
0000
0001
0000
0000
1000
0000
,
0001
0100
0000
0000
0001
0010
0000
0000
0100
0010
0000
0000
0100
1000
0000
0000
,
0010
1000
0000
0000
0010
0100
0000
0000
0001
0100
0000
0000
0001
1000
0000
0000
,
0100
1000
0000
0000
0100
0010
0000
0000
0001
0010
0000
0000
0100
0010
0000
0000
,
0001
1000
0000
0000
0010
1000
0000
0000
0010
0100
0000
0000
0001
1000
0000
0000
,
1100
0000
0000
0110
0000
0000
0000
0000
0000
0000
0000
0000
0000
0000
0000
0000
,
0010
0001
0000
0000
0000
0000
0000
0000
0000
0000
0000
0000
0000
0000
0000
0000
,
0101
0000
0000
1010
0000
0000
0000
0000
0000
0000
0000
0000
0010
1000
0000
0000
,
0100
0010
0000
0000
0000
0000
0000
0000
0000
0000
0000
0000
0000
0000
0000
0000
,
0011
0000
0000
0101
0000
0000
0000
0000
0000
0000
0000
0000
0010
0000
0000
0000
,
1000
0010
0000
0000
0000
0000
0000
0000
0000
0000
0000
0000
0000
0000
0000
0000
,
0110
0000
0000
1010
0000
0000
0000
0000
0000
0000
0000
0000
0100
1000
0000
0000
,
0100
0010
0000
0000
0000
0000
0000
0000
0001
0010
0000
0001
0000
0010
0001
0000
,
1000
0001
0000
0100
0001
0010
0100
0010
,
0001
0100
0000
0010
1000
0010
0100
0001
,
1000
0001
0000
0010
0100
1000
0010
1000
,
0010
0100
0000
0001
0010
0100
1000
0100
,
0010
0001
0000
0100
0001
0010
0100
0010
,
0001
0100
0000
0010
1000
0100
0010
0100
,
1000
0010
0000
1000
0010
0100
0001
0010
,
0100
0010
0000
0001
0100
0001
1000
0100
,
0010
0001
0000
0000
0100
0001
0000
0000
0010
0100
0000
0000
1000
0010
0000
0000
,
0100
0001
0000
0000
0000
0000
1000
0100
0000
0000
0010
0001
0000
0000
0100
0010
,
0000
0000
1000
0001
0000
0000
0100
0001
0000
0000
0000
0000
0010
0100
0000
0000
,
1000
0100
0000
0000
0010
0001
0000
0000
0100
0001
0000
0000
0010
0100
0000
0000
,
0000
0000
1000
0100
0000
0000
0010
0001
0000
0000
0100
0001
0000
0000
0010
0100
,
0000
0000
1000
0010
0000
0000
0000
0000
0100
0000
0001
0000
0010
0000
0100
0010
,
0000
0000
0001
0000
1000
0000
0001
0100
0001
0000
1000
0010
1000
0000
0010
0100
,
0010
0000
0100
0001
0100
0000
0001
1000
0001
0000
0010
0000
0100
0000
1000
0100
,
0000
0000
0010
0001
0000
0000
0010
0001
0010
0000
0001
0100
0001
0000
0100
0010
,
0100
0000
0010
1000
0010
0000
1000
0100
0000
0000
1000
0000
0100
0000
0010
0000
,
0001
0000
0100
0000
0001
0000
0010
0100
0010
0000
0100
1000
0100
0000
1000
0001
,
1000
0000
0001
0100
0001
0000
0100
0010
0100
0000
0010
0000
1000
0000
0001
0000
,
0100
0000
0000
0001
0000
0000
0010
0000
0100
0000
0010
0100
0010
0000
0001
0010
,
0001
0000
0100
0001
0100
0000
0000
0000
1001
0000
0010
0000
0110
0000
1000
0000
,
1010
0000
0010
0000
0110
0000
0100
0000
1000
0001
1000
0000
0001
0100
0001
0000
,
0010
0100
0010
0000
0100
1000
0100
0000
1000
0001
1000
0000
0000
0000
0000
0000
;

//---------------dance-single - ----------------
#NOTEDATA:;
#CHARTNAME:;
#STEPSTYPE:dance-single;
#DESCRIPTION:;
#CHARTSTYLE:;
#DIFFICULTY:Hard;
#METER:9;
#RADARVALUES:0.577876,0.747757,0.348385,0.000000,0.764511,418.000000,382.000000,36.000000,0.000000,0.000000,0.000000,0.000000,0.000000,0.000000,0.577876,0.747757,0.348385,0.000000,0.764511,418.000000,382.000000,36.000000,0.000000,0.000000,0.000000,0.000000,0.000000,0.000000;
#CREDIT:;
#DISPLAYBPM:95.000000;
#NOTES:
0000
0000
0000
0000
,
0000
0000
0000
0000
,
0000
0000
0000
0000
,
0000
0000
0000
0000
0000
0000
0000
0000
0100
0001
0000
1000
0000
0001
0010
0100
,
1000
0100
0010
0000
0001
0010
0001
0000
0100
0010
1000
0000
0010
0100
0001
0000
,
1000
0001
0010
0000
0100
1000
0100
0000
0010
0001
0100
0000
0001
0010
0100
0000
,
1000
0010
0100
0000
0010
1000
0001
0000
0100
0001
0010
0000
0100
1000
0100
0000
,
0010
0001
1000
0000
0001
0100
0001
0000
0010
0100
1000
0000
0100
0010
0001
0000
,
1001
0000
0000
0101
0000
0000
0000
0000
0000
0000
0000
0000
0000
0000
0000
0000
,
0011
0011
0000
0000
0000
0000
0000
0000
0000
0000
0000
0000
0000
0000
0000
0000
,
0110
0000
0000
1100
0000
0000
0000
0000
0000
0000
0000
0000
1100
1100
0000
0000
,
1001
1001
0000
0000
0000
0000
0000
0000
0000
0000
0000
0000
0000
0000
0000
0000
,
0101
0000
0000
0000
0000
0000
0000
0000
0000
1010
0000
0000
0000
0000
0000
0000
0000
0000
0000
0000
0000
0000
0000
0000
0000
0000
0000
0000
0000
0000
0000
0000
0000
0000
0000
0000
0010
0000
0000
0000
1000
0000
0000
0000
0001
0000
0000
0000
,
0101
0101
0000
0000
0000
0000
0000
0000
0000
0000
0000
0000
0000
0000
0000
0000
,
0011
0000
0000
0110
0000
0000
0000
0000
0000
0000
0000
0000
1100
1100
0000
0000
,
0110
0110
0000
0000
0000
0000
0000
0000
0010
0001
0000
0010
0000
0001
0100
0001
,
1000
0100
0010
0001
0000
0010
0001
0100
0010
1000
0010
0000
1000
0010
0100
0000
,
0001
0010
0100
1000
0000
0100
0010
0001
1001
0000
0100
0000
1010
0000
0010
0000
,
0100
0001
0010
0100
0000
0010
0100
1000
0001
0100
0001
0000
0100
0001
0010
0000
,
0100
1000
0100
0010
0000
0001
0010
0001
0011
0000
0010
0000
1100
0000
1000
0000
,
0010
0100
0010
1000
0000
0001
0100
0001
0010
0100
1000
0000
0100
1000
0100
0000
,
0010
0001
0100
0001
0000
1000
0001
0100
0101
0000
0001
0000
0110
0000
1000
0000
,
0100
0010
0001
0100
0000
0001
0010
0100
1000
0010
0100
0000
0010
1000
0010
0000
,
0100
0001
0010
0100
0000
1000
0100
0010
0011
0000
0001
0000
0110
0000
1000
0000
,
0010
1000
0100
0000
1000
0100
0010
0000
0001
0010
0001
0000
0100
0010
1000
0000
,
0010
0100
0001
0000
0000
0000
1000
0001
0010
0000
0100
0010
0001
0000
0100
0001
,
1000
0000
0100
1000
0010
0000
0100
0010
1000
0000
0000
0000
0001
0100
0001
0000
,
0010
0100
0010
0000
0001
0100
0001
0000
1000
0100
0010
0000
0100
1000
0010
0000
,
0000
0000
1000
0010
0100
0000
0001
1000
0100
0000
0010
0100
1000
0000
0010
1000
,
0001
0000
0100
0001
0010
0000
0000
0000
0001
0010
0001
0100
0001
0010
0001
1000
,
0100
0010
0100
1000
0010
0100
0010
1000
0001
0000
0100
0001
0010
0000
0100
0010
,
0100
0000
1000
0001
0100
0000
0001
1000
0100
0010
0100
1000
0010
0100
0001
1000
,
0001
0100
0001
0010
0100
1000
0100
0010
0001
0000
0100
0001
0010
0000
0100
1000
,
0010
0000
0100
0010
1000
0000
0001
1000
0100
0010
0100
1000
0010
0100
0001
1000
,
0001
0100
0001
0010
0100
1000
0100
0010
0001
0000
0100
0001
0010
0000
0100
1000
,
0010
0000
0100
0010
1000
0000
0100
1000
0010
0100
0001
1000
0001
0010
0100
1000
,
0100
0010
0001
1000
0001
0100
0010
1000
0010
0000
0100
0010
1000
0000
0001
0010
,
0100
0000
1000
0100
0010
0000
0000
0000
0011
0000
0011
0000
0101
0000
0101
0000
,
1010
0000
0000
0000
1010
0000
0000
0000
0101
0000
0000
0000
0101
0000
0000
0000
1000
0001
1000
0001
1000
0000
0000
0000
0001
1000
0001
1000
0001
0000
0000
0000
,
1000
0001
1000
0001
1000
0000
0000
0000
0001
1000
0001
1000
0001
0000
0000
0000
1000
0001
1000
0001
1000
0000
0000
0000
0000
0000
0000
0000
0000
0000
0000
0000
;

//---------------dance-single - ----------------
#NOTEDATA:;
#CHARTNAME:;
#STEPSTYPE:dance-single;
#DESCRIPTION:;
#CHARTSTYLE:;
#DIFFICULTY:Challenge;
#METER:11;
#RADARVALUES:0.770041,0.805277,0.396772,0.396772,1.388701,557.000000,516.000000,41.000000,41.000000,0.000000,0.000000,0.000000,0.000000,0.000000,0.770041,0.805277,0.396772,0.396772,1.388701,557.000000,516.000000,41.000000,41.000000,0.000000,0.000000,0.000000,0.000000,0.000000;
#CREDIT:;
#DISPLAYBPM:95.000000;
#NOTES:
0000
0000
0000
0000
,
0000
0000
0000
0000
,
0000
0000
0000
0000
,
0000
0000
0000
0000
0000
0000
0000
0000
0000
0000
0000
0000
0100
0001
0100
0001
1000
0000
0100
0000
0000
0000
0010
0000
0000
0000
0100
0000
1000
0000
0001
0000
,
0010
0001
0100
0100
0010
1000
0100
0100
1000
0010
0100
0100
0001
1000
0001
0001
,
0010
0100
1000
1000
0100
0010
0001
0001
0100
0010
1000
1000
0010
0100
0001
0001
,
0010
0100
0010
0010
0100
1000
0010
0010
1000
0001
0100
0100
0001
1000
0100
0100
,
0010
0001
1000
1000
0010
0100
0001
0001
0010
0100
1000
1000
0100
0010
0001
0001
,
1001
0001
0000
0110
0010
0000
0000
0000
0000
0000
0000
0000
0000
0000
0000
0000
,
1010
0101
0000
0000
0000
0000
0000
0000
0000
0000
0000
0000
0000
0000
0000
0000
,
0011
0010
0000
1100
0100
0000
0000
0000
0000
0000
0000
0000
1100
0110
0000
0000
,
0011
0110
0000
0000
0000
0000
0000
0000
0000
0000
0000
0000
0000
0000
0000
0000
,
1100
0000
0000
0100
0000
0000
0000
0000
0000
0011
0000
0000
0010
0000
0000
0000
0000
0000
0000
0000
0000
0000
0000
0000
0000
0000
0000
0000
0000
0000
0000
0000
0000
0000
0000
0000
0011
0000
0000
0000
0001
0000
0000
0000
1000
0000
0000
0000
,
0110
0101
0000
0000
0000
0000
0000
0000
0000
0000
0000
0000
0000
0000
0000
0000
,
0011
0001
0000
1001
0001
0000
0000
0000
0000
0000
0000
0000
0101
1010
0000
0000
,
1010
0101
0000
0000
0000
0000
0000
0000
0001
0010
0000
0100
0000
1000
0100
0010
,
0001
0000
0010
0000
0100
0000
2000
0000
0000
0000
3100
0000
0010
0000
0001
0000
1000
0000
0010
0000
0100
0000
0000
0000
0010
0100
0010
1000
0001
0100
0001
1000
,
0001
0010
0100
2000
0000
3100
0010
0001
0022
0033
2020
3030
0220
0330
2002
3003
,
0010
0000
0100
0000
1000
0000
0200
0000
0000
0000
0310
0000
0001
0000
1000
0000
0010
0000
0100
0000
0010
0000
0000
0000
0100
0010
0100
0010
1000
0001
0100
0001
,
1000
0001
0010
0200
0000
1300
0100
0010
0220
0330
0022
0033
2002
3003
0220
0330
,
0010
0000
1000
0000
0001
0000
0200
0000
0000
0000
0301
0000
0010
0000
0100
0000
1000
0000
0100
0000
0010
0000
0000
0000
0100
0010
0100
0010
0001
1000
0001
0100
,
0001
1000
0010
0200
0000
0310
1000
0100
0220
0330
2002
3003
0220
0330
2020
3030
,
0100
0000
0001
0000
1000
0000
0002
0000
0000
0000
0013
0000
0100
0000
1000
0000
0100
0000
0010
0000
0001
0000
0000
0000
1000
0001
1000
0001
0100
0001
0010
0100
,
1000
0100
0010
0002
0000
1003
0001
0100
0202
0303
2002
3003
0220
0330
2020
3030
,
0010
1000
0010
0100
0010
0000
0000
0000
1000
0001
0100
0001
0100
0000
0000
0000
0001
0010
0001
0010
0100
0000
0000
0000
1000
0100
1000
0100
0010
0000
0000
0000
,
0001
1000
0001
0100
0001
0000
0000
0000
0000
0000
0000
0000
1000
0001
0010
0001
0010
0000
0000
0000
0100
1000
0100
0010
0100
0000
0000
0000
1000
0001
0100
0001
,
0100
0000
0000
0000
0001
1000
0001
0010
0100
0000
0000
0000
1000
0100
0010
0100
1000
0000
0000
0000
0000
0000
0000
0000
0100
1000
0100
0010
0001
0000
0000
0000
,
1000
0001
0100
0001
0010
0000
0000
0000
0100
0010
0100
1000
0100
0000
0000
0000
1000
0010
0100
0010
1000
0000
0000
0000
0001
0100
0001
0010
0100
0000
0000
0000
,
0000
0000
0000
0000
0010
0100
1000
0001
0100
0000
0000
0000
0001
1000
0001
0010
0100
0000
0000
0000
0010
0100
0010
0100
1000
0000
0000
0000
0001
0100
0001
1000
,
0001
0000
0000
0000
0010
0100
1000
0100
0010
0000
0000
0000
0000
0000
0000
0000
0001
0000
0010
0000
0100
0000
1000
0000
0100
0000
0010
0000
0001
0000
1000
0000
,
0010
0000
0100
0000
0010
0000
1000
0000
0001
0000
0010
0000
0100
1000
0100
0010
0001
0000
0000
0000
1000
0001
0100
0001
0010
0000
0000
0000
0100
1000
0010
0100
,
0010
0000
0000
0000
1000
0010
0100
0001
1000
0000
0000
0000
0001
0010
0001
1000
0100
0000
0010
0000
0001
0000
1000
0000
0010
0000
0100
0000
0010
0000
1000
0000
,
0001
0000
0100
0000
0001
0000
0010
0000
0100
0000
1000
0000
0100
1000
0100
0010
0001
0000
0000
0000
1000
0001
0100
0001
0010
0000
0000
0000
0100
1000
0010
0100
,
0010
0000
0000
0000
1000
0010
0100
0001
0010
0000
0000
0000
0001
1000
0001
0010
0100
0000
1000
0000
0010
0000
0100
0000
0001
0000
1000
0000
0001
0000
0010
0000
,
0100
0000
1000
0000
0100
0000
0010
0000
0001
0000
1000
0000
0001
0100
0010
1000
0010
0000
0000
0000
0100
0001
1000
0001
0010
0000
0000
0000
0100
1000
0100
0010
,
0001
0000
0000
0000
1000
0001
0100
0001
0010
0000
0000
0000
0100
0010
0100
1000
0001
0000
0100
0000
0001
0000
1000
0000
0001
0000
0010
0000
0100
0000
1000
0000
,
0010
0000
0100
0000
0010
0000
1000
0000
0001
0000
0100
0000
0001
0010
0100
1000
0100
0000
0000
0000
0010
0001
1000
0001
0100
0000
0000
0000
0001
0010
0100
1000
,
0100
0000
0000
0000
0010
0100
1000
0010
0200
0000
0000
0000
0000
0000
0300
0000
0110
0000
1000
0000
0010
0000
0100
0000
0101
0000
0001
0000
0010
0000
0100
0000
,
1100
0000
0010
0000
0001
0000
1000
0000
0101
0000
0001
0000
0010
0000
0100
0000
1000
0100
0010
0001
1000
0000
0000
0000
0001
0100
0010
1000
0010
0000
0000
0000
,
0100
0001
1000
0001
0010
0000
0000
0000
0100
1000
0100
0010
0001
0000
0000
0000
1000
0001
0100
0001
1000
0000
0000
0000
0000
0000
0000
0000
0000
0000
0000
0000
;
