#TITLE:The Final Hour;
#SUBTITLE:;
#ARTIST:Dimrain47;
#TITLETRANSLIT:;
#SUBTITLETRANSLIT:;
#ARTISTTRANSLIT:;
#CREDIT:;
#BANNER:;
#BACKGROUND:;
#LYRICSPATH:;
#CDTITLE:;
#MUSIC:The Final Hour.mp3;
#OFFSET:-0.040;
#SAMPLESTART:36.364;
#SAMPLELENGTH:12.000;
#SELECTABLE:YES;
#BPMS:0.000=165.000;
#STOPS:;
#BGCHANGES:;

//---------------dance-single - ----------------
#NOTES:
     dance-single:
     :
     Challenge:
     13:
     1.000,1.000,0.211,0.000,1.000: // measure 1
0000
0000
0000
0000
,  // measure 2
0000
0000
0000
0000
,  // measure 3
0000
0000
0000
0000
,  // measure 4
0000
0000
0000
0000
,  // measure 5
0000
0000
0000
0000
,  // measure 6
0000
0000
0000
0000
,  // measure 7
1000
0100
1000
0000
0100
0010
0100
0000
0010
0001
0010
0000
0100
1000
0010
0100
,  // measure 8
0010
0000
1000
0000
0100
0010
0001
0000
0010
0100
1000
0000
0010
0100
0001
0100
,  // measure 9
0010
0000
1000
0000
0001
1000
0001
0000
0010
0100
0010
0000
0100
1000
0100
0010
,  // measure 10
0100
0010
0001
0000
0010
0100
1000
0000
0100
1000
0001
0000
0100
0001
1000
0001
,  // measure 11
1000
0000
0000
1100
0000
0000
0110
0000
0000
0000
0100
0000
0010
0000
0001
0000
,  // measure 12
0110
0000
0000
1010
0000
0000
1001
0000
0000
0000
0010
0100
1000
0100
0010
0001
,  // measure 13
0010
0001
0100
0001
0100
0001
1000
0001
1000
0010
1000
0010
1000
0100
1000
0100
,  // measure 14
0010
0001
0010
0100
1000
0010
0100
0001
0100
0010
1000
0100
1000
0100
0010
0100
,  // measure 15
0010
0001
1000
0001
1000
0100
0010
0100
0010
0001
0010
0001
0010
0100
1000
0010
,  // measure 16
0100
0010
1000
0100
0010
0001
0100
0010
0100
0001
0010
0100
1000
0100
0010
0001
,  // measure 17
0100
0010
1000
0010
0100
0001
0010
0001
0100
0001
1000
0010
0100
0001
0100
0010
,  // measure 18
1000
0100
1000
0010
1000
0001
1000
0100
0010
0100
1000
0100
0010
0001
0010
0100
,  // measure 19
0010
0001
0100
0010
1000
0010
0100
0001
0010
0001
0010
0100
0010
0100
0010
0001
,  // measure 20
0010
0001
0010
0100
1000
0100
1000
0100
0010
0100
0010
0100
1000
0100
1000
0010
,  // measure 21
0100
0001
0100
0010
1000
0100
1000
0100
0010
0100
0010
0001
0010
0001
0100
0001
,  // measure 22
0100
0010
1000
0010
1000
0010
0100
0001
0100
0001
0010
0001
0010
0100
1000
0100
,  // measure 23
1100
0000
0010
0000
0001
0000
0010
0000
1001
0000
0100
0000
0010
0001
0010
0001
,  // measure 24
0010
0000
0100
0000
1000
0001
0100
0000
0001
1000
0100
0000
1000
0001
0010
0001
,  // measure 25
1000
0010
0100
0000
0001
0100
0010
0000
1000
0001
1000
0000
0100
0010
0100
0010
,  // measure 26
0100
1000
0001
0000
0010
0100
1000
0000
0100
0010
0001
0000
0010
0100
0010
0100
,  // measure 27
0010
0001
0010
0001
0100
0001
1000
0001
0100
0001
0010
0100
1000
0100
1000
0010
,  // measure 28
1000
0001
1000
0010
1000
0100
0010
0001
0010
0100
1000
0010
0100
0001
0100
0010
,  // measure 29
1000
0100
1000
0100
0010
0100
0010
0001
0010
0001
0100
0001
0100
0010
1000
0010
,  // measure 30
1000
0010
0100
0001
0100
0001
1000
0001
1000
0010
1000
0010
1000
0100
1000
0100
,  // measure 31
0010
0001
0010
0100
1000
0010
1000
0100
0010
0001
0100
0001
0010
0100
1000
0100
,  // measure 32
0010
0000
0001
0000
0100
0010
1000
0000
0010
0100
0001
0000
0010
0100
0010
0100
,  // measure 33
0010
0000
0001
0000
0010
0100
1000
0000
0100
0010
0001
0000
0010
0100
0010
0100
,  // measure 34
1000
0100
1000
0000
0010
1000
0010
0000
1000
0001
1000
0000
0010
1000
0100
1000
,  // measure 35
0100
0000
0010
0000
0001
1000
0001
0000
0010
0100
0010
0000
0001
0010
0100
1000
,  // measure 36
0100
0010
0001
0000
0100
0010
1000
0000
0010
0100
0001
0000
0010
0100
0010
0100
,  // measure 37
0010
0000
0001
0000
0010
0100
0010
0000
1000
0001
1000
0000
0100
0010
0100
0010
,  // measure 38
0100
1000
0010
0000
0100
0001
0100
0000
0010
1000
0100
0000
0010
0001
0010
0100
,  // measure 39
0010
0100
0010
0000
1000
0100
0010
0000
0001
0010
0100
0000
1000
0000
0100
0000
,  // measure 40
0011
0000
0000
0110
0000
0000
1100
0000
0000
0000
0010
0001
0010
0000
0000
0000
,  // measure 41
1010
0000
0000
0110
0000
0000
0101
0000
0000
0000
0010
1000
0010
0000
0000
0000
,  // measure 42
1100
0000
0000
0110
0000
0000
0011
0000
0000
0000
0001
0000
0010
0000
0001
0000
,  // measure 43
1100
0000
0000
0110
0000
0000
0011
0000
0000
0000
0001
0000
0010
0000
0100
0000
,  // measure 44
0010
0000
0001
1000
0001
0000
1000
0001
0010
0000
0100
0010
0100
0010
0001
0010
,  // measure 45
0100
1000
0010
0100
0001
0100
0010
1000
0100
0000
1000
0000
0100
0000
0010
0000
,  // measure 46
0001
0100
0010
1000
0010
0100
0001
0000
0010
0100
0010
0100
0010
0001
0010
0001
,  // measure 47
0010
0100
1000
0000
0100
0010
0100
0000
0010
0001
0010
0000
0100
1000
0100
1000
,  // measure 48
0100
0000
MMMM
0000
,  // measure 49
0010
0001
0010
0001
0010
0100
0010
0100
1000
0100
1000
0010
1000
0010
0100
0001
,  // measure 50
0100
0001
0100
0010
1000
0010
1000
0001
1000
0001
0010
0100
0010
0100
1000
0100
,  // measure 51
0010
0001
0010
0100
1000
0010
0100
0010
1000
0100
0010
0001
0100
0010
0100
0001
,  // measure 52
0010
0100
1000
0010
0100
0001
0100
0010
1000
0100
0010
0100
1000
0100
0010
0001
,  // measure 53
0100
0010
1000
0010
0100
0001
0010
0100
0010
0001
0010
0100
1000
0100
1000
0010
,  // measure 54
0100
0001
0100
0010
1000
0100
0010
0001
0100
0010
0100
0001
0010
0100
1000
0010
,  // measure 55
0100
0010
1000
0100
0010
0001
0010
0100
1000
0100
1000
0100
0010
0100
0010
0001
,  // measure 56
0010
0001
0100
0001
0100
0010
1000
0010
1000
0010
0100
0001
0100
0001
0010
0001
,  // measure 57
0010
0100
1000
0100
0010
0100
0010
0001
,  // measure 58
0010
0100
1000
0100
0010
0100
0010
0001
0010
0100
0010
0100
1000
0010
0100
0010
,  // measure 59
1000
0100
0010
0001
0100
0010
0100
0001
0010
0100
1000
0100
0010
0001
0100
0001
,  // measure 60
0010
0100
1000
0010
1000
0100
0010
0001
0100
0010
1000
0010
0100
0001
0010
0001
,  // measure 61
0010
0100
0010
0100
1000
0100
1000
0100
0010
0100
0010
0001
0010
0001
0100
0001
,  // measure 62
0100
0010
0100
0010
1000
0010
1000
0010
0100
0010
0100
0001
0100
0001
0010
0001
,  // measure 63
0010
0001
1000
0001
1000
0100
0010
0100
1000
0001
1000
0001
0010
0100
0010
0001
,  // measure 64
1000
0001
1000
0001
0010
0100
0010
0100
0010
0001
0010
0001
0010
0100
1000
0100
,  // measure 65
1000
0100
0010
0001
0010
0100
1000
0010
0100
0001
0100
0010
1000
0100
0010
0100
,  // measure 66
0110
0000
0000
0000
;

//---------------dance-single - Copied from----------------
#NOTES:
     dance-single:
     Copied from:
     Easy:
     4:
     0.335,0.343,0.063,0.042,0.000: // measure 1
0000
0000
0000
0000
,  // measure 2
2002
0000
0000
0000
,  // measure 3
0000
0000
0000
0000
,  // measure 4
0000
0000
0000
0000
,  // measure 5
0000
0000
0000
0000
,  // measure 6
0000
0000
0000
3003
,  // measure 7
1000
0001
1000
0001
,  // measure 8
0001
1000
0010
0100
,  // measure 9
0100
0001
1000
0001
,  // measure 10
0001
1000
0001
1000
,  // measure 11
0020
0000
0000
0030
0000
0000
0100
0000
,  // measure 12
0002
0000
0000
0003
0000
0000
1000
0000
,  // measure 13
0100
0001
0100
1000
,  // measure 14
0010
0001
0010
1000
,  // measure 15
0100
0010
0001
1000
,  // measure 16
0000
0100
0010
1000
,  // measure 17
0000
0100
0010
0001
,  // measure 18
0000
1000
0001
1001
,  // measure 19
1001
1000
0010
0100
,  // measure 20
0000
0001
0100
0010
,  // measure 21
0000
1000
0100
0001
,  // measure 22
0000
1000
0001
1000
,  // measure 23
0010
0100
0001
0100
,  // measure 24
0010
1000
0100
0010
,  // measure 25
0100
1000
0001
0100
,  // measure 26
0010
1000
0100
0010
,  // measure 27
0100
1000
0001
0100
,  // measure 28
0010
1000
0010
1000
,  // measure 29
0100
0010
0100
1000
,  // measure 30
0001
0100
0010
1000
,  // measure 31
0100
0010
0100
1000
,  // measure 32
0001
0100
0010
1000
,  // measure 33
0001
0010
0001
0100
,  // measure 34
1000
0100
0001
0100
,  // measure 35
0010
1000
0100
0010
,  // measure 36
0100
0010
0001
1000
,  // measure 37
0010
0100
0001
0100
,  // measure 38
0010
1000
0100
0010
,  // measure 39
0001
1000
0001
1000
,  // measure 40
0001
0000
0000
0001
0000
0000
1000
0000
,  // measure 41
0010
0000
0000
0010
0000
0000
0100
0000
,  // measure 42
0001
0000
0000
1000
,  // measure 43
0001
0000
0000
0100
,  // measure 44
0010
1000
0100
0001
,  // measure 45
0100
1000
0010
0001
,  // measure 46
0010
1000
0001
0100
,  // measure 47
0001
0100
0001
1000
,  // measure 48
1010
0000
0000
0000
,  // measure 49
0001
0100
0010
0000
,  // measure 50
1000
0100
0010
0000
,  // measure 51
0001
0100
0010
0000
,  // measure 52
1000
0100
0001
0000
,  // measure 53
0001
0100
1000
0000
,  // measure 54
0010
0100
0001
0000
,  // measure 55
1000
0100
0010
0000
,  // measure 56
0001
0100
0010
1000
,  // measure 57
0001
0100
0001
0100
,  // measure 58
0010
1000
0010
1000
,  // measure 59
0001
0100
0001
0100
,  // measure 60
0010
1000
0010
1000
,  // measure 61
0100
0010
0100
0010
,  // measure 62
0001
0100
0010
1000
,  // measure 63
0001
1000
0001
1000
,  // measure 64
1001
0001
0100
0010
,  // measure 65
1000
0100
0010
0001
,  // measure 66
1001
0000
0000
0000
;

//---------------dance-single - Copied from Copied f----------------
#NOTES:
     dance-single:
     Copied from Copied f:
     Hard:
     9:
     0.709,0.792,0.116,0.021,0.190: // measure 1
0000
0000
0000
0000
,  // measure 2
0000
0000
0000
0000
,  // measure 3
0000
0000
0000
0000
,  // measure 4
0000
0000
0000
0000
,  // measure 5
0000
0000
0000
0000
,  // measure 6
0000
0000
0000
0000
,  // measure 7
1100
0000
0110
0000
0011
0000
0100
1000
,  // measure 8
0100
0000
0011
0000
0101
0000
1010
0100
,  // measure 9
0001
0100
0101
0000
1001
0000
0100
0010
,  // measure 10
0100
1000
0100
0010
0001
0010
0100
1000
,  // measure 11
0010
0000
0000
0100
0000
0000
0001
0000
0000
0000
0100
0000
0010
0000
1000
0000
,  // measure 12
0100
0000
0000
0010
0000
0000
0100
0000
0000
0000
1000
0000
0010
0000
0001
0000
,  // measure 13
0010
1000
0001
0010
1000
0010
0001
0100
,  // measure 14
1000
0100
0001
1000
0100
0001
0100
1000
,  // measure 15
0010
0100
0001
0100
0010
1000
0100
1000
,  // measure 16
0000
0100
0010
0100
0010
0100
0000
1001
,  // measure 17
0000
0010
0100
1000
0010
0100
0010
1000
,  // measure 18
0000
0100
0010
0001
0100
0010
0100
0001
,  // measure 19
0000
0010
0100
1000
0010
1000
0010
0100
,  // measure 20
0000
0001
0100
0001
0100
0010
1000
0010
,  // measure 21
0000
1000
0001
1000
0100
0010
0100
0010
,  // measure 22
0000
0001
0010
0001
0010
0100
0010
0100
,  // measure 23
1000
0010
0100
0001
0100
0010
1000
0100
,  // measure 24
0010
0001
0100
1000
0100
0010
0100
0001
,  // measure 25
0010
1000
0010
0100
0010
0001
0100
1000
,  // measure 26
0100
0001
1000
0100
0001
0100
1000
0010
,  // measure 27
0001
0010
1000
0001
0010
1000
0010
0001
,  // measure 28
0100
1000
0100
0010
1000
0010
0001
0010
,  // measure 29
0100
0001
0010
1000
0010
0100
1000
0100
,  // measure 30
0001
0100
0010
0001
0100
1000
0100
0001
,  // measure 31
0010
0000
1000
0000
0010
0000
0001
0000
0100
0000
0010
0000
1000
0010
0100
0001
,  // measure 32
0010
0000
0100
0000
0010
0100
0010
0000
0001
1000
0001
0000
0010
0000
0100
0000
,  // measure 33
1000
0000
0100
0000
0010
0001
0010
0000
0100
1000
0100
0000
1000
0000
0100
0000
,  // measure 34
0001
0000
0100
0000
1000
0010
0100
0000
0001
0100
0010
0000
1000
0000
0001
0000
,  // measure 35
1000
0000
0100
0000
0010
0001
0010
0000
0100
0010
0100
0000
1000
0000
0010
0000
,  // measure 36
0001
0000
0010
0000
1000
0100
1000
0000
0100
0010
0100
0000
0010
0000
0001
0000
,  // measure 37
0100
0000
0010
0000
0100
0001
0010
0000
0100
1000
0100
0000
0010
0000
0100
0000
,  // measure 38
0010
0000
0100
0000
1000
0001
1000
0000
0100
0010
0100
0000
0000
0000
0010
0000
,  // measure 39
0001
0100
0010
1000
0010
0100
0001
0010
,  // measure 40
0001
0000
0000
0010
0000
0000
0100
0000
0000
0000
1000
0001
1000
0000
0000
0000
,  // measure 41
0100
0000
0000
0010
0000
0000
0100
0000
0000
0000
0010
0001
0010
0000
0000
0000
,  // measure 42
0100
0000
0000
1000
0000
0000
0100
0000
0000
0000
0010
0000
0001
0000
0010
0000
,  // measure 43
0001
0000
0000
1000
0000
0000
0001
0000
0000
0000
0010
0000
0100
0000
0010
0000
,  // measure 44
0100
0000
1000
0001
1000
0000
0100
0010
0100
0000
0010
0000
0001
0000
0010
0000
,  // measure 45
0100
0010
0100
1000
0001
1000
0100
0010
,  // measure 46
0001
1000
0001
1000
0000
0100
0010
0000
0001
0010
0001
0010
0100
1000
0100
1000
,  // measure 47
0100
0010
0100
0000
0010
0000
0001
0000
1000
0000
0001
0000
0010
0000
0100
0000
,  // measure 48
0110
0000
0000
0000
,  // measure 49
1000
0001
1000
0100
0010
0001
0010
0100
,  // measure 50
0000
1000
0010
0100
0001
0100
0010
1000
,  // measure 51
0000
0100
1000
0010
1000
0001
1000
0010
,  // measure 52
0000
1000
0100
0010
0001
0100
0001
1000
,  // measure 53
0000
0001
0100
0001
0010
0100
0010
0100
,  // measure 54
0000
1000
0001
1000
0001
0010
0100
0010
,  // measure 55
0000
0100
1000
0100
0010
0100
0010
0001
,  // measure 56
0000
0100
0010
1000
0010
0100
0001
0010
,  // measure 57
0100
0000
1000
0000
0100
0000
0010
0000
0001
0000
1000
0000
0001
0010
0001
0010
,  // measure 58
0001
0100
1000
0100
0001
1000
0100
0001
,  // measure 59
0100
1000
0010
0001
0010
1000
0001
0010
,  // measure 60
1000
0010
0001
0100
1000
0100
0010
0100
,  // measure 61
0001
0010
1000
0010
0100
0010
0001
0100
,  // measure 62
1000
0100
0010
1000
0010
0001
0010
0100
,  // measure 63
0001
0010
1000
0010
0100
1000
0100
0001
,  // measure 64
0100
0010
0001
0100
1000
0100
0001
0010
,  // measure 65
1000
0010
0001
1000
0001
1000
0100
0010
,  // measure 66
0220
0330
0000
0000
;

//---------------dance-single - Copied from Copied f----------------
#NOTES:
     dance-single:
     Copied from Copied f:
     Medium:
     8:
     0.576,0.861,0.042,0.095,0.116: // measure 1
0000
0000
0000
0000
,  // measure 2
2002
0000
0000
0000
,  // measure 3
0000
0000
0000
0000
,  // measure 4
0000
0000
0000
0000
,  // measure 5
0000
0000
0000
0000
,  // measure 6
0000
0000
0000
3003
,  // measure 7
1000
0000
0001
0000
1000
0000
0001
0100
,  // measure 8
0001
0000
1000
0000
0010
0000
0100
0010
,  // measure 9
0100
0000
0001
0000
1000
0000
0001
0100
,  // measure 10
0001
1000
0001
1000
,  // measure 11
1000
0000
0000
0100
0000
0000
1000
0000
0000
0000
0100
0000
0010
0000
0001
0000
,  // measure 12
0100
0000
0000
0010
0000
0000
1000
0000
0000
0000
1000
0000
0010
0000
0000
0000
,  // measure 13
1000
0100
1000
0000
0001
0010
0001
0000
,  // measure 14
1000
0100
1000
0000
0001
0010
0001
0000
,  // measure 15
0000
0100
0001
0100
0010
1000
0100
1000
,  // measure 16
0000
0100
0010
0100
0010
0001
0000
1000
,  // measure 17
0000
0001
0010
0001
0010
0100
0010
0001
,  // measure 18
0000
0100
1000
0100
1000
0100
1000
0100
,  // measure 19
0000
0010
0001
0010
0001
0010
0001
0010
,  // measure 20
0000
0001
0100
0001
0100
0001
0100
0001
,  // measure 21
0000
1000
0001
1000
0100
0010
0100
0010
,  // measure 22
0000
0001
0010
0001
0010
0100
0010
0100
,  // measure 23
2000
3020
0230
0302
,  // measure 24
1003
0100
1000
0000
0001
0010
0001
0000
,  // measure 25
1000
0001
1000
0000
0001
0100
0001
0000
,  // measure 26
1000
0010
1000
0000
0001
0100
0001
0000
,  // measure 27
1000
0100
0001
0000
0001
0100
1000
0000
,  // measure 28
1000
0010
0001
0000
0001
0010
0100
0000
,  // measure 29
0001
0100
0010
0000
1000
0100
1000
0000
,  // measure 30
0001
0100
0001
0000
1000
0001
1000
0000
,  // measure 31
0001
0100
0001
0000
1000
0000
1000
0000
,  // measure 32
1001
0000
0001
0000
0001
0000
0100
0001
,  // measure 33
1000
0000
0010
0000
0100
0000
0001
1000
,  // measure 34
0010
0000
0100
0000
0001
0000
1000
0100
,  // measure 35
0001
0000
0100
0000
1000
0000
0001
0100
,  // measure 36
1000
0000
0100
0000
0001
0000
0100
1000
,  // measure 37
0100
0000
0001
0000
0010
0000
1000
0010
,  // measure 38
0001
0000
0100
0000
0010
0000
1000
0010
,  // measure 39
1000
0000
0010
1000
0010
0100
0001
0010
,  // measure 40
0001
0000
0000
0010
0000
0000
0100
0000
0000
0000
1000
0000
1000
0000
0000
0000
,  // measure 41
0100
0000
0000
0010
0000
0000
0100
0000
0000
0000
0010
0000
0010
0000
0000
0000
,  // measure 42
0100
0000
0000
1000
0000
0000
0100
0000
0000
0000
0010
0000
0001
0000
0010
0000
,  // measure 43
0001
0000
0000
1000
0000
0000
0001
0000
0000
0000
0010
0000
0100
0000
0010
0000
,  // measure 44
0100
0000
1000
0000
0100
0010
0001
0000
,  // measure 45
1000
0100
1000
0000
0001
1000
0001
0000
,  // measure 46
2000
0000
3001
0010
,  // measure 47
0001
1000
0001
0001
1000
0001
0010
0100
,  // measure 48
1000
0000
0000
0000
,  // measure 49
1000
0001
1000
0100
0010
0001
0010
0100
,  // measure 50
0000
1000
0010
0100
0001
0100
0010
1000
,  // measure 51
0000
0100
1000
0010
1000
0001
1000
0010
,  // measure 52
0000
1000
0100
0010
0001
0100
0001
1000
,  // measure 53
0000
0001
0100
0001
0010
0100
0010
0100
,  // measure 54
0000
1000
0001
1000
0001
0010
0100
0010
,  // measure 55
0000
0100
1000
0100
0010
0100
0010
0001
,  // measure 56
0000
0100
0010
1000
0010
0100
0001
0010
,  // measure 57
0100
1000
0100
0010
0001
1000
0001
0001
,  // measure 58
0001
1000
0001
1000
0001
1000
0001
1000
0001
1000
0001
1000
0001
1000
0001
1000
,  // measure 59
0001
1000
0001
1000
0001
1000
0001
1000
0001
1000
0001
1000
0001
1000
0001
1000
,  // measure 60
0001
0010
0100
0000
1000
0100
0010
0000
,  // measure 61
0001
0100
0010
0000
1000
0010
0100
0000
,  // measure 62
0001
0100
1000
0000
1000
0100
0001
0000
,  // measure 63
0001
0010
1000
0000
1000
0010
0001
0000
,  // measure 64
0100
0010
1000
0000
0010
0100
0001
0000
,  // measure 65
0100
0010
1000
0000
0001
0000
1001
0000
,  // measure 66
0220
0330
0000
0000
;
