#VERSION:0.83;
#TITLE:Now and Forever;
#SUBTITLE:;
#ARTIST:StripE vs MUNETICA feat. ARISA;
#TITLETRANSLIT:;
#SUBTITLETRANSLIT:;
#ARTISTTRANSLIT:;
#GENRE:ENERGETIC TRANCE;
#ORIGIN:;
#CREDIT:;
#BANNER:[Right on Time] - Now and Forever.png;
#BACKGROUND:[Right on Time] - Now and Forever-bg.png;
#PREVIEWVID:;
#JACKET:[Right on Time] - Now and Forever-jacket.png;
#CDIMAGE:;
#DISCIMAGE:;
#LYRICSPATH:;
#CDTITLE:cdtitle.png;
#MUSIC:[Right on Time] - Now and Forever.ogg;
#OFFSET:0.060000;
#SAMPLESTART:96.876419;
#SAMPLELENGTH:13.173424;
#SELECTABLE:YES;
#BPMS:0.000=146.000;
#STOPS:;
#DELAYS:;
#WARPS:;
#TIMESIGNATURES:0.000=4=4;
#TICKCOUNTS:0.000=4;
#COMBOS:0.000=1;
#SPEEDS:0.000=1.000=0.000=0;
#SCROLLS:0.000=1.000;
#FAKES:;
#LABELS:0.000=Song Start;
#BGCHANGES:;
#KEYSOUNDS:;
#ATTACKS:
;

//---------------dance-single - ----------------
#NOTEDATA:;
#CHARTNAME:;
#STEPSTYPE:dance-single;
#DESCRIPTION:;
#CHARTSTYLE:;
#DIFFICULTY:Hard;
#METER:10;
#RADARVALUES:0.597397,0.908657,0.171961,0.187594,0.801182,535.000000,513.000000,22.000000,24.000000,0.000000,0.000000,0.000000,0.000000,0.000000,0.597397,0.908657,0.171961,0.187594,0.801182,535.000000,513.000000,22.000000,24.000000,0.000000,0.000000,0.000000,0.000000,0.000000;
#CREDIT:;
#NOTES:
0000
0000
0000
0000
,
0000
0000
0000
0000
,
0000
0000
0000
0000
,
1000
0001
1000
0001
,
1000
0000
0000
0000
0000
0000
0010
0000
0000
0100
0000
0000
0010
0000
0000
0100
0000
0000
0000
0000
0000
0001
0000
0000
0000
0000
0000
0000
0000
0000
0010
0000
0000
0000
0000
0000
0001
0000
0000
0000
0100
0000
0000
0000
0001
0000
0000
0000
,
1000
0001
1000
0001
,
1000
0000
0000
0000
0000
0000
0100
0000
0000
0010
0000
0000
0100
0000
0000
0010
0000
0000
0100
0000
0000
1000
0000
0000
0001
0000
0000
0000
0100
0000
0000
0000
0001
0000
0000
0000
1000
0000
0000
0000
0100
0000
0000
0000
1000
0000
0000
0000
,
0010
0110
1000
1010
,
0001
0000
0000
0000
0000
0000
1000
0000
0000
0010
0000
0000
1000
0000
0000
0010
0000
0000
0000
0000
0000
0100
0000
0000
0000
0000
0000
0000
0000
0000
0001
0000
0000
0000
0000
0000
0010
0000
0000
0000
0100
0000
0000
0000
0010
0000
0000
0000
,
0100
1100
1000
1001
,
0001
0000
0000
0000
0000
0000
0100
0000
0000
0010
0000
0000
0100
0000
0000
0010
0000
0000
1000
0000
0000
0100
0000
0000
0020
0000
0000
0000
0000
0000
0000
0000
0031
0000
0000
0000
1000
0000
0000
0000
0100
0000
0000
0000
1000
0000
0000
0000
,
0001
0000
0000
0100
0000
0000
0010
0000
0000
0000
1000
0100
0000
1000
0001
1000
,
0000
0000
0000
0000
0000
0000
0001
0000
0000
0100
0000
0000
0001
0000
0000
0100
0000
0000
0000
0000
0000
0010
0000
0000
0000
0000
0000
0000
0000
0000
1000
0000
0000
0000
0000
0000
0100
0000
0000
0000
0010
0000
0000
0000
0100
0000
0000
0000
,
0010
0000
0000
0001
0000
0000
1000
0000
0000
0000
0010
0100
0000
0001
1000
0001
,
0000
0000
0000
0000
0000
0000
1000
0000
0000
0100
0000
0000
1000
0000
0000
0100
0000
0000
0010
0000
0000
0001
0000
0000
1000
0000
0000
0000
0010
0000
0000
0000
1000
0000
0000
0000
0001
0000
0000
0000
0010
0000
0000
0000
0001
0000
0000
0000
,
0200
0010
0001
1300
,
0020
0100
1000
0031
,
2000
0010
0100
3001
,
1001
0000
0000
0000
0000
0001
1000
0001
1000
0000
0000
0100
0000
0010
0000
0001
,
1000
0000
0010
0100
0000
0010
0000
1000
0100
0000
0010
0001
0000
0100
0010
0100
,
0000
0000
0001
0000
0000
0010
0000
0000
0100
0000
1000
0010
0000
1000
0000
0001
,
0010
0000
0001
1000
0000
0100
1000
0001
1000
0000
0000
1010
0000
0000
1001
0000
,
0001
0000
0000
0000
0000
0010
0100
0010
0100
1000
0001
1000
0000
0001
0000
1000
,
0010
0000
1000
0100
0000
1000
0000
0001
0100
0000
0001
0010
0000
0001
1000
0001
,
0000
0000
1000
0000
0000
0100
0000
0000
0010
0000
0001
0100
0000
0010
0000
1000
,
0001
0000
0010
0000
0001
0000
1000
0000
0010
0000
1000
0100
1000
0100
0010
0001
,
0020
0000
0000
0000
0000
0000
0031
1000
0001
1000
0001
0000
1001
0000
1000
0000
,
0200
0000
0000
0000
,
0320
0000
0000
0000
,
0032
0000
0000
0103
,
1001
0000
1000
0010
1000
0000
0001
0100
0001
0000
1000
0100
1000
0000
0001
0010
,
0002
0000
0000
0000
,
0203
0000
0000
0000
,
0320
0000
0000
0030
,
1100
0101
0011
1010
,
1001
0000
0000
0000
0000
1000
0100
1000
,
0001
0000
0010
0100
0000
0010
0000
0002
,
0000
0000
0000
0000
0000
1003
0000
0010
,
0100
0000
0010
1000
0000
0100
0000
0020
,
0000
0000
0030
0000
0000
0001
1000
0002
,
0000
0000
0103
0010
0000
1000
0000
0200
,
0000
0000
0000
0000
,
2300
0000
0002
3003
,
1001
0000
0000
0000
0000
0001
1000
0001
,
0010
0000
0100
1000
0000
0010
0000
0200
,
0000
0000
0000
0310
0000
1000
0000
0200
,
0000
0000
0000
0000
0000
0310
0000
0001
,
2000
0000
0000
3020
0000
0000
0000
0000
,
0030
0000
0000
1000
0000
0100
0000
0010
,
0002
0000
0000
0203
0000
0000
0000
0300
,
0001
1000
0010
1000
0100
0010
0100
0010
0001
0100
0001
0100
0010
1000
0010
1000
,
0100
0010
0000
0000
0110
0000
0001
1000
0001
0000
0000
1010
0000
0000
0101
0000
,
0100
0000
0000
0000
0000
0000
0000
0000
0000
0000
0001
0000
0001
0000
1000
0100
,
1000
0000
0000
0001
0000
0100
0010
0000
1010
0000
0000
1000
0000
0100
0000
0010
,
0001
0000
0000
1000
0000
0010
0000
0110
0000
0000
0100
0000
0001
0010
0001
0010
,
0001
0000
1000
0000
0001
0100
1000
0100
0001
0000
0100
0000
0001
0010
1000
0010
,
0001
0000
0010
0000
0001
0100
1000
0100
0001
0000
0100
0000
0001
1000
0100
1000
,
0001
1000
0010
0001
0000
0001
0010
1000
0000
1000
0100
0001
0000
0001
0100
1000
,
0020
0000
0000
0000
0000
0000
0000
0000
0130
0001
0010
0001
1000
0010
1000
0010
,
0100
0001
0000
0000
0010
0000
0100
1000
0100
0000
0000
1000
0000
0000
0010
0000
,
0100
0000
0001
0000
0010
0100
0010
0000
0001
0000
0000
1000
0000
0010
0100
0010
,
1000
0000
0000
0100
0000
1000
0001
0000
0100
0000
0000
0010
0000
1000
0000
0001
,
0010
0000
0000
0001
0000
1000
0000
0100
0000
0000
0010
0000
0001
0100
0001
0100
,
0010
1000
0000
0000
0100
0000
1000
0010
1000
0000
0000
0001
0000
0000
0010
0000
,
0100
0010
0100
0010
0000
0001
1000
0000
0010
0000
0000
0100
0000
0010
1000
0010
,
1000
0000
0000
0100
0000
1000
0001
0000
0101
0000
0000
0100
0000
0010
0000
1000
,
0100
0000
0000
0010
0000
0100
0000
1100
0000
0000
0001
0000
0100
0000
0010
0100
,
0010
1000
0000
0000
0100
0000
0010
0001
0010
0000
0000
0001
0000
0000
0100
0000
,
0010
0000
0100
0000
0001
1000
0001
0000
0010
0000
0000
0001
0000
1000
0100
1000
,
0010
0000
0000
0100
0000
0001
0010
0000
0001
0000
0000
1000
0000
0010
0000
0100
,
0010
0000
0000
1000
0000
0001
0000
0010
0000
0000
0001
0000
1000
0100
1000
0001
,
1000
0000
0010
0000
0100
0000
0001
0010
0001
0000
0100
0000
0010
0000
1000
0100
,
1000
0000
0001
0100
0001
0100
0010
1000
0100
0000
1000
0010
1000
0001
1000
0001
,
0010
0100
0010
0001
0000
1000
0100
0001
0000
0001
0100
1000
0010
1000
0010
0100
,
0001
0010
0001
0010
0100
1000
0100
1000
0010
0100
0010
0100
0001
1000
0001
1000
,
0100
0000
0000
0000
;

//---------------dance-single - ----------------
#NOTEDATA:;
#CHARTNAME:;
#STEPSTYPE:dance-single;
#DESCRIPTION:;
#CHARTSTYLE:;
#DIFFICULTY:Medium;
#METER:7;
#RADARVALUES:0.408686,0.498296,0.046898,0.140695,0.254033,366.000000,360.000000,6.000000,18.000000,0.000000,0.000000,0.000000,0.000000,0.000000,0.408686,0.498296,0.046898,0.140695,0.254033,366.000000,360.000000,6.000000,18.000000,0.000000,0.000000,0.000000,0.000000,0.000000;
#CREDIT:;
#NOTES:
0000
0000
0000
0000
,
0000
0000
0000
0000
,
0000
0000
0000
0000
,
1000
0001
1000
0001
,
1000
0000
0100
0000
0010
0000
0000
0010
0000
0000
0100
0000
1000
0000
0001
0000
,
1000
0001
1000
0001
,
1000
0010
0100
0010
1000
0100
0010
0001
,
0100
0001
1000
0010
,
1000
0000
0001
0000
0100
0000
0000
0100
0000
0000
0001
0000
0010
0000
0100
0000
,
1000
0010
0100
0001
,
0010
0000
0100
0000
0010
0000
0000
0010
0000
0000
0001
0000
1000
0000
0010
0000
,
1000
0000
0000
1000
0000
0000
1000
0000
0000
0000
0001
0000
0100
0000
0001
0000
,
0010
0000
0001
0000
1000
0000
0000
1000
0000
0000
0100
0000
0010
0000
0001
0000
,
0100
0000
0000
0100
0000
0000
0100
0000
0000
0000
0010
0000
1000
0000
0010
0000
,
0100
0000
0001
0000
0010
0000
0000
0010
0000
0000
0001
0000
1000
0000
0100
0000
,
1000
0010
0001
0010
,
1000
0100
0001
0100
,
1000
0010
0100
0001
,
0010
0000
0000
0000
,
1001
0000
0001
1000
0100
0000
1000
0001
,
0100
0000
0001
0010
0100
0010
0001
1000
,
0010
0000
0000
0000
1000
0000
0100
0000
0010
0000
0000
0010
0000
0000
0010
0000
,
0001
0000
0000
0000
0000
0000
0100
0000
0010
0000
0000
1000
0000
0000
0001
0000
,
0010
0001
1000
0000
0001
0100
0010
0000
,
1000
0100
0010
0000
0100
1000
0010
0010
,
1000
0100
0010
0001
0100
0010
1000
0001
,
2000
0000
0000
0000
3000
0001
0100
0000
,
0020
0000
0000
0000
,
2030
0000
0000
0000
,
3200
0000
0000
0310
,
0001
0000
0000
0001
1000
0000
0000
1000
0001
0000
0000
0001
1000
0000
0000
1000
,
0002
0000
0000
0000
,
0203
0000
0000
0000
,
0320
0000
0000
0000
,
1030
1100
0101
0011
,
1001
0000
0000
0000
0000
0001
0100
0001
,
0100
0000
0010
1000
0000
0100
0000
0020
,
0000
0000
0000
0000
0000
0031
0000
0100
,
0010
0000
1000
0001
0000
0010
0000
0200
,
0000
0300
0000
0000
0000
1000
0100
2000
,
0000
0000
3001
0100
0000
0010
0000
0200
,
0000
0000
0000
0000
,
0000
0000
0000
0300
,
1001
0000
0000
0000
0000
1000
0100
0010
,
0001
0000
0100
0010
0000
1000
0000
0002
,
0000
0000
0000
0103
0000
0010
0000
2000
,
0000
0000
0000
0000
0000
3100
0000
0010
,
0002
0000
0000
0203
0000
0000
0000
0300
,
0000
0000
0000
0010
0000
1000
0000
0001
,
2000
0000
0000
3200
0000
0000
0000
0000
,
0310
0001
0010
1000
0010
0001
0100
0010
,
1000
0001
0000
0000
1000
0000
0100
0000
0010
0000
0000
0001
0000
0000
0100
0000
,
0010
0000
0000
0000
0000
1000
1000
0001
,
1000
0000
0000
0010
0000
0100
0000
0000
0001
0000
0000
0010
0000
0100
0000
0000
,
1000
0000
0000
0001
0000
0100
0000
0001
0000
0000
1000
0000
0100
0000
0010
0000
,
0000
0001
0100
0010
0000
1000
0010
0100
,
0000
0001
0010
0100
0000
1000
0001
1000
,
0001
0000
0000
0001
1000
0000
0000
1000
0100
0000
0000
0100
0010
0000
0000
0010
,
0002
0000
0000
0000
1003
0100
0001
0100
,
1000
0010
0000
0000
0100
0000
0001
0000
0010
0000
0000
0001
0000
0000
0010
0000
,
0100
0000
1000
0000
0000
0000
0001
0000
0100
0000
0000
0001
0000
0000
1000
0000
,
0100
0000
0000
0010
0000
0001
0000
0000
1000
0000
0000
0001
0000
0100
0000
0000
,
0010
0000
0000
1000
0000
0100
0000
0010
0000
0000
0100
0000
1000
0000
0001
0000
,
1000
0100
0000
0000
1000
0000
0001
0000
1000
0000
0000
0001
0000
0000
0010
0000
,
0100
0000
0000
0100
0000
0000
0010
0000
0001
0000
0000
1000
0000
0000
0010
0000
,
0100
0000
0000
0001
0000
1000
0000
0000
0010
0000
0000
1000
0000
0001
0000
0000
,
0010
0000
0000
0001
0000
1000
0000
0100
0000
0000
1000
0000
0010
0000
0100
0000
,
0001
0010
0000
0000
0001
0000
1000
0000
0010
0000
0000
1000
0000
0000
0100
0000
,
0010
0000
0001
0000
0000
0000
0100
0000
0010
0000
0000
1000
0000
0000
0100
0000
,
1000
0000
0000
0001
0000
0100
0000
0000
0010
0000
0000
1000
0000
0100
0000
0000
,
0010
0000
0000
0001
0000
1000
0000
0001
0000
0000
1000
0000
0001
0000
0100
0000
,
0001
0010
0000
0000
0001
0000
1000
0000
0010
0000
0000
1000
0000
0000
0100
0000
,
0010
0000
0000
0010
0000
0000
0100
0000
1000
0000
0000
0001
0000
0000
0100
0000
,
0010
0000
0000
0010
1000
0000
0000
1000
0100
0000
0000
0100
0010
0000
0000
0010
,
0001
0100
0010
1000
0100
0010
0001
1000
,
0001
0000
0000
0000
;

//---------------dance-single - ----------------
#NOTEDATA:;
#CHARTNAME:;
#STEPSTYPE:dance-single;
#DESCRIPTION:;
#CHARTSTYLE:;
#DIFFICULTY:Easy;
#METER:5;
#RADARVALUES:0.275808,0.381050,0.117246,0.085980,0.000000,247.000000,232.000000,15.000000,11.000000,0.000000,0.000000,0.000000,0.000000,0.000000,0.275808,0.381050,0.117246,0.085980,0.000000,247.000000,232.000000,15.000000,11.000000,0.000000,0.000000,0.000000,0.000000,0.000000;
#CREDIT:;
#NOTES:
0000
0000
0000
0000
,
0000
0000
0000
0000
,
0000
0000
0000
0000
,
1000
0001
1000
0001
,
1000
0000
0010
0000
0100
0000
0001
1000
,
0001
1000
0001
1000
,
0001
0000
0010
0000
0100
0000
1000
0001
,
1000
0100
0010
0100
,
1000
0000
0010
0000
0100
0000
0001
1000
,
0001
0010
0100
0010
,
0001
0000
1000
0000
0010
0000
0100
0001
,
0100
0010
0100
0001
,
0010
0000
0100
0000
1000
0000
0001
1000
,
0001
1000
0100
0010
,
0100
0000
1000
0000
0010
0000
1000
0001
,
1000
0010
1000
0010
,
0100
0001
0100
0001
,
1000
0100
1000
0100
,
0010
0000
0000
0000
,
0001
0001
1000
0010
,
1000
1000
0001
0010
,
0001
0001
1000
0000
,
0001
0000
0000
0000
0100
0010
0100
0000
,
0001
0001
0010
0100
,
1000
1000
0010
0100
,
0001
0000
1000
0000
0001
0000
1000
0010
,
2000
0000
0000
0000
3000
0001
0100
0000
,
0002
0000
0000
0000
,
0023
0000
0000
0000
,
0230
0000
0000
1300
,
1001
0110
1001
0110
,
2001
0000
0000
0000
,
3020
0000
0000
0000
,
0230
0000
0000
0000
,
0301
0011
1010
1100
,
1001
0000
0000
0000
,
1000
0000
0000
0000
,
0001
0000
0000
0000
,
0010
0000
0000
0000
,
0100
0000
0000
0000
,
1000
0000
0000
0000
,
0010
0000
0000
0000
,
0100
0000
0000
0000
,
0001
0000
0001
0000
,
1000
0000
1000
0000
,
0010
0000
0010
0000
,
0100
0000
0100
0000
,
0001
0000
0001
0000
,
0010
0000
0010
0000
,
0100
0000
0100
0000
,
2002
0000
0000
3003
,
1000
0000
0001
0000
,
1000
0000
0000
0000
0000
0010
0100
0010
,
0100
0000
0110
0000
,
1010
0000
0000
0000
,
1000
0100
1000
0000
0001
0100
0001
0000
,
1000
0010
1000
0000
0001
0010
0001
0000
,
1000
0000
1000
0000
0001
0000
0001
1000
,
0020
0000
0000
0000
0130
0000
0001
1000
,
0001
0010
0100
0010
,
0001
0100
0010
1000
,
0100
0010
0001
0100
,
0010
0000
1000
0000
0001
0000
1000
0010
,
1000
0100
0010
0100
,
1000
0010
0100
0001
,
0010
0000
1001
0000
,
0110
0000
0000
0000
0010
0000
1000
0001
,
1000
0010
0100
0010
,
1000
0100
0010
0001
,
0100
0010
1000
0001
,
0010
0000
0100
0000
1000
0000
0001
1000
,
0001
0000
0100
0010
0100
0000
0010
1000
,
0100
0000
1000
0010
1000
0000
0001
0000
,
0100
0000
0100
0000
0010
0000
0010
1000
,
0020
0000
0000
0030
,
1001
0000
0000
0000
;

//---------------dance-single - ----------------
#NOTEDATA:;
#CHARTNAME:;
#STEPSTYPE:dance-single;
#DESCRIPTION:;
#CHARTSTYLE:;
#DIFFICULTY:Beginner;
#METER:2;
#RADARVALUES:0.136229,0.205181,0.007816,0.000000,0.000000,122.000000,121.000000,1.000000,0.000000,0.000000,0.000000,0.000000,0.000000,0.000000,0.136229,0.205181,0.007816,0.000000,0.000000,122.000000,121.000000,1.000000,0.000000,0.000000,0.000000,0.000000,0.000000,0.000000;
#CREDIT:;
#NOTES:
// measure 0
0000
0000
0000
0000
,  // measure 1
0000
0000
0000
0000
,  // measure 2
0000
0000
0000
0000
,  // measure 3
1000
0000
1000
0000
,  // measure 4
0001
0000
0001
0000
,  // measure 5
0100
0000
0100
0000
,  // measure 6
0010
0000
0010
0000
,  // measure 7
1000
0000
1000
0000
,  // measure 8
0001
0000
0001
0000
,  // measure 9
0010
0000
0010
0000
,  // measure 10
0100
0000
0100
0000
,  // measure 11
1000
0000
0001
0000
,  // measure 12
1000
0000
0010
0000
,  // measure 13
1000
0000
0001
0000
,  // measure 14
1000
0000
0100
0000
,  // measure 15
1000
0000
0001
0000
,  // measure 16
0010
0000
0100
0000
,  // measure 17
1000
0000
0001
0000
,  // measure 18
0100
0000
0000
0000
,  // measure 19
0001
0000
0100
0000
,  // measure 20
0001
0000
1000
0000
,  // measure 21
0001
0000
0010
0000
,  // measure 22
0001
0000
0000
0000
,  // measure 23
1000
0000
0010
0000
,  // measure 24
1000
0000
0001
0000
,  // measure 25
1000
0000
0100
0000
,  // measure 26
1000
0000
0000
0000
,  // measure 27
0001
0000
0000
0000
,  // measure 28
1000
0000
0000
0000
,  // measure 29
0001
0000
0000
0000
,  // measure 30
1000
0000
0001
0000
,  // measure 31
1000
0000
0000
0000
,  // measure 32
0001
0000
0000
0000
,  // measure 33
1000
0000
0000
0000
,  // measure 34
0001
0001
1000
1000
,  // measure 35
0001
0000
0000
0000
,  // measure 36
0010
0000
0000
0000
,  // measure 37
0100
0000
0000
0000
,  // measure 38
1000
0000
0000
0000
,  // measure 39
0010
0000
0000
0000
,  // measure 40
0100
0000
0000
0000
,  // measure 41
0001
0000
0000
0000
,  // measure 42
1000
0000
0000
0000
,  // measure 43
0010
0000
0000
0000
,  // measure 44
0100
0000
0000
0000
,  // measure 45
0001
0000
0000
0000
,  // measure 46
1000
0000
0000
0000
,  // measure 47
0010
0000
0000
0000
,  // measure 48
0100
0000
0000
0000
,  // measure 49
0001
0000
1000
0000
,  // measure 50
0001
0000
0000
0000
,  // measure 51
1000
0000
0000
0000
,  // measure 52
0000
0000
0000
0000
,  // measure 53
0010
0000
0100
0000
,  // measure 54
0010
0000
0000
0000
,  // measure 55
1000
0000
0001
0000
,  // measure 56
1000
0000
0001
0000
,  // measure 57
1000
1000
0001
0001
,  // measure 58
1000
0000
0000
0000
,  // measure 59
0001
0000
1000
0000
,  // measure 60
0001
0000
0100
0000
,  // measure 61
0001
0000
0010
0000
,  // measure 62
0001
0000
1000
0000
,  // measure 63
0001
0000
1000
0000
,  // measure 64
0010
0000
0100
0000
,  // measure 65
0001
0000
1000
0000
,  // measure 66
0100
0000
0010
0000
,  // measure 67
0001
0000
0001
0000
,  // measure 68
1000
0000
1000
0000
,  // measure 69
0100
0000
0100
0000
,  // measure 70
0010
0000
0010
0000
,  // measure 71
0001
0000
0001
0000
,  // measure 72
0100
0000
0100
0000
,  // measure 73
0010
0010
0100
0100
,  // measure 74
0010
0000
0000
0000
,  // measure 75
1001
0000
0000
0000
;
