#VERSION:0.81;
#TITLE:My Copycat;
#SUBTITLE:;
#ARTIST:Orange Caramel;
#TITLETRANSLIT:;
#SUBTITLETRANSLIT:;
#ARTISTTRANSLIT:;
#GENRE:;
#ORIGIN:;
#CREDIT:;
#BANNER:[Right on Time] - My Copycat.png;
#BACKGROUND:[Right on Time] - My Copycat-bg.png;
#PREVIEWVID:;
#JACKET:[Right on Time] - My Copycat-jacket.png;
#CDIMAGE:;
#DISCIMAGE:;
#LYRICSPATH:;
#CDTITLE:;
#MUSIC:[Right on Time] - My Copycat.mp3;
#OFFSET:-2.505;
#SAMPLESTART:45.452;
#SAMPLELENGTH:16.589;
#SELECTABLE:YES;
#BPMS:0.000=129.000;
#STOPS:;
#DELAYS:;
#WARPS:;
#TIMESIGNATURES:0.000=4=4;
#TICKCOUNTS:0.000=4;
#COMBOS:0.000=1;
#SPEEDS:0.000=1.000=0.000=0;
#SCROLLS:0.000=1.000;
#FAKES:;
#LABELS:0.000=Song Start;
#BGCHANGES:
;
#KEYSOUNDS:;
#ATTACKS:
;

//---------------dance-single - COPY----------------
#NOTEDATA:;
#CHARTNAME:;
#STEPSTYPE:dance-single;
#DESCRIPTION:COPY;
#CHARTSTYLE:;
#DIFFICULTY:Hard;
#METER:7;
#RADARVALUES:0.506,0.492,0.238,0.162,0.043,290.000,22.000,15.000,0.000,0.000,0.000,0.000,0.000,0.506,0.492,0.238,0.162,0.043,290.000,22.000,15.000,0.000,0.000,0.000,0.000,0.000;
#CREDIT:;
#NOTES:
0000
0000
0000
0000
,
0000
0000
0000
0000
,
0000
0000
0000
0000
,
0000
0000
0000
0000
,
1000
0010
0001
0010
1000
0000
1010
0000
,
1000
0100
0001
0100
1000
0000
1100
0000
,
0001
0010
1000
0010
0001
0000
0011
0000
,
0001
0000
0000
0000
1000
0000
0000
1000
0010
0000
0100
0000
0001
0000
0010
0000
,
1000
0000
0001
0010
1000
0000
0001
0010
,
1000
0001
0100
1000
0001
0000
1000
0010
,
0001
0000
1000
0010
0001
0000
1000
0010
,
0001
1000
0100
0001
1000
0000
0100
0100
,
0200
0000
0010
0010
0320
0000
0001
0001
,
0032
0000
2003
0000
3020
0000
0130
0010
,
0200
0000
0001
0000
1000
0000
0001
0001
,
0302
0000
1000
1000
2003
0000
3100
1000
,
0100
0000
0010
0001
0010
0000
0001
1000
,
0001
0100
1000
0100
0001
0000
1000
0010
,
1000
0000
0001
0100
0001
0000
1000
0001
,
1000
0100
0001
0100
1000
0000
0001
0001
,
1000
0100
0010
0001
1000
0000
0001
0001
,
1000
0010
0100
0001
1000
0000
0001
0001
,
1000
0100
1000
1000
0001
1000
0001
0001
,
1000
0000
0010
0000
0010
0000
0010
0000
0100
0000
0000
0001
0000
0000
0010
0000
,
0011
1001
2200
3300
,
1000
0100
0010
0100
0001
0100
0010
0100
,
1100
1001
0202
0303
,
0001
0100
0010
0100
1000
0100
0010
0100
,
0101
0000
1001
0000
1010
0000
0010
1000
,
0100
0000
1100
0000
1000
0100
0010
0001
,
0011
1001
1010
0110
,
0101
0000
0100
0001
0010
0001
0010
0100
,
1000
0100
0001
0100
1000
0000
1100
0000
,
1000
1000
0001
0001
0100
0001
0100
0010
,
1000
0010
0001
0010
1000
0000
1010
0000
,
0010
0010
1000
1000
0001
1000
0001
1000
,
0001
0010
1000
0010
0001
0000
0011
0000
,
0010
0010
0001
0001
1000
0001
1000
0010
,
0001
0000
1000
0010
0001
0000
1000
0010
,
0001
0000
0000
0001
0010
0000
1000
0000
0001
0000
0000
0001
0010
0000
0100
0000
,
1000
0100
0010
0001
1000
0100
0010
0001
,
1000
0010
0001
0010
1000
2000
0000
0000
,
3001
0100
0010
1000
0001
0100
0010
0010
,
1000
0100
0001
0100
1000
1000
2000
0000
,
3001
0100
0010
1000
0001
0010
0100
1000
,
0001
0010
1000
0010
0001
0001
0002
0000
,
1003
0100
0010
0001
1000
0010
0100
0001
,
1000
0000
0000
1000
0010
0000
0000
0010
0100
0001
0010
0100
1000
0000
1001
0000
;

//---------------dance-single - ----------------
#NOTEDATA:;
#CHARTNAME:;
#STEPSTYPE:dance-single;
#DESCRIPTION:;
#CHARTSTYLE:;
#DIFFICULTY:Medium;
#METER:5;
#RADARVALUES:0.359,0.362,0.087,0.108,0.000,214.000,8.000,10.000,0.000,0.000,0.000,0.000,0.000,0.359,0.362,0.087,0.108,0.000,214.000,8.000,10.000,0.000,0.000,0.000,0.000,0.000;
#CREDIT:;
#NOTES:
0000
0000
0000
0000
,
0000
0000
0000
0000
,
0000
0000
0000
0000
,
0000
0000
0000
0000
,
0001
0000
0010
0000
0100
0000
1000
0100
,
1000
0000
0001
0000
0100
0000
0010
1000
,
0010
0000
1000
0000
0001
0000
0010
0001
,
0010
0100
1000
0001
,
0001
0100
0100
0010
,
0010
1000
0010
1000
0010
0000
1000
0000
,
1000
0100
0100
0010
,
0010
0001
0010
0001
0010
0000
0001
0000
,
0011
1000
1001
1000
,
1020
0100
0001
0100
,
2000
0000
3030
0000
0010
0000
1000
0001
,
0020
0000
0130
1000
0002
0000
0103
0010
,
1000
0000
0001
0000
0010
0000
0100
1000
,
0001
0001
1001
0000
,
0001
0000
1000
0000
0010
0000
0100
0001
,
1000
1000
1001
0000
,
0001
0010
0001
0000
0022
0000
0033
0000
,
0001
1000
0001
0000
2002
0000
3003
0000
,
1000
0010
1000
0000
0010
0100
0010
0000
,
0100
0001
2002
3003
,
1000
0000
0100
0000
0010
0100
0010
0000
,
0001
0000
0010
0000
1000
0010
0001
0000
,
1000
0000
0010
0000
0100
0010
0100
0000
,
0001
0000
0100
0000
1000
0100
0001
0000
,
1000
0000
0010
0000
0100
0000
0001
0100
,
0001
0000
0010
0000
0100
1000
0100
0000
,
1000
1000
0001
0001
,
0100
0010
1000
0001
,
1000
0000
0100
0000
0010
0000
0001
0001
,
1000
0000
0100
0000
0001
0000
0100
0100
,
1000
0001
0100
0010
,
1000
0010
0100
0001
1000
1000
1000
0000
,
0001
0000
0010
0000
0100
0000
1000
1000
,
0001
0000
0010
0000
1000
0000
0010
0010
,
0001
0000
1000
1000
0010
0000
0100
0100
,
0001
0000
1000
0000
0010
0010
0010
0000
,
0100
0001
1000
0100
,
0010
0100
0010
0100
0010
0010
0000
0000
,
0100
1000
0001
0100
,
0010
0100
0010
0100
0010
0010
0010
0000
,
1000
0010
1000
0000
0001
1000
0001
0000
,
0010
0001
0010
0000
0100
0100
0100
0000
,
1000
0100
1000
0000
0001
1000
0001
0000
,
0100
0000
0010
0000
1000
0001
1000
0000
;

//---------------dance-single - ----------------
#NOTEDATA:;
#CHARTNAME:;
#STEPSTYPE:dance-single;
#DESCRIPTION:;
#CHARTSTYLE:;
#DIFFICULTY:Easy;
#METER:3;
#RADARVALUES:0.207,0.207,0.000,0.000,0.000,134.000,0.000,0.000,0.000,0.000,0.000,0.000,0.000,0.207,0.207,0.000,0.000,0.000,134.000,0.000,0.000,0.000,0.000,0.000,0.000,0.000;
#CREDIT:;
#NOTES:
0000
0000
0000
0000
,
0000
0000
0000
0000
,
0000
0000
0000
0000
,
0000
0000
0000
0000
,
1000
0010
1000
0000
,
0001
1000
0001
0000
,
0010
0001
0010
0000
,
0100
0100
1000
1000
,
0001
0000
0001
0000
,
1000
1000
1000
0000
,
0010
0000
0010
0000
,
0100
0100
0100
0000
,
0001
0000
1000
0000
,
0100
0100
0010
0010
,
0001
0000
0010
0001
,
1000
0000
0010
0000
,
0100
0000
0100
0000
,
0001
0001
0001
0000
,
1000
0000
1000
0000
,
0100
0100
0100
0000
,
0010
0001
0010
0000
,
0001
1000
0001
0000
,
1000
0010
0100
0010
,
0100
0001
1000
0000
,
0100
0010
0100
0000
,
0010
0000
0010
0000
,
0001
0010
0001
0000
,
1000
0000
1000
0000
,
0010
1000
0010
0000
,
0100
0001
0100
0000
,
0001
0000
0001
0000
,
1000
0000
1000
0000
,
0001
0010
0001
0000
,
0010
0010
0010
0010
,
0100
1000
0100
0000
,
1000
1000
0001
0001
,
1000
0010
1000
0000
,
0010
0010
0010
0010
,
0100
0001
0100
0000
,
0001
0000
1000
0000
,
0001
0010
0100
1000
,
0001
0001
0001
0000
,
1000
0010
0100
0001
,
1000
1000
0001
0001
,
1000
0010
0001
0010
,
1000
1000
0001
0001
,
1000
0100
0001
0100
,
1000
0100
0010
0001
;

//---------------dance-single - ----------------
#NOTEDATA:;
#CHARTNAME:;
#STEPSTYPE:dance-single;
#DESCRIPTION:;
#CHARTSTYLE:;
#DIFFICULTY:Beginner;
#METER:1;
#RADARVALUES:0.096,0.103,0.000,0.000,0.000,62.000,0.000,0.000,0.000,0.000,0.000,0.000,0.000,0.096,0.103,0.000,0.000,0.000,62.000,0.000,0.000,0.000,0.000,0.000,0.000,0.000;
#CREDIT:;
#NOTES:
0000
0000
0000
0000
,
0000
0000
0000
0000
,
0000
0000
0000
0000
,
0000
0000
0000
0000
,
0001
0000
0000
0000
,
0001
0000
0000
0000
,
1000
0000
0000
0000
,
1000
0000
1000
0000
,
0100
0000
0100
0000
,
0100
0000
0000
0000
,
0010
0000
0010
0000
,
0010
0000
0000
0000
,
0001
0000
0001
0000
,
1000
0000
1000
0000
,
0010
0000
0000
0000
,
0100
0000
0000
0000
,
0001
0000
0001
0000
,
0001
0000
0000
0000
,
1000
0000
1000
0000
,
1000
0000
0000
0000
,
0100
0000
0000
0000
,
0010
0000
0000
0000
,
0100
0000
0010
0000
,
0100
0000
0000
0000
,
1000
0000
0000
0000
,
0001
0000
0001
0000
,
0001
0000
0000
0000
,
0100
0000
0100
0000
,
0100
0000
0100
0000
,
0010
0000
0010
0000
,
1000
0000
0000
0000
,
0001
0000
0000
0000
,
0010
0000
0000
0000
,
0010
0000
0010
0000
,
0100
0000
0000
0000
,
1000
0000
1000
0000
,
0001
0000
0000
0000
,
1000
0000
1000
0000
,
0010
0000
0010
0000
,
0100
0000
0000
0000
,
0001
0000
0000
0000
,
0001
0000
0000
0000
,
1000
0000
0000
0000
,
1000
0000
1000
0000
,
0100
0000
0000
0000
,
0010
0000
0000
0000
,
0100
0000
0000
0000
,
0010
0000
0010
0000
;
