#TITLE:Monstercat Live Performance;
#SUBTITLE:(3 Year Anniversary Mix);
#ARTIST:Didrick;
#TITLETRANSLIT:;
#SUBTITLETRANSLIT:;
#ARTISTTRANSLIT:;
#GENRE:;
#CREDIT:;
#BANNER:[Right on Time] - Monstercat 3 Year Anniversary Mix.png;
#BACKGROUND:[Right on Time] - Monstercat 3 Year Anniversary Mix-bg.png;
#LYRICSPATH:;
#CDTITLE:cdtitle.png;
#MUSIC:[Right on Time] - Monstercat 3 Year Anniversary Mix.mp3;
#OFFSET:-0.117000;
#SAMPLESTART:30.101025;
#SAMPLELENGTH:14.999996;
#SELECTABLE:YES;
#DISPLAYBPM:43.000000:170.000000;
#BPMS:0.000000=64.000000
,16.000000=128.000000
,40.000000=64.000000
,43.000000=128.000000
,108.000000=85.250000
,111.000000=42.625000
,113.500000=63.937004
,114.250000=85.250000
,118.000000=48.700001
,119.000000=85.250000
,120.250000=42.625000
,120.750000=85.250000
,124.250000=51.150002
,125.000000=170.500000
,133.000000=170.000000
,141.000000=85.000000
,144.000000=77.500000
,145.000000=155.000000
;
#STOPS:43.000000=0.469000
;
#BGCHANGES:;
#KEYSOUNDS:;
#ATTACKS:;

//---------------dance-single - ----------------
#NOTES:
     dance-single:
     :
     Challenge:
     9:
     0.656600,0.630457,0.295408,0.590816,0.669013,427.000000,34.000000,68.000000,0.000000,2.000000,0.000000,0.656600,0.630457,0.295408,0.590816,0.669013,427.000000,34.000000,68.000000,0.000000,2.000000,0.000000:
0000
0000
0000
0000
,
0000
0000
0000
0000
,
1001
0000
1000
0100
0010
0001
0100
0010
2000
0000
0000
0000
3002
0000
0000
0000
,
0013
0000
0000
0100
0000
1000
0001
0000
1000
0000
0001
0100
0010
1000
0100
0010
,
0001
0000
1000
0000
0001
0000
1000
0000
0010
0000
0100
0020
0000
0000
0130
0000
,
0001
0000
1000
0002
0000
0000
0013
0000
0100
0000
1000
0020
0000
0000
0130
0000
,
0001
0100
1000
0100
0001
0100
1000
0100
,
0001
0010
1000
0010
0001
0010
1000
0010
,
0001
1000
0010
0100
0001
1000
0100
0010
,
0001
0100
0001
0100
0010
1000
0010
1000
0001
0010
0001
0010
0100
1000
0100
1000
,
0001
0000
0000
0001
0000
0000
1000
0000
0000
1000
0000
0000
0010
0000
0000
0100
0000
0000
0001
0000
0000
0010
0000
0000
1001
0000
0000
0000
0000
0000
0000
0000
,
1001
0001
0201
0000
0301
0010
1000
0010
,
0001
0000
0010
0000
0100
1000
0100
1000
0001
0000
0100
0010
0000
0010
1000
0000
,
0001
0000
1000
0000
0010
0000
0001
0010
1000
0000
0100
0000
0010
0000
0001
0000
,
0202
0000
0303
0000
0202
0000
0303
0000
1001
0000
1000
0010
0000
0100
0001
0000
,
1000
0000
0000
0000
0000
0000
0100
0000
0000
0000
0000
0000
0012
0000
0000
0000
0000
0000
0000
0000
0000
0000
0000
0000
0103
0000
0000
0000
0000
0000
0010
0000
1000
0000
0010
0000
1000
0000
0000
0010
0000
0000
0100
0000
0000
0001
0000
0000
,
1000
0000
0100
0000
0010
0001
0010
0001
1000
0000
0010
0100
0001
0000
0010
0000
,
0011
0000
0000
0000
1100
0000
0000
0000
1000
0000
1000
0000
0001
0100
0010
1000
,
0002
0000
0000
0000
0000
0000
0000
0000
0000
0000
0000
0000
1003
0000
0000
1000
0000
0000
0001
0000
1000
0001
0000
1000
,
0200
0000
0000
0000
0310
0000
0001
0000
0100
0010
1000
0001
0010
0000
0001
0100
,
0020
0000
0000
0000
1030
0100
1000
0100
0010
0000
0001
0000
0100
0000
0010
0000
,
1000
0100
0020
0000
0031
1000
1001
0000
,
1000
0100
0010
0001
0000
0001
0100
0010
1000
0000
0010
0000
0001
0000
0010
0000
,
1010
0000
0010
0000
0200
0000
0310
0000
1000
0000
0001
1000
0100
1000
0100
0000
,
0010
0000
0001
0000
0100
0010
0100
0010
1000
0000
0100
0000
0110
0000
0010
0000
,
0002
0000
0000
0203
0000
0000
0320
0000
2030
0000
3002
2003
0000
0000
3200
0000
,
0310
0010
2002
3003
,
1002
0000
0000
0023
0000
0000
0031
0100
0010
2000
0000
0000
,
0000
0000
0000
0000
0000
0000
3002
0000
0000
1003
0001
1000
2002
0000
3003
0001
,
0020
0000
0000
0000
0000
0000
0030
0000
0000
0022
0000
0000
0033
0000
0000
0001
0000
0000
0100
0000
0000
0000
0000
0000
0220
0000
0000
0000
0000
0000
0000
0000
0030
0000
0300
0000
0010
0000
0000
2002
0000
0000
0000
0000
0000
0000
0000
0000
,
0000
0010
3003
1000
0100
0010
0012
0000
0000
0000
0203
0000
0000
0000
1300
0100
,
0001
0020
0000
0000
0031
0000
1000
0000
1000
0000
0001
0000
1000
0000
1000
0000
,
0001
0000
0010
0100
0010
0000
0100
0000
0010
0000
0100
0000
0010
0000
0100
0000
,
1000
0001
1000
0001
1000
0000
0001
0000
1000
0000
0001
0000
1000
0000
0001
0000
,
1000
0000
0001
0000
0100
0000
0010
0100
0010
0000
0100
0010
0100
0010
0100
0010
,
0100
0010
0100
0010
2000
0000
0000
0000
0000
0000
0000
0000
0002
0000
0000
0000
,
0010
0000
0000
3003
0000
0000
0220
0000
0000
0000
0000
0000
0330
0000
0000
0000
0000
0000
0001
0000
0010
0000
0001
0000
,
1000
0100
1000
0001
0010
0001
1000
0010
0100
0101
0000
0101
,
0000
1000
0010
2000
0000
0000
3010
0001
0010
1000
0010
1000
,
0100
1000
0100
0010
0001
0100
0010
1000
0100
0010
0100
1000
,
0001
0100
0010
0220
0000
0000
0330
0000
0000
2000
0000
0000
,
3200
0000
0000
0000
0000
0000
0320
0000
0000
0000
0000
0000
0032
0000
0000
0003
0000
0000
0102
0000
0000
0000
0100
0000
,
0000
0103
0010
1020
0000
0000
0031
0010
0001
0010
1000
0010
,
1000
0100
0010
0002
0000
0000
0013
0000
0001
0100
0000
0010
,
1000
0000
0000
2002
0000
0000
3003
0000
0000
0001
0100
0010
,
2000
0000
0000
3100
0000
0000
1000
0100
0010
0100
0010
0001
,
1000
0010
0100
0202
0000
0000
0303
0000
0000
1001
0000
0000
,
0000
0000
0000
1000
0000
0000
0001
0100
0010
0100
0010
1000
,
0001
0010
0100
0220
0000
0000
0330
0000
0000
1100
0000
0000
,
0000
0022
0033
0202
,
0303
0000
0000
0001
0100
0001
1000
0010
1000
0001
0010
0001
,
1000
0100
1000
0001
0010
0001
0010
1000
0010
0001
0100
0001
,
0100
1000
0100
0001
0010
0100
1000
0100
0010
0001
1000
0010
,
0100
0001
1000
2002
0000
0000
0000
0000
0000
3003
0000
0000
;

//---------------dance-single - ----------------
#NOTES:
     dance-single:
     :
     Hard:
     8:
     0.508896,0.537056,0.139016,0.547374,0.308441,331.000000,16.000000,63.000000,0.000000,0.000000,0.000000,0.508896,0.537056,0.139016,0.547374,0.308441,331.000000,16.000000,63.000000,0.000000,0.000000,0.000000:
0000
0000
0000
0000
,
0000
0000
0000
0000
,
1001
0000
1000
0100
0010
0001
0010
0100
2000
0000
0000
0000
3002
0000
0000
0000
,
0103
0000
0000
0010
0000
1000
0001
0000
1000
0000
0001
0100
0010
1000
0010
0100
,
0002
0000
0000
0000
0103
0000
0000
0000
0010
0000
1000
0200
0000
0000
0300
0000
,
0010
0000
0001
2000
0000
0000
3000
0000
0010
0000
0100
0002
0000
0000
0003
0000
,
1000
0100
1000
0100
0001
0100
0001
0100
,
0001
0010
0001
0010
1000
0010
1000
0010
,
1000
0100
0010
0001
1000
0100
0010
0001
,
1000
0010
0100
0001
0010
0100
1000
0001
,
0100
0000
0100
0001
0020
0000
0130
1000
0020
0000
0000
0000
0130
0000
0000
0000
,
0001
1000
0200
0000
1300
0100
0001
0100
,
1000
0000
0000
0000
0001
0000
0100
0000
0100
0000
0010
1000
0000
1000
0001
0000
,
1000
0000
0000
0000
0100
0000
0010
0001
1000
0000
0001
0000
0100
0000
0010
0000
,
2020
0000
3030
0000
2020
0000
3030
0000
0001
0000
1000
0001
0000
1000
0100
0000
,
0010
0000
0000
0000
0120
0000
0000
0000
0031
0000
0010
0000
0100
1000
0100
0000
,
0010
0000
0001
0000
0100
0000
1000
0000
0100
0000
0001
0100
0001
0000
0010
0000
,
0002
0000
2003
0000
3010
0010
0010
1000
,
0002
0000
0000
0000
1003
0001
0100
0010
,
1001
0000
0000
0000
1000
0000
0100
0000
0020
0000
0000
0000
0031
1000
0001
0000
,
0200
0000
1300
0100
0001
0010
0001
0100
,
0010
0000
2000
0000
3010
0100
0100
0000
,
0001
0010
0000
0001
0010
0000
0100
0000
1000
0000
0010
0000
0001
0000
0010
0000
,
2000
0000
0000
0000
3100
0000
0010
0000
0001
0000
0100
0010
0100
0000
0010
0000
,
1000
0000
0100
0000
0010
0100
0010
0000
0001
0000
1000
0000
1001
0000
0000
0000
,
2000
0000
0000
3020
0000
0000
0230
0000
0302
0000
2003
3002
0000
0000
0023
0000
,
0130
0100
2002
3003
,
1002
0000
0000
0023
0000
0000
0031
0100
0010
2000
0000
0000
,
0000
0000
0000
0000
0000
0000
3002
0000
0000
1003
0001
1000
0002
0000
0003
0010
,
0020
0000
0000
0000
0000
0000
0030
0000
0000
0002
0000
0000
0003
0000
0000
0100
0000
0000
0100
0000
0000
0000
0000
0000
0200
0000
0000
0000
0000
0000
0000
0000
0000
0000
0300
0000
0010
0000
0000
2000
0000
0000
0000
0000
0000
0000
0000
0000
,
0000
3002
0000
1003
0100
1000
0200
0000
0000
0000
0320
0000
0000
0000
0031
0100
,
0010
2000
0000
0000
3001
0000
0000
0000
1000
0000
0001
0000
0000
0000
1000
0000
,
0001
0000
0100
0010
0100
0010
0100
0010
,
1000
0001
0010
0001
0010
0001
0010
0001
,
0010
0001
1000
0100
1000
0100
0010
0001
,
0100
0010
2000
0000
0000
0000
3001
0000
,
0110
2002
3003
0001
,
0100
0000
0000
0010
0000
0000
1000
0000
0000
1001
0000
1001
,
0000
0001
0010
0200
0000
0000
1300
0000
0000
0010
0000
1000
,
0001
0000
0000
1000
0000
1000
0100
0000
0100
0010
0000
0010
,
0001
0000
0001
2000
0000
0000
0000
0000
0000
3002
0000
0000
,
0203
2300
3020
0032
,
0003
0000
0000
1001
0000
0000
0001
0000
0000
0010
0000
0001
,
1000
0000
0000
0002
0000
0000
0103
0000
0100
0010
0000
0010
,
1000
0000
0000
2002
0000
0000
3003
0000
0000
1000
0100
0010
,
0002
0000
0000
0003
0000
0000
1000
0000
1000
0100
0000
0010
,
0001
0000
0001
0200
0000
0000
0000
0000
0000
0310
0000
0000
,
0000
0000
0000
0100
0000
0000
0001
0000
0001
0100
0000
0010
,
1000
0000
1000
0200
0000
0000
0000
0000
0000
0310
0000
0000
,
0000
1002
0000
2003
,
0000
0000
0000
3001
0100
0001
0100
0000
0000
0010
1000
0010
,
1000
0000
0000
0001
0010
0001
0010
0000
0000
0100
1000
0100
,
1000
0000
0000
0001
0100
0010
1000
0000
0000
0001
0010
0100
,
1000
2002
0000
3003
;

//---------------dance-single - ----------------
#NOTES:
     dance-single:
     :
     Medium:
     5:
     0.390981,0.373604,0.269343,0.477866,0.056475,229.000000,31.000000,55.000000,0.000000,0.000000,0.000000,0.390981,0.373604,0.269343,0.477866,0.056475,229.000000,31.000000,55.000000,0.000000,0.000000,0.000000:
0000
0000
0000
0000
,
0000
0000
0000
0000
,
1001
1000
0100
0010
0002
0000
0203
0000
,
0310
0000
0000
1000
0000
0000
0001
0000
1000
0000
0100
0000
0001
0000
0010
0000
,
2000
3001
1000
1000
,
0001
0001
0010
0010
,
0001
0100
0001
0000
0100
1000
0100
0000
,
1000
0010
1000
0000
0010
0001
0010
0000
,
0001
0000
0100
0010
2000
0000
3002
0000
,
1003
0001
1000
0001
0010
0100
0010
0100
,
1000
0001
0002
1000
2000
0000
3003
0000
,
1001
0000
0102
0000
1003
0000
0001
1000
,
0100
0000
0010
0000
0001
0100
0010
1000
,
0001
0000
1000
0100
0010
0100
1000
0000
,
1001
0000
0000
0000
1001
0000
0000
0000
1000
0000
0000
0100
0000
0000
0010
0000
,
0001
0000
0201
0000
0310
0000
0100
0001
,
1000
0000
0001
0010
0100
1000
0001
0000
,
0101
0000
2010
0000
3001
0001
0001
0000
,
2000
0000
0001
3001
,
1001
0000
1000
0001
2000
0000
3100
0010
,
0200
0000
0310
0001
1000
0000
0001
0100
,
0020
0000
1030
0000
0001
1000
1000
0000
,
0001
0010
0001
0000
1100
0000
0101
0000
,
1001
0000
2001
0000
3010
1000
0010
1000
,
0010
0000
0100
0001
1000
0001
0010
0000
,
0002
0000
0203
0000
,
0310
0010
2002
3003
,
1002
0023
0032
2003
,
0000
0000
0000
0000
0000
0000
3020
0000
0000
0030
0000
0000
2001
0000
3000
0000
,
0020
0000
0000
0000
0000
0000
0030
0000
0000
0200
0000
0000
0000
0000
0000
0300
0000
0000
0010
0000
0000
0000
0000
0000
0200
0000
0000
0000
0000
0000
0000
0000
0000
0000
0300
0000
0001
0000
0000
2000
0000
0000
0000
0000
0000
0000
0000
0000
,
0000
3002
0000
0003
0000
0000
2000
0000
0000
0000
3200
0000
0000
0000
0310
0000
,
0000
0002
0000
0003
1001
0000
0000
0000
0000
0000
1001
0000
0000
0000
0000
0000
,
1001
1000
1000
0100
,
0010
0011
0001
0100
,
0010
1010
1000
0100
,
0010
2001
0000
0002
,
3003
2002
3003
1000
,
0100
1000
0100
0022
,
0000
0033
0000
2100
0000
0000
3001
0000
0000
0100
0000
0000
,
0010
1000
0010
0001
,
0010
2000
0000
3020
,
2030
3200
0320
0032
,
0003
1001
1000
0010
,
0100
0000
0000
0001
0000
0000
1000
0000
0001
1000
0000
0000
,
0100
0022
0033
0001
,
0200
0000
1300
0100
,
0001
0012
0000
1003
,
0000
0100
0001
0100
,
1000
2010
0000
3001
,
0000
0012
0000
2003
,
0000
0000
0000
3001
0000
0100
0001
0000
0000
1000
0000
0100
,
1000
0000
0000
0001
0000
0010
0001
0000
0000
1000
0000
0010
,
1000
0000
0000
0001
0000
1000
0100
0000
0000
1000
0000
0001
,
0100
0220
0000
0330
;

//---------------dance-single - ----------------
#NOTES:
     dance-single:
     :
     Easy:
     3:
     0.286720,0.326904,0.217212,0.512620,0.004344,147.000000,25.000000,59.000000,0.000000,0.000000,0.000000,0.286720,0.326904,0.217212,0.512620,0.004344,147.000000,25.000000,59.000000,0.000000,0.000000,0.000000:
0000
0000
0000
0000
,
0000
0000
0000
0000
,
1001
0001
0200
0320
,
1030
0002
2003
3100
,
0020
0030
0001
0000
,
1000
0000
0010
0000
,
1000
1000
0001
0001
,
1000
1000
0001
0001
,
0010
0000
0100
0200
,
0300
1000
0001
1000
,
0001
0100
0200
0300
,
2002
3003
1000
1000
,
0100
0000
0010
0001
,
0100
0000
0010
1000
,
0001
0001
0100
0010
,
2002
3003
1000
0100
,
0010
0001
0100
0010
,
0020
0000
1030
1000
,
0002
0000
2000
3003
,
2002
3003
0001
0010
,
0100
1000
0001
0000
,
0200
0300
0010
0010
,
1000
0001
1000
0001
,
2002
3003
1000
1000
,
0001
0010
0100
1000
,
0020
0000
0200
0330
,
0010
0010
2002
3003
,
0002
0023
0230
2300
,
0000
0000
0000
3000
0000
0000
2000
3000
,
0020
0000
0030
0000
0200
0000
0300
0000
0002
0000
0000
0000
0000
0003
0000
0000
,
0000
0002
0000
0003
0000
0000
2000
0000
0000
0000
3200
0000
0000
0000
0320
0000
,
0000
0030
0000
0000
1001
0000
0000
0000
0000
0000
0000
0000
1001
0000
0000
0000
,
0000
1000
0001
1000
,
0001
0100
0000
0000
,
0000
0010
0000
0000
,
0000
2001
0000
0002
,
3003
2002
3003
1000
,
1000
0001
0001
0220
,
0330
1001
0001
0100
,
0000
0001
0010
0100
,
1000
0002
0000
2003
,
3020
0230
0302
0023
,
0030
1001
1000
0010
,
0000
0110
0000
0100
,
0001
2002
3003
2000
,
3000
0100
0010
0001
,
0000
2002
3003
0001
,
0000
0100
0010
1000
,
0000
2002
3003
0100
,
0000
0022
0033
0002
,
0003
0011
0000
1100
,
0000
1010
0000
0101
,
0000
1001
0000
0110
,
0000
2002
0000
3003
;

//---------------dance-single - ----------------
#NOTES:
     dance-single:
     :
     Beginner:
     1:
     0.151428,0.186802,0.060819,0.121639,0.004344,101.000000,7.000000,14.000000,0.000000,0.000000,0.000000,0.151428,0.186802,0.060819,0.121639,0.004344,101.000000,7.000000,14.000000,0.000000,0.000000,0.000000:
0000
0000
0000
0000
,
0000
0000
0000
0000
,
1001
0000
0001
0001
,
0000
1000
1000
0000
,
0001
0000
0000
0000
,
1000
0000
0000
0000
,
0100
0000
0100
0000
,
0100
0000
0100
0000
,
0010
0000
0001
0000
,
1000
0000
0001
0000
,
0100
0000
0000
0100
,
0100
0000
0001
0000
,
1000
0000
0001
0000
,
0010
0000
0001
0000
,
0100
0100
0100
0000
,
0010
0000
1000
0000
,
0001
0000
1000
0000
,
0100
0000
0010
0000
,
0002
0000
0000
0003
,
1000
0000
0010
0000
,
0100
0000
0001
0001
,
0001
0000
0010
0000
,
0100
0000
1000
0000
,
0001
0000
0100
0000
,
0010
0000
1000
0000
,
0001
0000
0000
0000
,
0010
0000
1001
0000
,
0001
0001
1000
2000
,
0000
0000
0000
3000
0000
0000
0010
0000
,
0010
0000
0000
0000
0100
0000
0000
0000
0200
0000
0000
0000
0000
0300
0000
0000
,
0000
0002
0000
0003
0000
0000
1000
0000
0000
0000
0001
0000
0000
0000
0002
0000
,
0000
0003
0000
0000
1000
0000
0000
0000
0000
0000
0000
0000
1000
0000
0000
0000
,
0000
1000
1000
1000
,
0000
0010
0000
0000
,
0000
0100
0000
0000
,
0000
1001
0000
0010
,
0000
1001
0000
1000
,
0000
0001
0000
0020
,
0000
0030
0001
0001
,
0000
0100
0000
0010
,
0000
2000
0000
3000
,
0000
0000
0000
0110
,
0000
1001
0000
1000
,
0000
0100
0000
0010
,
0000
0002
0003
2000
,
3000
0000
0010
0010
,
0000
0200
0300
0001
,
0000
0000
0010
0010
,
0000
0002
0000
0003
,
0000
2000
0000
3000
,
0000
0010
0000
0010
,
0000
0100
0000
0100
,
0000
0001
0000
1000
,
0000
2002
0000
3003
;
