#TITLE:Midnight 夢;
#SUBTITLE:;
#ARTIST:Dan Mason ダン·メイソン;
#TITLETRANSLIT:Midnight Dream;
#SUBTITLETRANSLIT:;
#ARTISTTRANSLIT:Dan Mason;
#GENRE:;
#CREDIT:;
#BANNER:[Right on Time] - Midnight Dream.png;
#BACKGROUND:[Right on Time] - Midnight Dream-bg.png;
#LYRICSPATH:;
#CDTITLE:;
#MUSIC:Midnight Dream.ogg;
#OFFSET:-8.193004;
#SAMPLESTART:79.667999;
#SAMPLELENGTH:15.998672;
#SELECTABLE:YES;
#BPMS:0.000000=120.010002
;
#STOPS:
;
#BGCHANGES:;
#KEYSOUNDS:;
#ATTACKS:;

//---------------dance-single - ----------------
#NOTES:
     dance-single:
     :
     Hard:
     6:
     0.346182,0.286387,0.262663,0.135568,0.042365,239.000000,31.000000,16.000000,0.000000,0.000000,0.000000,0.346182,0.286387,0.262663,0.135568,0.042365,239.000000,31.000000,16.000000,0.000000,0.000000,0.000000:
1000
0010
0100
0010
0000
0100
0001
0000
,
0000
0100
0010
0000
1000
0000
0100
0000
,
0010
0001
0100
0001
0000
0000
0000
1000
,
0000
0001
1000
0000
0010
1000
0002
0000
,
1003
0001
1000
0100
0000
1000
0001
0000
,
0100
0001
0010
0000
1100
0000
0101
0000
,
0100
0001
0010
0100
0000
0010
0100
0000
,
1000
0010
0100
0000
0101
0000
0000
0000
,
0100
0001
1000
0100
0000
1000
0001
0000
,
1000
0010
1000
0000
1010
0000
0011
0000
,
0010
0001
0010
0100
0000
0010
0100
0000
,
0010
0001
1000
0000
1001
0000
0000
0000
,
0001
0100
1000
0100
0000
0010
1000
0000
,
0001
0100
0010
0000
1010
0000
0101
0000
,
0001
0010
1000
0010
0000
0100
1000
0000
,
0100
0010
0001
0000
1001
0000
0000
0000
,
1000
0010
0001
0010
0000
0100
0010
0000
,
0001
1000
0010
0000
0101
0000
1010
0000
,
1000
0100
0001
0100
0000
0010
0100
0000
,
1000
0100
0010
0000
1001
0000
0000
0000
,
1100
0000
1000
0000
0100
0000
0010
0001
,
0010
0000
0000
0000
0001
0000
0000
0000
1000
0000
0000
0000
0100
0000
0000
1000
,
0000
0000
0010
0100
0001
0000
1000
0000
,
0000
0000
0100
0000
1000
0010
1000
0100
,
0010
0000
0100
0000
1000
0000
0010
0100
,
0001
0000
0000
0000
0010
0000
0000
0000
0100
0000
0000
0000
1000
0000
0000
0001
,
0000
0000
0100
0010
1000
0000
0100
0000
,
0000
0000
0010
0000
0001
0010
0100
1000
,
0002
1000
1000
1003
,
0100
1000
2000
3002
,
2003
0100
0100
3100
,
0010
0020
0032
0103
,
0010
0000
0000
1000
0000
0000
0001
0000
0010
0000
0000
0000
0000
0000
0100
0000
,
0000
0000
1000
0000
0000
1000
0000
0000
1000
0000
0000
0000
0000
0000
0000
0000
,
0001
0000
0000
0010
0000
0000
0100
0000
0010
0000
0000
0001
0000
0000
1000
0000
,
0001
0000
0001
0000
0001
0000
1000
0010
,
2010
0000
0000
0200
0000
0000
0000
0000
,
3300
0011
0101
0011
,
0010
0000
0100
1000
0010
0000
0100
0000
,
0001
0000
1000
0000
0001
0000
0000
0000
1001
0000
0000
1100
0000
0000
0000
0000
,
0120
0000
0000
0002
0000
0000
0033
0000
,
0000
1100
0101
1100
,
1000
0000
0001
0100
0010
0000
0000
0000
,
0000
0000
1000
0000
0001
0000
0000
0000
0011
0000
0000
1001
0000
0000
0000
0000
,
2100
0000
0000
0020
0000
0000
3030
0000
,
0000
0101
0011
1100
,
0100
0000
1000
0010
0100
0000
0000
0000
,
0000
0000
0010
0000
1000
0000
0001
0000
0011
0000
0000
0110
0000
0000
0000
0000
,
0100
1000
0001
0000
0100
0000
0020
0000
,
1030
0000
0020
0000
0130
0000
0001
0100
,
0010
0000
0000
0010
0000
0000
0010
0000
0000
0000
0000
0000
1000
0000
0100
0000
,
0010
0001
1000
0001
0200
0000
0000
0000
,
0300
0000
0000
0000
;

//---------------dance-single - ----------------
#NOTES:
     dance-single:
     :
     Medium:
     4:
     0.251769,0.264357,0.042365,0.203352,0.000000,179.000000,5.000000,24.000000,0.000000,0.000000,0.000000,0.251769,0.264357,0.042365,0.203352,0.000000,179.000000,5.000000,24.000000,0.000000,0.000000,0.000000:
1000
0000
0000
0010
0000
0000
0000
0000
,
0000
0100
0010
0000
1000
0000
0001
0000
,
0010
0000
0000
0001
0000
0000
0000
1000
,
0000
0001
0100
0000
0020
0000
0030
0000
,
0100
0001
0100
0010
0000
0000
0000
0000
,
0000
0100
0010
0000
1000
0000
0100
0000
,
1000
0100
0010
0001
0000
0000
0000
0000
,
0000
0100
0010
0000
0001
0000
0000
0000
,
1000
0001
0100
0010
0000
0000
0000
0000
,
0000
0100
0010
0000
1000
0000
0100
0000
,
1000
0001
0010
0001
0000
0000
0000
0000
,
0000
1000
0010
0000
0100
0000
0000
0000
,
0010
0100
0001
1000
0000
0000
0000
0000
,
0000
1000
0001
0000
1010
0000
1001
0000
,
1000
0100
1000
0001
0000
0000
0000
0000
,
0000
0010
0100
0000
1100
0000
0000
0000
,
1000
0010
0100
0001
0000
0000
0000
0000
,
0000
1000
0001
0000
0011
0000
1001
0000
,
1000
0001
0010
0100
0000
0000
0000
0000
,
0000
1000
0010
0000
0200
0000
0000
0000
,
0301
0000
1000
0000
0100
0000
0010
0001
,
0000
0010
0200
0300
,
0000
0000
0010
0001
0010
0000
0001
0000
,
0000
1000
2000
3000
,
0000
0000
0010
0000
1000
0000
0100
1000
,
0000
0010
0200
0300
,
0000
0000
0010
1000
0010
0000
1000
0000
,
0000
0001
0002
0003
,
1000
0000
0100
0000
0001
0000
0100
1000
,
0000
0010
0200
0300
,
0000
0000
1000
0010
0001
0000
0010
0000
,
0000
0100
0002
0003
,
2000
3000
0002
0003
,
0100
0001
0100
0000
,
0020
0030
0200
0300
,
0001
0000
1000
0000
0001
0000
1000
0100
,
0020
0000
0000
0200
0000
0000
0330
0000
,
0000
0010
0001
1000
,
0000
0001
0200
0300
,
0000
0010
0100
0001
1000
0000
0001
0000
,
2000
0000
0000
0200
0000
0000
3300
0000
,
0000
0100
0010
0001
,
0000
1000
0020
0030
,
0000
0100
0001
1000
0010
0000
1000
0000
,
0200
0000
0000
0020
0000
0000
0330
0000
,
0000
0100
1000
0010
,
0000
0000
0100
0001
2000
0000
3000
0000
,
0000
0001
0100
0010
1000
0000
0010
0000
,
0100
0001
0100
0000
0001
0000
2000
0000
,
3001
0000
0002
0000
1003
0000
0001
1000
,
0010
0000
0100
0000
0010
0000
1000
0010
,
0100
0001
0010
0100
2000
0000
0000
0000
,
3000
0000
0000
0000
;

//---------------dance-single - ----------------
#NOTES:
     dance-single:
     :
     Easy:
     2:
     0.180354,0.176238,0.025419,0.118622,0.000000,132.000000,3.000000,14.000000,0.000000,0.000000,0.000000,0.180354,0.176238,0.025419,0.118622,0.000000,132.000000,3.000000,14.000000,0.000000,0.000000,0.000000:
1000
0000
0000
0000
,
0000
0001
1000
0100
,
0010
0000
0000
0000
,
0010
0000
0200
0300
,
1000
0001
1000
0000
,
0000
0010
0100
0001
,
0010
0001
0010
0000
,
0000
0100
1000
0000
,
0010
0100
0001
0000
,
0000
1000
0010
0100
,
0001
0001
1000
0000
,
0000
0100
1000
0000
,
0010
0100
0001
0000
,
0000
1000
0010
0100
,
0001
1000
0100
0000
,
0000
0010
0100
0000
,
1000
0010
0100
0000
,
0000
0001
0010
0001
,
1000
0100
0000
0000
,
0000
1000
0010
0000
,
0100
0000
0001
0000
,
1000
0001
2000
3000
,
0010
0000
0100
0000
,
0010
0100
0020
0030
,
1000
0000
0100
0000
,
0010
0001
0020
0030
,
0001
0000
0100
0000
,
0010
1000
0020
0030
,
0100
0000
0001
0000
,
1000
1000
2000
3000
,
0010
0000
0100
0000
,
0001
0001
0002
0003
,
1000
0000
0010
0000
,
0100
0000
0001
1000
,
0010
0000
1000
0000
,
0001
1000
0010
0100
,
2002
0000
0000
3003
,
0000
0001
1000
0100
,
0000
1000
1000
0000
,
0000
0010
0100
0001
,
2002
0000
0000
3003
,
0000
0001
0001
0100
,
0000
0010
0100
0000
,
0000
0010
1000
0001
,
2002
0000
0000
3003
,
0000
1000
1000
0100
,
0000
1000
0010
0000
,
0000
0100
0001
0010
,
0001
0001
1000
0100
,
1000
0010
0100
0001
,
1000
0000
0001
0100
,
0010
1000
0002
0000
,
0003
0000
0000
0000
;

//---------------dance-single - ----------------
#NOTES:
     dance-single:
     :
     Beginner:
     1:
     0.090782,0.110149,0.016946,0.000000,0.000000,73.000000,2.000000,0.000000,0.000000,0.000000,0.000000,0.090782,0.110149,0.016946,0.000000,0.000000,73.000000,2.000000,0.000000,0.000000,0.000000,0.000000:
// measure 0
1000
0000
0000
0000
,  // measure 1
0000
0000
0000
0000
,  // measure 2
0001
0000
0000
0000
,  // measure 3
0000
0000
0000
0000
,  // measure 4
0010
0000
0000
0000
,  // measure 5
0000
0100
0000
0100
,  // measure 6
0001
0000
0000
0000
,  // measure 7
0000
1000
0000
0000
,  // measure 8
0010
0000
0000
0000
,  // measure 9
0000
1000
1000
1000
,  // measure 10
0001
0000
0000
0000
,  // measure 11
0000
0100
0000
0000
,  // measure 12
0010
0000
0000
0000
,  // measure 13
0000
0100
0000
0010
,  // measure 14
0100
0000
0000
0000
,  // measure 15
0000
0001
0001
0000
,  // measure 16
1000
0000
0000
0000
,  // measure 17
0000
0010
0100
0100
,  // measure 18
0010
0000
0000
0000
,  // measure 19
0000
1000
1000
0000
,  // measure 20
0001
0000
0000
0000
,  // measure 21
0100
0000
0000
0000
,  // measure 22
0001
0000
0000
0000
,  // measure 23
1000
0000
0000
0000
,  // measure 24
0010
0000
0000
0000
,  // measure 25
1000
0000
0000
0000
,  // measure 26
0010
0000
0000
0000
,  // measure 27
0100
0000
0000
0000
,  // measure 28
0001
0000
0000
0000
,  // measure 29
0001
0000
0000
0000
,  // measure 30
1000
0000
0000
0000
,  // measure 31
1000
0000
0000
0000
,  // measure 32
0010
0000
0000
0000
,  // measure 33
0100
0000
0000
0000
,  // measure 34
0001
0000
1000
0000
,  // measure 35
0010
0010
0010
0000
,  // measure 36
1001
0000
0000
0000
,  // measure 37
0000
0001
0000
0000
,  // measure 38
0000
1000
1000
0000
,  // measure 39
0000
0000
0010
0000
,  // measure 40
0100
0000
0000
0000
,  // measure 41
0000
0010
0000
0000
,  // measure 42
0000
0100
0100
0000
,  // measure 43
0000
0010
0010
0010
,  // measure 44
1000
0000
0000
0000
,  // measure 45
0000
0001
0000
0000
,  // measure 46
0000
0100
0100
0000
,  // measure 47
0000
0010
0000
0100
,  // measure 48
0001
0000
0000
1000
,  // measure 49
0000
1000
0000
0001
,  // measure 50
0001
0000
0000
1000
,  // measure 51
0001
0001
0001
0000
,  // measure 52
1001
0000
0000
0000
;
