#VERSION:0.81;
#TITLE:Lean On;
#SUBTITLE:;
#ARTIST:Major Lazer x DJ Snake feat. M�;
#TITLETRANSLIT:;
#SUBTITLETRANSLIT:;
#ARTISTTRANSLIT:;
#GENRE:;
#ORIGIN:;
#CREDIT:;
#BANNER:banner.png;
#BACKGROUND:lean on-bg.png;
#PREVIEWVID:;
#JACKET:jacket.png;
#CDIMAGE:;
#DISCIMAGE:;
#LYRICSPATH:;
#CDTITLE:;
#MUSIC:Lean On.ogg;
#OFFSET:-0.262723;
#SAMPLESTART:93.924530;
#SAMPLELENGTH:12.000000;
#SELECTABLE:YES;
#BPMS:0.000=98.000;
#STOPS:;
#DELAYS:;
#WARPS:;
#TIMESIGNATURES:0.000=4=4;
#TICKCOUNTS:0.000=4;
#COMBOS:0.000=1;
#SPEEDS:0.000=1.000=0.000=0;
#SCROLLS:0.000=1.000;
#FAKES:;
#LABELS:0.000=Song Start;
#BGCHANGES:;
#KEYSOUNDS:;
#ATTACKS:
;

//---------------dance-single - ----------------
#NOTEDATA:;
#CHARTNAME:;
#STEPSTYPE:dance-single;
#DESCRIPTION:;
#CHARTSTYLE:;
#DIFFICULTY:Beginner;
#METER:1;
#RADARVALUES:0.084806,0.077174,0.000000,0.000000,0.000000,70.000000,0.000000,0.000000,0.000000,0.000000,0.000000,0.000000,0.000000,0.084806,0.077174,0.000000,0.000000,0.000000,70.000000,0.000000,0.000000,0.000000,0.000000,0.000000,0.000000,0.000000;
#CREDIT:;
#NOTES:
0000
0000
0000
0000
,
0000
0000
0000
0000
,
0000
0000
0000
0000
,
0000
0000
0000
0000
,
1000
0000
1000
0000
,
1000
0000
0000
0000
,
0001
0000
0001
0000
,
0001
0000
0000
0000
,
0100
0000
0100
0000
,
0100
0000
0000
0000
,
0010
0000
0010
0000
,
0010
0000
0000
0000
,
1000
0000
1000
0000
,
0100
0000
0000
0000
,
0010
0000
0010
0000
,
0001
0000
0000
0000
,
0100
0000
0000
0000
,
0010
0000
0000
0000
,
1000
0000
0000
0000
,
0001
0000
0000
0000
,
1000
0000
1000
0000
,
0001
0000
0001
0000
,
0100
0000
0100
0000
,
0010
0000
0010
0000
,
1000
0000
1000
0000
,
0100
0000
0100
0000
,
0010
0000
0010
0000
,
0001
0000
0001
0000
,
1000
0000
0000
0000
,
0000
0000
0000
0000
,
0000
1000
0000
1000
,
0000
0001
0000
0001
,
0000
0100
0000
0100
,
0000
0010
0000
0010
,
0000
1000
0000
1000
,
0000
0100
0000
0100
,
0000
0010
0000
0010
,
0010
0000
0000
0000
,
0001
0000
0001
0000
,
0100
0000
0100
0000
,
0010
0000
0010
0000
,
1000
0000
1000
0000
,
0001
0000
0001
0000
,
0010
0000
0010
0000
,
0100
0000
0100
0000
,
1000
0000
1000
0000
;

//---------------dance-single - ----------------
#NOTEDATA:;
#CHARTNAME:;
#STEPSTYPE:dance-single;
#DESCRIPTION:;
#CHARTSTYLE:;
#DIFFICULTY:Easy;
#METER:3;
#RADARVALUES:0.138113,0.155195,0.008481,0.025442,0.000000,110.000000,1.000000,3.000000,0.000000,0.000000,0.000000,0.000000,0.000000,0.138113,0.155195,0.008481,0.025442,0.000000,110.000000,1.000000,3.000000,0.000000,0.000000,0.000000,0.000000,0.000000;
#CREDIT:;
#NOTES:
0000
0000
0000
0000
,
0000
0000
0000
0000
,
0000
0000
0000
0000
,
0000
0000
0000
0000
,
1000
0000
0001
0000
,
0100
0000
0000
0000
,
0001
0000
1000
0000
,
0010
0000
0000
0000
,
1000
0000
0100
0000
,
0010
0000
0000
0000
,
0001
0000
0100
0000
,
0010
0000
0000
0000
,
1000
1000
0100
0000
,
1000
1000
1000
0000
,
0001
0001
0100
0000
,
0001
0001
0001
0000
,
1000
0000
0001
0000
,
0100
0000
0010
0000
,
1000
0000
0100
0000
,
0020
0000
0000
0030
,
0001
0001
1000
0000
,
0001
0001
1000
0000
,
1000
1000
0001
0000
,
1000
1000
0001
0000
,
0100
0100
0010
0000
,
0100
0100
0010
0000
,
0010
0010
0100
0000
,
0010
0010
0100
0000
,
2002
0000
0000
0000
,
0000
0000
0000
3003
,
1000
0001
1000
0001
,
0100
0010
0100
0010
,
0000
1000
0100
1000
,
0100
0010
0010
0010
,
0001
0100
0001
0100
,
0010
0010
0100
0100
,
0000
0001
0010
0100
,
1000
1000
1000
0000
,
0001
1000
0001
0000
,
1000
0001
1000
0000
,
0100
0010
0100
0000
,
0010
0100
0010
0000
,
0001
0010
0100
0000
,
1000
0010
0100
0000
,
0001
0010
0100
0000
,
1000
0010
0100
0100
;

//---------------dance-single - ----------------
#NOTEDATA:;
#CHARTNAME:;
#STEPSTYPE:dance-single;
#DESCRIPTION:;
#CHARTSTYLE:;
#DIFFICULTY:Medium;
#METER:4;
#RADARVALUES:0.221707,0.272334,0.050884,0.033922,0.000000,173.000000,6.000000,4.000000,0.000000,0.000000,0.000000,0.000000,0.000000,0.221707,0.272334,0.050884,0.033922,0.000000,173.000000,6.000000,4.000000,0.000000,0.000000,0.000000,0.000000,0.000000;
#CREDIT:;
#NOTES:
0000
0000
0000
0000
,
0000
0000
0000
0000
,
0000
0000
0000
0000
,
0000
0000
0000
0000
,
1000
0001
0100
0000
,
0001
1000
0010
0000
,
1000
0100
0010
0000
,
0001
0100
0010
0000
,
1000
0010
0100
0000
,
0001
0010
0100
0000
,
1000
0001
0100
0000
,
0001
1000
0010
0000
,
1000
0000
0100
0000
0010
0010
0010
0000
,
0001
0000
0100
0000
0010
0010
0010
0000
,
1000
0000
0010
0000
0100
0100
0100
0000
,
0001
0000
0010
0000
0100
0100
0100
0000
,
1000
0000
1000
0000
0001
0001
0001
0000
,
0001
0000
0001
0000
1000
1000
1000
0000
,
0010
0000
0010
0000
0100
0100
0100
0000
,
2002
0000
0000
3003
,
1000
0100
0010
0001
,
0001
0100
0010
1000
,
1000
0010
0100
0001
,
0001
0010
0100
1000
,
1000
0100
0001
0100
,
1000
0010
0001
0010
,
0001
0010
1000
0100
,
0001
0100
1000
0010
,
2002
0000
0000
0000
,
0000
0000
0000
3003
,
1000
0000
0100
0000
0010
0001
0100
0000
,
0010
0000
0100
0000
0001
0010
0100
0000
,
1000
0000
0001
0000
1000
0010
0100
0000
,
0010
1001
0000
1001
0000
1001
0000
1001
,
0001
0000
1000
0000
0100
0010
0100
0000
,
1000
0000
0010
0000
0100
0001
0100
0000
,
0010
0000
1000
0000
0100
0010
0100
0000
,
1000
1000
0001
0001
,
1000
0000
0100
0000
0010
0001
0100
0000
,
0010
0000
0100
0000
0001
0010
0100
0000
,
1000
0000
0100
0000
0001
0100
1000
0000
,
0001
0000
0100
0000
1000
0100
0001
0000
,
1000
0000
0100
0000
0010
0001
0010
0000
,
0001
0000
0100
0000
0010
1000
0010
0000
,
1000
0000
0010
0000
0100
0001
1000
0000
,
0001
0000
0010
0000
0100
1000
0001
0001
;

//---------------dance-single - ----------------
#NOTEDATA:;
#CHARTNAME:;
#STEPSTYPE:dance-single;
#DESCRIPTION:;
#CHARTSTYLE:;
#DIFFICULTY:Hard;
#METER:9;
#RADARVALUES:0.437357,0.550604,0.144170,0.093287,0.449473,333.000000,17.000000,11.000000,0.000000,0.000000,0.000000,0.000000,0.000000,0.437357,0.550604,0.144170,0.093287,0.449473,333.000000,17.000000,11.000000,0.000000,0.000000,0.000000,0.000000,0.000000;
#CREDIT:;
#NOTES:
// measure 0
0000
0000
0000
0000
,  // measure 1
0000
0000
0000
0000
,  // measure 2
0000
0000
0000
0000
,  // measure 3
0000
0000
0000
0000
,  // measure 4
1000
0000
0000
0100
0000
0000
0001
0000
0000
0100
0000
0000
1000
0000
0000
0000
,  // measure 5
0001
0000
0000
0100
0000
0000
1000
0000
0000
0100
0000
0000
0001
0000
1000
0000
,  // measure 6
0001
0000
0000
0010
0000
0000
1000
0000
0000
0010
0000
0000
0001
0000
0000
0000
,  // measure 7
1000
0000
0000
0010
0000
0000
0001
0000
0000
0010
0000
0000
1000
0000
0001
0000
,  // measure 8
1000
0000
0000
0100
0000
0000
0010
0000
0000
0001
0000
0000
1000
0000
0000
0000
,  // measure 9
0001
0000
0000
0010
0000
0000
0100
0000
0000
1000
0000
0000
0001
0000
1000
0000
,  // measure 10
0001
0000
0000
0100
0000
0000
0010
0000
0000
1000
0000
0000
0001
0000
0000
0000
,  // measure 11
1000
0000
0000
0010
0000
0000
0100
0000
0000
0001
0000
0000
1000
0000
0001
0000
,  // measure 12
1000
0000
0000
0100
0010
0000
0001
0000
0200
0010
0000
0000
0310
0000
0000
0000
,  // measure 13
1000
0000
0000
0010
0100
0000
0001
0000
0010
0200
0000
0000
0010
0000
0310
0000
,  // measure 14
0001
0000
0000
0010
0100
0000
1000
0000
0002
1000
0000
0000
1003
0000
0000
0000
,  // measure 15
1000
0000
0000
0010
0100
0000
0001
0000
1000
0002
0000
0000
1000
0000
1003
0000
,  // measure 16
0001
0000
1000
0001
0000
0000
0100
0000
0001
0000
1000
0010
0000
0000
0100
0001
,  // measure 17
0100
0000
0001
0010
0000
0000
0100
0000
1000
0000
0010
1000
0000
0000
0010
0100
,  // measure 18
0001
0000
0100
0010
0000
0000
1000
0000
0100
0000
0010
0100
0000
0000
1000
0001
,  // measure 19
2000
0000
0000
3000
,  // measure 20
0001
0000
0100
0010
0100
0000
0001
0000
1000
0000
0100
0010
0100
0000
1000
0000
,  // measure 21
0001
0000
1000
0010
1000
0000
0001
0000
1000
0000
0001
0010
0001
0000
1000
0000
,  // measure 22
0001
0000
0100
1000
0100
0000
0001
0000
1000
0000
0100
0001
0100
0000
1000
0000
,  // measure 23
0001
0000
0010
0100
0010
0000
0001
0000
1000
0000
0010
0100
0010
0000
1000
0000
,  // measure 24
0001
0000
0010
0100
1000
0000
0001
0000
1000
0000
0100
0010
0001
0000
1000
0000
,  // measure 25
0001
0000
0100
0010
1000
0000
0001
0000
1000
0000
0010
0100
0001
0000
1000
0000
,  // measure 26
0001
0000
0010
0100
0010
0000
0100
0000
1000
0000
0010
0100
0010
0000
0100
0000
,  // measure 27
0001
0000
1000
0100
0010
0001
0010
0100
0000
0100
0000
1000
0001
0000
0001
0000
,  // measure 28
1002
0000
0000
0000
,  // measure 29
0000
0000
0000
0000
0000
2003
0000
0000
,  // measure 30
3001
0000
0011
0000
0110
0000
1100
0000
0110
0000
0011
0000
0001
0100
0001
0100
,  // measure 31
0010
0000
1000
0100
0010
0100
0010
0000
0100
1000
0010
1000
0100
0000
1001
0000
,  // measure 32
1000
0000
0001
1000
0010
0000
0100
0000
0001
0000
0000
0000
0001
0010
0100
0010
,  // measure 33
0001
1001
0000
1001
0000
1001
0000
1001
,  // measure 34
1000
0010
0100
0010
0100
0000
0001
0010
0100
0010
0001
0000
0100
0010
0100
0010
,  // measure 35
1000
0000
0100
0010
0000
0100
0010
0000
0001
0000
0000
0000
1000
0010
0100
0010
,  // measure 36
1000
0000
0001
0010
0100
0000
0010
0000
0001
0000
0000
0000
1000
0010
0100
0010
,  // measure 37
2000
0000
0000
0100
0000
0000
3002
0000
0000
0100
0000
0000
1003
0000
0000
0000
,  // measure 38
1001
0000
0000
0000
1000
0100
0010
0000
0001
0000
0000
0000
0001
0100
0010
1000
,  // measure 39
0000
0000
0001
0010
0100
0000
0000
0010
0000
0010
0000
0001
0100
0000
0100
0000
,  // measure 40
0110
0000
0000
0000
0010
1000
0100
0000
0010
0000
0000
0000
0010
0001
0100
0010
,  // measure 41
0000
0000
0010
1000
0100
1000
0001
0100
0000
0100
0000
0001
1000
0000
1000
0000
,  // measure 42
1010
0000
0000
0000
0010
0100
0001
0000
0011
0000
0000
0000
0001
0010
0100
1000
,  // measure 43
0000
0000
1000
0010
0100
0000
0000
0001
0000
0001
0000
0010
0100
0000
0100
0000
,  // measure 44
1100
0000
0000
0000
1000
0010
0100
0000
0101
0000
0000
0000
0001
0100
0010
1000
,  // measure 45
0000
0000
0001
0010
0100
1000
0100
0010
0000
0010
0000
0002
1000
0000
2000
0000
,  // measure 46
0000
0000
0000
3003
0000
0000
0000
0000
;
