#TITLE:Last Friday Night;
#SUBTITLE:(T.G.I.F.);
#ARTIST:Woe, Is Me;
#TITLETRANSLIT:;
#SUBTITLETRANSLIT:;
#ARTISTTRANSLIT:;
#GENRE:;
#CREDIT:;
#BANNER:Last Friday Night (T.G.I.F.) - Woe, Is Mebn.png;
#BACKGROUND:Last Friday Night (T.G.I.F.) - Woe, Is Mebg.png;
#LYRICSPATH:Last Friday Night (T.G.I.F.) - Woe, Is Me.lrc;
#CDTITLE:encorerebirth.png;
#MUSIC:Last Friday Night (T.G.I.F.) - Woe, Is Me.ogg;
#OFFSET:0.000;
#SAMPLESTART:87.127;
#SAMPLELENGTH:14.102;
#SELECTABLE:YES;
#BPMS:0.000=135.000
,32.000=67.500
,33.000=135.000
,129.000=67.500
,137.000=101.250
,146.000=45.000
,147.000=135.000
,246.000=67.500
;
#STOPS:32.000=1.333
;
#BGCHANGES:;
#KEYSOUNDS:;
#ATTACKS:;

//---------------dance-single - Spork!----------------
#NOTES:
     dance-single:
     :
     Beginner:
     2:
     0.131,0.178,0.074,0.108,0.000,89.000,9.000,13.000,0.000,0.000,0.000,0.131,0.178,0.074,0.108,0.000,89.000,9.000,13.000,0.000,0.000,0.000: // measure 0
0000
0000
0000
0000
,  // measure 1
0000
0000
0000
0000
,  // measure 2
0000
0000
0000
0000
,  // measure 3
0000
0000
0000
0000
,  // measure 4
0001
0001
0000
0000
,  // measure 5
0010
0010
0000
0000
,  // measure 6
0100
0100
0000
0000
,  // measure 7
1000
1000
0000
0000
,  // measure 8
0000
0001
0000
0100
,  // measure 9
0000
0001
0000
0010
,  // measure 10
0000
0200
0000
0000
,  // measure 11
0300
0200
0000
0000
,  // measure 12
0300
1000
0000
0010
,  // measure 13
0000
1000
0000
0100
,  // measure 14
0000
0020
0000
0000
,  // measure 15
0030
0000
0010
0010
,  // measure 16
0000
0001
0000
0100
,  // measure 17
0000
0100
0000
0010
,  // measure 18
0000
0010
0000
1000
,  // measure 19
0000
0000
0010
0010
,  // measure 20
0000
1000
0000
0100
,  // measure 21
0000
0100
0000
0010
,  // measure 22
0000
0010
0000
0001
,  // measure 23
0000
0000
0100
0100
,  // measure 24
0000
0001
0000
0000
,  // measure 25
0000
0010
0000
0000
,  // measure 26
0000
0002
0000
0000
,  // measure 27
0000
0003
0000
0000
,  // measure 28
0000
1000
0000
0000
,  // measure 29
0000
0010
0000
0000
,  // measure 30
0000
2000
0000
0000
,  // measure 31
0000
3000
0000
0000
,  // measure 32
0000
0001
0000
0010
,  // measure 33
0000
0100
0000
1000
,  // measure 34
0000
2000
0000
3000
,  // measure 35
0002
0000
0003
2000
,  // measure 36
0000
3000
0000
0110
,  // measure 37
0000
0000
0000
0110
,  // measure 38
0000
0000
0000
1001
,  // measure 39
0000
0000
0000
1001
,  // measure 40
0000
0000
0110
0000
,  // measure 41
0000
0000
1001
0000
,  // measure 42
0000
0000
0110
0000
,  // measure 43
0000
0000
2002
0000
,  // measure 44
0000
0000
3003
0001
,  // measure 45
0001
0000
1000
0000
,  // measure 46
0100
0000
0100
0000
,  // measure 47
0010
0000
0010
0000
,  // measure 48
0001
0000
0000
1000
,  // measure 49
1000
0000
0001
0000
,  // measure 50
0100
0000
0100
0000
,  // measure 51
0010
0000
0010
0000
,  // measure 52
1000
0000
0000
0001
,  // measure 53
0001
0000
2002
0000
,  // measure 54
3003
0000
0000
0000
,  // measure 55
0100
0000
0010
0000
,  // measure 56
0100
0000
0000
0000
,  // measure 57
0001
0000
1000
0000
,  // measure 58
0100
0000
1000
0000
,  // measure 59
0001
0000
0100
0000
,  // measure 60
0001
0000
0010
0000
,  // measure 61
0200
0000
0300
0000
;

//---------------dance-single - Spork!----------------
#NOTES:
     dance-single:
     :
     Easy:
     5:
     0.293,0.305,0.232,0.190,0.000,197.000,28.000,23.000,0.000,0.000,0.000,0.293,0.305,0.232,0.190,0.000,197.000,28.000,23.000,0.000,0.000,0.000: // measure 0
0000
0000
0000
0000
,  // measure 1
0000
0000
0000
0000
,  // measure 2
0000
0000
0000
0000
,  // measure 3
0000
0000
0000
0000
,  // measure 4
0011
0020
0001
0030
,  // measure 5
1001
2000
0001
3000
,  // measure 6
1010
0020
1000
0030
,  // measure 7
1001
0002
1000
0003
,  // measure 8
0110
0001
0001
0010
,  // measure 9
0000
0100
0100
0010
,  // measure 10
0000
0001
0100
0010
,  // measure 11
0100
0001
1000
0020
,  // measure 12
0000
1030
1000
0100
,  // measure 13
1000
0010
0010
0100
,  // measure 14
0001
0010
0010
0001
,  // measure 15
1000
0200
0010
0310
,  // measure 16
0000
0011
0001
0010
,  // measure 17
0100
0110
0010
0100
,  // measure 18
1000
1100
0100
1000
,  // measure 19
0001
0200
0010
0310
,  // measure 20
0000
1010
1000
0010
,  // measure 21
0100
0110
0010
0100
,  // measure 22
0001
0000
0101
0000
0000
0011
0000
0000
,  // measure 23
1001
0002
1000
1003
,  // measure 24
0000
1001
0000
0010
,  // measure 25
0001
0200
0000
0310
,  // measure 26
1000
0200
0010
1300
,  // measure 27
0001
1000
0010
0010
,  // measure 28
0100
1001
0000
0100
,  // measure 29
1000
0020
0000
0130
,  // measure 30
0001
0020
0100
0031
,  // measure 31
1000
0001
0001
1000
,  // measure 32
1000
0002
0010
0100
,  // measure 33
1003
2000
0010
0100
,  // measure 34
3001
0000
0001
0000
0000
0100
0000
0000
,  // measure 35
0010
0000
0000
1000
0000
0000
2002
0000
,  // measure 36
0000
0000
3003
0001
,  // measure 37
0010
0001
0100
0010
,  // measure 38
1000
0100
0100
1000
,  // measure 39
0010
1000
0100
0020
,  // measure 40
0100
0100
0031
0100
,  // measure 41
0001
0010
0100
1000
,  // measure 42
0001
0001
1000
0010
,  // measure 43
1000
0100
0200
0010
,  // measure 44
2000
0000
0300
0001
,  // measure 45
3001
0000
1100
1000
,  // measure 46
0100
0010
0110
0100
,  // measure 47
0010
0001
0011
0010
,  // measure 48
0001
1000
0020
0100
,  // measure 49
0130
0000
0101
0001
,  // measure 50
0100
0010
0110
0100
,  // measure 51
0010
1000
1010
1001
,  // measure 52
1001
1001
1001
1000
,  // measure 53
0001
0000
0220
0000
,  // measure 54
0330
0000
0000
0000
,  // measure 55
1000
0100
0010
0001
,  // measure 56
1001
0000
0000
1000
,  // measure 57
0001
0010
0100
0100
,  // measure 58
1000
1000
0010
0010
,  // measure 59
0100
0100
0001
0001
,  // measure 60
1000
1000
0001
0100
,  // measure 61
0020
0000
0030
0000
;

//---------------dance-single - Spork!----------------
#NOTES:
     dance-single:
     :
     Medium:
     7:
     0.374,0.382,0.182,0.190,0.046,271.000,22.000,23.000,0.000,0.000,0.000,0.374,0.382,0.182,0.190,0.046,271.000,22.000,23.000,0.000,0.000,0.000: // measure 0
0000
0000
0000
0000
,  // measure 1
0000
0000
0000
0000
,  // measure 2
0000
0000
0000
0000
,  // measure 3
0000
0000
0000
0000
,  // measure 4
1000
0010
0100
0000
0010
0000
1001
0000
,  // measure 5
0001
0010
0100
0000
0010
0001
0100
0000
,  // measure 6
0001
0100
0010
0000
0100
0000
1001
0000
,  // measure 7
1000
0100
0010
0000
0100
1000
0010
0000
,  // measure 8
0200
0301
0010
0101
,  // measure 9
0010
1000
0100
1010
,  // measure 10
0100
0000
0010
1000
0010
0000
1001
0000
,  // measure 11
0100
0000
0010
0001
0010
0000
0010
0000
,  // measure 12
0100
1000
0010
1100
,  // measure 13
0010
0001
0100
0011
,  // measure 14
0100
0000
0010
0001
0010
0000
0110
0000
,  // measure 15
0010
0002
1000
1003
,  // measure 16
0000
0000
1000
0000
0010
0000
0100
0001
,  // measure 17
0100
0010
0100
0000
0001
0000
0010
0100
,  // measure 18
0010
0001
0010
0000
0100
0000
1000
0100
,  // measure 19
1000
0001
2000
0000
0001
0000
3001
0000
,  // measure 20
0000
0000
0001
0000
0100
0000
0010
0100
,  // measure 21
0010
1000
0010
0000
1000
0000
0100
0010
,  // measure 22
0100
1000
0100
0000
0000
0100
0000
0100
,  // measure 23
0010
0100
2000
0000
0001
0000
3001
0000
,  // measure 24
0000
0201
0000
0310
,  // measure 25
1000
0200
0010
1300
,  // measure 26
1000
0010
0000
0010
0100
0000
0100
0010
,  // measure 27
0100
0001
1000
0001
,  // measure 28
0010
1200
0000
1300
,  // measure 29
0010
0200
0010
0301
,  // measure 30
1000
0000
0100
1000
0010
0000
0100
0001
,  // measure 31
1000
0001
0001
1000
,  // measure 32
1000
0200
1000
0001
,  // measure 33
1300
0020
1000
0001
,  // measure 34
1030
0000
0002
0000
0000
0203
0000
0000
,  // measure 35
2300
0000
0000
3200
0000
0000
0302
0000
,  // measure 36
0000
0023
0000
0000
0030
0000
0011
0000
,  // measure 37
0011
0000
0000
0001
0000
0000
0001
0000
1000
0000
0000
0000
1001
0000
0000
0000
,  // measure 38
1000
0100
1000
0000
0010
0000
0110
0000
,  // measure 39
0110
0000
0000
0100
0000
0000
0100
0000
0001
0000
0000
0000
1001
0000
0000
0000
,  // measure 40
0001
0010
0100
1000
0001
0000
0101
0000
,  // measure 41
0100
0000
0000
0001
0000
0000
0010
0000
0100
0000
0000
0000
0011
0000
0000
0000
,  // measure 42
0010
0001
1000
0010
1000
0000
1100
0000
,  // measure 43
0100
0000
0000
1000
0000
0000
0010
0000
0100
0000
0100
0000
0100
0000
0100
0000
,  // measure 44
0020
0000
2030
0001
,  // measure 45
3001
0000
0000
0000
1001
0000
1000
0100
,  // measure 46
1000
0010
0100
0001
1000
0000
0001
0010
,  // measure 47
0001
0100
0010
1000
0001
1000
1000
0010
,  // measure 48
1000
0100
0010
0001
0200
0000
0010
0000
,  // measure 49
0310
0000
0000
0000
0110
0000
0010
0100
,  // measure 50
0001
0010
1000
0010
0001
0000
0100
0010
,  // measure 51
1000
0100
0001
0100
1000
0000
0001
0010
,  // measure 52
0100
1000
0010
0100
0002
0000
1000
0000
,  // measure 53
1003
0000
0220
0000
,  // measure 54
0330
0000
0000
0000
0000
0000
0000
0010
,  // measure 55
1000
0000
0000
0000
1000
0000
0000
0000
0010
0000
0000
1000
0000
0000
0001
0000
,  // measure 56
0000
0000
0000
0000
0000
0000
0000
0010
,  // measure 57
0001
0000
0000
0000
0001
0000
0000
0000
1000
0000
0010
0000
0000
0010
0000
0000
,  // measure 58
0100
0000
0000
0100
0000
0000
0001
0000
0000
0001
0000
0000
0010
0000
0001
0000
,  // measure 59
0010
0000
0100
0000
1000
0000
1000
0000
0001
0000
0100
0000
0000
0100
0000
0000
,  // measure 60
0010
0000
0000
0010
0000
0000
1000
0000
0000
1000
0000
0000
0100
0000
0000
0000
,  // measure 61
0200
0000
0300
0000
;

//---------------dance-single - Spork!----------------
#NOTES:
     dance-single:
     :
     Challenge:
     12:
     0.793,0.850,0.455,0.166,1.000,596.000,55.000,20.000,3.000,0.000,3.000,0.793,0.850,0.455,0.166,1.000,596.000,55.000,20.000,3.000,0.000,3.000: // measure 0
0000
0000
0000
0000
,  // measure 1
0000
0000
0000
0000
,  // measure 2
0000
0000
0000
0000
,  // measure 3
0000
0000
0000
0000
,  // measure 4
1010
0000
0000
0000
0000
0000
1000
0000
0000
0000
0000
0000
0100
0000
0000
0000
0000
0000
1000
0000
0000
0000
0000
0000
0010
0000
0000
0000
0000
0000
0100
0000
0000
0001
0000
0000
0000
0000
0000
0000
0000
0000
0010
0000
0000
0000
0100
0000
,  // measure 5
0010
0000
0001
0000
0100
0000
0001
0000
0010
0000
0100
1000
0000
0000
0001
0001
,  // measure 6
1000
0000
0000
0000
0000
0000
0100
0000
0000
1000
0000
0000
0010
0000
0000
0000
0000
0000
0100
0000
0000
0000
0000
0000
0010
0000
0000
0000
0000
0000
1000
0000
0000
0001
0000
0000
0000
0000
0000
0000
0000
0000
0010
0000
0001
0000
0010
0000
,  // measure 7
0001
0000
1000
0000
0010
0000
1000
0000
0100
0000
0010
0100
0000
0000
0000
0000
,  // measure 8
M12M
0000
0130
0100
1000
0010
1000
0010
0000
0100
0000
0000
0101
0000
0000
0000
,  // measure 9
1001
0000
0000
0011
0000
0000
1010
0000
0000
0011
0000
0000
1001
0000
0001
0010
,  // measure 10
0000
0001
1000
0000
0010
0100
0010
0100
0000
0001
0000
0000
0011
0000
0000
0000
,  // measure 11
0110
0000
0000
1100
0000
0000
1001
0000
0001
0010
0001
0001
0100
0010
1000
1000
,  // measure 12
0100
0000
0000
1000
0000
0000
0010
0000
0000
0100
0000
0000
0001
0000
0000
0010
0000
0000
0100
0000
0000
1000
0000
0000
0000
0000
0000
0010
0000
0000
0000
0000
0000
0000
0000
0000
0100
0000
0010
0000
0100
0000
0010
0000
0000
0000
0000
0000
,  // measure 13
0110
0000
0000
0101
0000
0000
1100
0000
0000
0101
0000
0000
1001
0000
0001
0100
,  // measure 14
0001
1000
0001
0001
1000
0100
0010
0001
0000
0010
0000
0000
0110
0000
0000
0000
,  // measure 15
1100
0000
0000
0110
0000
0000
0011
0000
1001
0000
0100
1000
0010
0100
0010
1000
,  // measure 16
0001
0010
0001
0001
1000
0010
1000
0010
0100
0010
0100
0010
0100
0001
0100
0001
,  // measure 17
0010
0001
0010
0001
0010
0100
0010
0100
1000
0100
1000
0100
1000
0001
1000
0001
,  // measure 18
0100
0000
0001
0000
0100
0000
0010
0000
1000
0000
0001
0000
0100
0000
0000
0010
0000
0000
1000
0000
0000
0000
0000
0000
1000
0000
0000
0010
0000
0000
0100
0000
0000
0000
0000
0000
0001
0000
0000
0000
0000
0000
0010
0000
0000
0001
0000
0000
,  // measure 19
1000
0001
0100
0010
1000
0001
0010
0000
0010
0001
1000
0000
1000
0100
0010
0001
,  // measure 20
0010
0001
1000
0100
1000
0010
0100
0001
0010
0000
0100
0000
0001
0000
0100
0000
,  // measure 21
1000
0001
0101
0100
0010
0001
0010
1000
,  // measure 22
0100
0000
1000
0010
1010
0000
1000
0000
0001
0000
0011
0000
0010
0000
0100
0000
,  // measure 23
0110
0000
1001
0000
0001
0000
0010
0001
0000
1000
0001
0000
0010
0001
0100
0010
,  // measure 24
0100
0000
0000
0001
0000
0000
0010
0000
0001
0000
1000
0000
0040
0000
0000
0000
0000
0000
0000
0000
0000
0000
0000
0000
0000
0000
0000
0000
0000
0000
0000
0000
0000
0000
0000
0000
0000
0000
0000
0000
0000
0000
0100
0000
0000
0000
0000
0000
,  // measure 25
1000
0200
0000
0000
0000
0000
0000
0300
,  // measure 26
0001
0100
0000
0100
1000
1000
0100
0001
,  // measure 27
0000
0000
0230
0000
0010
0000
1000
0000
0301
0000
0010
0001
0100
0000
0001
0000
,  // measure 28
0000
0001
0040
0000
0000
0000
0000
0100
,  // measure 29
0001
0200
0000
0000
0000
0000
0000
0300
,  // measure 30
1000
0100
0000
0100
0001
0000
1000
0001
,  // measure 31
0000
0000
0130
0000
0010
0000
0010
0000
0100
0000
0100
0000
1000
0001
1000
0001
,  // measure 32
1000
1000
0001
0001
1000
0100
1000
0010
1000
0001
0100
0010
0000
0010
0100
0001
,  // measure 33
0010
0100
1000
0010
0100
0000
0010
0100
0001
0010
0000
0001
0000
0100
0000
0001
,  // measure 34
1000
0000
0000
0000
1001
0000
0000
0000
0011
0000
0000
0001
0000
0000
0100
0000
0000
0001
0000
0000
0010
0000
0000
0100
0000
0000
0010
0000
0000
0000
0000
0000
,  // measure 35
0100
0000
0000
0000
0000
0000
1000
0000
0000
0000
0000
0000
0010
0000
0000
0000
0000
0000
0100
0000
0000
0000
0000
0000
0001
0000
0000
0000
0000
0000
0010
0000
0000
0000
0000
0000
0100
0000
0000
0000
0000
0000
0010
0000
0000
0000
0000
0000
0001
0000
0000
0010
0000
0000
0001
0000
0000
0010
0000
0000
0000
0000
0000
0010
,  // measure 36
0000
0000
0000
0000
0000
0000
0100
0000
0000
0000
0000
0000
0000
0000
0000
1000
0000
0000
0000
0000
0000
0000
0000
0000
0010
0000
0000
0000
0000
0000
0000
0000
0000
0100
0000
0000
0000
0000
0000
0000
0000
0000
0010
0000
0000
0000
0000
0000
0000
0000
0000
0100
0000
0000
0000
0000
0000
0000
0000
0000
0001
0000
0000
0000
0000
0000
0000
0000
0000
0001
0000
0000
0000
0000
0000
0000
0000
0000
1000
0000
0000
0000
0000
0000
0000
0000
0000
1000
0000
0000
0000
0000
0000
0000
0000
0000
0000
0000
0000
0000
0000
0000
0000
0000
0001
0000
0000
0000
0000
0000
0000
0000
1000
0000
0000
0000
0000
0000
0000
0000
0010
0000
0000
0000
1000
0000
0000
0000
0010
0000
0000
0000
1000
0000
0000
0000
0000
0000
0000
0000
0001
0000
0000
0000
1000
0000
0000
0000
0000
0000
0000
0000
0000
0000
0000
0000
0100
0000
0000
0000
0000
0000
0000
0000
0000
0000
0000
0000
0000
0000
0000
0000
0000
0000
0000
0000
0000
0000
0000
0000
0000
0000
0000
0000
0000
0000
0000
0000
0000
0000
0000
0000
,  // measure 37
1100
0000
0000
0000
0000
0000
0000
0000
0000
0102
0000
0000
0000
0000
0000
0000
0000
0000
1003
0000
0100
0000
0010
0000
0001
0000
0000
0000
0000
0000
0100
0000
0000
0000
0000
0000
0001
0000
0000
0010
0000
0000
0000
0000
0000
0000
0000
0000
,  // measure 38
0110
0000
0010
0001
0101
0000
0010
1000
1100
0000
1000
0000
0001
0100
0000
0000
,  // measure 39
0011
0000
0000
0000
0000
0000
0000
0000
0000
2010
0000
0000
0000
0000
0000
0000
0000
0000
3001
0000
0010
0000
0001
0000
0010
0000
0000
0000
0000
0000
0100
0000
0000
0000
0000
0000
1000
0000
0000
0010
0000
0000
1000
0000
0010
0000
0100
0000
,  // measure 40
0010
0000
1000
0000
0001
0000
0100
0000
0001
0000
1000
0000
0001
0000
0000
1000
0000
0000
0010
0000
0000
1000
0000
0000
0100
0000
0000
0000
0000
0000
0110
0000
0000
0000
0000
0000
0010
0000
0000
0001
0000
0000
0000
0000
0000
0000
0000
0000
,  // measure 41
0011
0000
0000
0000
0000
0000
0000
0000
0000
2010
0000
0000
0000
0000
0000
0000
0000
0000
3001
0000
0010
0000
0100
0000
1000
0000
0000
0000
0000
0000
0010
0000
0000
0000
0000
0000
1000
0000
0000
0100
0000
0000
0000
0000
0000
0000
0000
0000
,  // measure 42
0110
0000
0100
1000
1010
0000
0100
0001
0011
0000
0010
0000
0001
1000
0000
0000
,  // measure 43
1100
0000
0000
0000
0000
0000
0000
0000
0000
0102
0000
0000
0000
0000
0000
0000
0000
0000
1003
0000
0010
0000
1000
0000
0100
0000
0010
0000
0001
0000
0010
0000
0100
0000
0010
0000
0001
0000
1000
0000
0001
0000
0100
0000
0001
0000
0100
0000
,  // measure 44
0010
1000
0000
0000
1000
0010
0100
0001
0020
0000
0000
0000
0100
0000
0000
0000
,  // measure 45
0430
0000
0000
0000
0000
0000
0000
0000
0310
0001
0010
0001
0100
0001
0100
0001
,  // measure 46
0100
0010
0100
0010
1000
0010
1000
0010
1000
0100
1000
0100
0010
0100
0010
0100
,  // measure 47
0010
0000
0000
0001
0000
0000
0010
0000
0000
0001
0000
0000
1000
0000
0001
0000
1000
0000
0100
0000
1000
0000
0010
0000
0100
0000
0000
0001
0000
0000
0010
0000
0000
0000
0000
0000
0010
0000
0000
0001
0000
0000
1000
0000
0000
0000
0000
0000
,  // measure 48
1100
0000
0100
1000
0001
0000
0010
0000
0100
0010
0001
0000
0010
0001
0100
0000
,  // measure 49
0001
0010
0100
1000
0010
0100
0010
1000
0001
0000
0001
0010
0001
0000
0010
0000
,  // measure 50
1000
0010
0100
1000
1100
0100
1000
0010
,  // measure 51
0001
0000
0010
0000
0100
0000
0001
1000
1001
0000
0100
0000
1010
0000
0100
0000
,  // measure 52
0011
0000
0100
0000
1001
0000
0010
0000
0101
0000
0001
0010
0000
0000
0010
0100
,  // measure 53
1000
1000
0010
0010
1000
1000
0001
0001
1000
0100
1000
0100
0000
0100
0010
0000
,  // measure 54
2200
0000
0000
0000
3300
0000
0000
0000
0202
0000
0000
0000
0303
0000
0000
0100
,  // measure 55
0001
0000
0010
0000
0100
0010
0100
1000
0001
0100
0001
0100
0000
0100
0010
0000
,  // measure 56
0210
0000
0020
0300
2000
0030
0002
3000
0020
0003
0200
0030
0010
0300
0010
0001
,  // measure 57
1000
0000
1001
0000
1000
0100
0001
0100
1000
0010
1000
0010
0000
0010
0100
0000
,  // measure 58
0100
0000
0000
0001
0000
0000
0000
0000
0000
0001
0000
0000
0010
0000
0000
0000
0000
0000
0010
0000
0000
0100
0000
0000
0000
0000
0000
0100
0000
0000
1000
0000
0000
0000
0000
0000
1000
0000
0000
0001
0000
0000
0010
0000
0001
0000
0010
0000
,  // measure 59
0001
0000
0100
0000
0010
0100
0010
1000
0001
0010
0001
0010
0000
0010
0100
0000
,  // measure 60
0100
0000
0000
1000
0000
0000
0000
0000
0000
1000
0000
0000
0010
0000
0000
0000
0000
0000
0010
0000
0000
0100
0000
0000
0000
0000
0000
0100
0000
0000
0001
0000
0000
0000
0000
0000
0010
0000
0000
0000
0000
0000
0001
0000
0100
0000
0001
0000
,  // measure 61
2000
0000
0000
0000
0001
0000
0000
0000
0001
0000
0000
0001
0000
0000
0001
0000
3000
0000
0000
0000
0000
0000
0000
0000
0000
0000
0000
0000
0000
0000
0000
0000
,  // measure 62
0000
0M00
0000
0000
;

//---------------dance-single - Spork!----------------
#NOTES:
     dance-single:
     :
     Hard:
     9:
     0.579,0.611,0.356,0.232,0.298,419.000,43.000,28.000,0.000,0.000,0.000,0.579,0.611,0.356,0.232,0.298,419.000,43.000,28.000,0.000,0.000,0.000: // measure 0
0000
0000
0000
0000
,  // measure 1
0000
0000
0000
0000
,  // measure 2
0000
0000
0000
0000
,  // measure 3
0000
0000
0000
0000
,  // measure 4
1010
0000
0001
0000
0010
0000
0100
0000
0010
0000
0010
0001
0000
0000
0000
0000
,  // measure 5
1001
0000
0100
0000
1000
0000
0010
0000
0100
0000
0100
0010
0000
0000
0000
0000
,  // measure 6
0101
0000
1000
0000
0100
0000
0010
0000
0001
0000
0001
1000
0000
0000
1000
0000
,  // measure 7
1001
0000
0010
0000
0001
0000
0100
0000
0010
0000
0010
0100
0000
0000
0000
0000
,  // measure 8
0120
0000
1030
0100
0001
0100
2000
0000
,  // measure 9
3010
0000
0000
0110
0000
0000
0101
0000
0000
1001
0000
0000
0011
0000
0010
0001
,  // measure 10
0000
0001
0010
0000
0001
0000
0100
0000
1000
0000
0100
0000
0002
0000
0000
0000
,  // measure 11
0013
0000
0000
0110
0000
0000
1100
0000
1000
0000
1000
0000
0001
0000
0001
0000
,  // measure 12
0100
0100
0001
0010
1000
0010
0002
0000
,  // measure 13
0103
0000
0000
0101
0000
0000
1100
0000
0000
0101
0000
0000
1001
0000
0001
1000
,  // measure 14
0000
1000
0001
0000
1000
0000
0010
0000
0001
0000
0010
0000
2000
0000
0000
0000
,  // measure 15
3100
0000
0020
0000
0100
0000
0130
0010
,  // measure 16
0000
0010
0001
0100
0001
0010
1000
0010
,  // measure 17
0001
0100
0101
0001
1000
0100
0001
0100
,  // measure 18
1000
0010
1010
1000
1100
0100
1000
0010
,  // measure 19
0100
0001
0021
0000
0100
0000
0130
1000
,  // measure 20
0000
0000
1000
0000
0001
0000
0010
0001
0010
0000
0001
0000
0100
0000
0010
0000
,  // measure 21
1000
0000
0001
0000
0010
0000
0100
0010
0100
0000
0010
0000
0001
0000
0100
0000
,  // measure 22
0010
0000
1000
0000
0100
0000
0100
1000
0010
0000
0100
0000
0100
0001
0010
0000
,  // measure 23
0100
1000
0002
0000
1000
0000
1003
0001
,  // measure 24
0000
0000
1001
1000
0100
1000
0010
0100
,  // measure 25
0001
0020
0001
0000
1000
0000
0130
0010
,  // measure 26
0001
2000
0000
3001
0100
1000
0010
0002
,  // measure 27
0000
0103
0010
0010
0100
0001
0010
0100
,  // measure 28
1000
0010
1001
0001
0100
0001
0010
0100
,  // measure 29
1000
0020
1000
0000
0001
0000
0130
0010
,  // measure 30
1000
0002
0000
1003
0100
0001
0010
2000
,  // measure 31
0000
0000
3100
0000
0010
0000
0010
0000
0100
0000
0100
0000
1000
0001
1000
0001
,  // measure 32
1000
0001
1000
0001
0100
0000
0001
0000
0020
0000
0130
0000
0011
0000
0001
0000
,  // measure 33
2000
3010
1100
1000
0020
0130
1010
1000
,  // measure 34
0002
0000
0103
0000
0011
0000
0000
1001
0000
0000
1010
0000
0000
1001
0000
0000
,  // measure 35
0100
0000
0000
0001
0000
0000
0010
0000
0000
0001
0000
0000
1000
0000
0000
0010
0000
0000
1000
0000
0000
0200
0000
0000
0010
0000
0000
0000
0000
0000
0010
0000
,  // measure 36
0000
0000
0010
0000
0000
0020
0000
0000
0330
0000
0000
0000
0001
0100
0000
0000
,  // measure 37
0101
0000
0000
0100
0000
0000
0010
0100
0010
0000
1000
0000
0010
1000
0000
0000
,  // measure 38
1001
0000
0001
0010
0001
0000
0100
0001
0100
0000
0001
0000
1000
0100
0000
0000
,  // measure 39
1100
0000
0000
0100
0000
0000
0010
0100
0010
0000
0001
0000
0100
0001
0000
0000
,  // measure 40
0001
0000
0010
0000
1000
0000
0010
0100
0010
0000
0001
0000
0100
0010
0000
0000
,  // measure 41
1010
0000
0000
1001
0000
0000
0001
1000
0001
0000
0010
0000
0001
0100
0000
0000
,  // measure 42
0001
0000
0010
0001
0100
0000
0010
1000
0100
0000
1000
0000
0010
0100
0000
0000
,  // measure 43
0101
0000
0000
1001
0000
0000
1000
0001
1000
0000
0010
0000
1000
0000
0100
0000
,  // measure 44
0020
0000
0230
0010
,  // measure 45
0310
0100
0000
0100
1000
0001
1000
0010
,  // measure 46
0001
0010
1000
0100
1001
0010
0001
0100
,  // measure 47
1000
0100
0001
0010
1001
0010
0001
1000
,  // measure 48
0100
1000
0010
0100
0120
0000
0100
0000
,  // measure 49
0130
0000
0010
0000
0000
0000
0010
0000
1000
0000
0001
0100
0001
0000
0010
0000
,  // measure 50
0001
0000
0100
0000
0010
0000
1000
0000
0100
0000
1000
0010
1000
0000
0100
0000
,  // measure 51
0010
0001
0100
0001
1000
0001
0011
0010
,  // measure 52
0110
0100
1100
1000
1020
0000
0100
0000
,  // measure 53
0130
0010
0000
0000
2002
0000
0000
0000
,  // measure 54
3003
0000
0000
0000
0000
0000
0000
0000
0000
0000
0000
0000
0000
0000
0000
1000
,  // measure 55
0100
0000
1000
0000
0001
0000
1000
0000
0010
0000
0100
0001
0000
0001
1000
0000
,  // measure 56
0200
0000
0000
0000
0310
0000
0000
0001
,  // measure 57
0100
0000
0001
0000
1000
0001
1000
0001
1000
0000
1000
0100
0000
0100
1000
0000
,  // measure 58
1000
0010
0000
0010
0100
0000
0100
0001
0000
0001
1000
0000
0001
0000
0010
0100
,  // measure 59
0010
0100
0010
0000
0100
0000
1000
0000
0001
0000
0001
0100
0000
0100
0001
0000
,  // measure 60
0001
0010
0000
0010
0100
0000
0100
1000
0000
1000
0000
0000
0010
0000
0000
0000
,  // measure 61
0200
0000
0300
0000
;
