#VERSION:0.81;
#TITLE:LINN 1999;
#SUBTITLE:;
#ARTIST:dj nagureo;
#TITLETRANSLIT:;
#SUBTITLETRANSLIT:;
#ARTISTTRANSLIT:;
#GENRE:;
#ORIGIN:;
#CREDIT:DigiMindAxel;
#BANNER:LINN 1999.png;
#BACKGROUND:LINN 1999-bg.png;
#PREVIEWVID:;
#JACKET:LINN 1999-jacket.png;
#CDIMAGE:;
#DISCIMAGE:;
#LYRICSPATH:;
#CDTITLE:beatmania.png;
#MUSIC:LINN 1999.mp3;
#OFFSET:-4.080000;
#SAMPLESTART:32.324986;
#SAMPLELENGTH:12.000000;
#SELECTABLE:YES;
#BPMS:0.000=136.000;
#STOPS:;
#DELAYS:;
#WARPS:;
#TIMESIGNATURES:0.000=4=4;
#TICKCOUNTS:0.000=4;
#COMBOS:0.000=1;
#SPEEDS:0.000=1.000=0.000=0;
#SCROLLS:0.000=1.000;
#FAKES:;
#LABELS:0.000=Song Start;
#BGCHANGES:;
#KEYSOUNDS:;
#ATTACKS:
;

//---------------dance-single - ----------------
#NOTEDATA:;
#CHARTNAME:;
#STEPSTYPE:dance-single;
#DESCRIPTION:;
#CHARTSTYLE:;
#DIFFICULTY:Easy;
#METER:4;
#RADARVALUES:0.258998,0.234092,0.000000,0.109878,0.000000,124.000000,0.000000,8.000000,0.000000,0.000000,0.000000,0.000000,0.000000,0.258998,0.234092,0.000000,0.109878,0.000000,124.000000,0.000000,8.000000,0.000000,0.000000,0.000000,0.000000,0.000000;
#CREDIT:;
#NOTES:
1000
1000
0001
0001
,
1000
1000
0001
0001
,
0100
0100
0010
0010
,
0200
0300
0020
0030
,
1000
1000
0100
0000
,
0001
0001
0100
0000
,
1000
1000
0010
0000
,
0001
0001
0010
0010
,
2000
0000
0000
0000
,
0000
0000
0000
3000
,
0001
0001
0010
0010
,
0100
0100
1000
1000
,
0002
0000
0000
0000
,
0000
0000
0000
0003
,
1000
1000
0010
0010
,
0100
0100
0001
0001
,
1000
0100
1000
0000
,
0001
0100
0001
0000
,
2000
0000
3020
0000
,
0130
0100
0001
0001
,
0010
0001
0010
0000
,
0100
1000
0100
0000
,
0020
0000
0032
0000
,
0103
0010
0100
0010
,
1000
1000
0100
0100
,
1000
1000
0001
0001
,
0100
0100
0010
0010
,
0100
0100
0001
0001
,
0010
0001
0100
0010
,
1000
0100
0010
0100
,
1000
0010
0100
0001
,
0010
0100
1000
0001
,
1000
1000
0100
0000
,
1000
1000
0010
0000
,
0100
0100
0001
0001
,
0010
0010
0001
0001
,
0100
0100
0001
0001
,
0010
0000
0010
0000
0100
0000
1000
1000
;

//---------------dance-single - ----------------
#NOTEDATA:;
#CHARTNAME:;
#STEPSTYPE:dance-single;
#DESCRIPTION:;
#CHARTSTYLE:;
#DIFFICULTY:Medium;
#METER:6;
#RADARVALUES:0.386535,0.364143,0.041204,0.439512,0.000000,162.000000,3.000000,32.000000,0.000000,0.000000,0.000000,0.000000,0.000000,0.386535,0.364143,0.041204,0.439512,0.000000,162.000000,3.000000,32.000000,0.000000,0.000000,0.000000,0.000000,0.000000;
#CREDIT:;
#NOTES:
1000
1000
0001
0000
0001
0001
1000
0000
,
0010
0010
0100
0000
0100
0100
0010
0000
,
1000
0100
1000
0000
0001
0100
0001
0000
,
2020
3030
0202
0303
,
2000
3000
0002
0003
,
2000
3000
0002
0003
,
0200
0300
0020
0030
,
0200
0000
0310
0000
0020
0000
0130
0100
,
0002
0010
1000
0100
,
1000
0010
0100
1003
,
1000
0001
1000
0000
0001
1000
0001
0000
,
0100
0010
0100
0000
0010
0100
0010
0000
,
2000
0100
0001
0010
,
0001
0100
0010
3001
,
0001
1000
0001
0000
1000
0001
1000
0000
,
0010
0100
0010
0000
0100
0010
0100
0000
,
0001
0010
0100
0000
1000
0100
0000
0010
,
0000
0100
1000
0000
0100
0010
0000
0001
,
1000
1000
0001
0001
,
0100
0000
0000
0010
0000
0000
0100
0000
,
0001
0100
0010
0000
1000
0010
0000
0100
,
0000
0010
1000
0000
0010
0100
0000
0001
,
1000
1000
0001
0001
,
0010
0000
0000
0100
0000
0000
0010
0000
,
0002
0100
2003
0100
,
3002
0010
2003
0010
,
3002
0010
0203
0310
,
2002
0000
0000
3003
,
0000
1000
0100
0010
0000
0001
0010
0100
,
0000
1000
0001
0100
0000
0010
0100
0001
,
0000
0010
0100
1000
0000
0100
0010
0001
,
0000
1000
0010
0100
0000
0001
0100
0010
,
1000
2000
0000
3000
,
0000
0001
0000
0002
0000
0000
0003
0000
,
0100
0200
0010
0320
,
1000
2030
0001
3002
,
0023
0000
0230
0000
,
0320
0000
0000
0000
0032
0000
1000
1003
;

//---------------dance-single - ----------------
#NOTEDATA:;
#CHARTNAME:;
#STEPSTYPE:dance-single;
#DESCRIPTION:;
#CHARTSTYLE:;
#DIFFICULTY:Hard;
#METER:8;
#RADARVALUES:0.517996,0.442903,0.260960,0.164817,0.027470,233.000000,19.000000,12.000000,0.000000,0.000000,0.000000,0.000000,0.000000,0.517996,0.442903,0.260960,0.164817,0.027470,233.000000,19.000000,12.000000,0.000000,0.000000,0.000000,0.000000,0.000000;
#CREDIT:;
#NOTES:
1000
1000
0100
0100
0010
0010
0001
0000
,
0001
0001
0100
0100
0010
0010
1000
0000
,
1000
1000
0010
0010
0100
0100
0001
0000
,
0001
0010
0000
0010
0100
1000
0000
1000
,
0001
1000
0001
0000
0100
0000
0100
0000
,
0001
1000
0001
0000
0010
0000
0010
0000
,
0001
0100
0010
0000
0010
1000
0100
0000
,
1100
0100
1000
0010
0100
0001
0010
0001
,
0102
1000
0010
1000
,
0100
1000
0010
1003
,
0001
1000
0100
1000
0001
0010
0001
1000
,
0010
1000
0001
0100
0001
1000
0010
1000
,
2100
0001
0010
0001
,
0100
0001
0000
0001
0000
0010
3000
0001
,
1000
0001
0100
0001
1000
0010
1000
0001
,
0010
0001
1000
0100
1000
0001
0010
0001
,
1000
0010
0001
0010
1000
0002
0000
2003
,
0000
3100
0001
0100
1000
0001
0000
0001
,
1000
1010
0001
0011
,
2000
0000
0000
0000
0000
0000
3002
0000
0000
0000
0103
0001
0100
0000
0000
0000
,
0001
0010
1000
0010
0001
2000
0000
3002
,
0000
0103
1000
0100
0001
1000
0000
1000
,
0001
0011
1000
1010
,
2000
0000
0000
0000
0000
0000
3002
0000
0000
0000
0103
0001
0100
0000
0000
0000
,
0010
1001
0100
1001
,
0010
1100
0010
0101
,
0100
1001
0010
1001
,
2000
3000
2000
3000
,
0001
0010
1000
0010
0001
0100
1000
0100
,
0001
0010
0100
0010
0001
0100
0010
0100
,
0001
0010
1000
0010
0001
0100
1000
0100
,
0001
0000
1000
0000
0100
0000
1000
0000
0010
0000
1000
0000
0001
1000
0010
0000
,
0100
0001
0101
0000
0001
0100
0010
1000
,
0100
0010
0000
0110
0000
0100
1000
0010
,
0100
0100
1001
0000
0010
0010
1001
0000
,
0001
0001
0101
0000
1000
1000
1100
0000
,
1000
0100
0001
0100
1000
0100
0001
0100
,
1000
0000
0010
0000
0001
0000
0010
0000
1000
0000
0001
0000
1000
0000
0001
1000
;

//---------------dance-single - ----------------
#NOTEDATA:;
#CHARTNAME:;
#STEPSTYPE:dance-single;
#DESCRIPTION:;
#CHARTSTYLE:;
#DIFFICULTY:Beginner;
#METER:2;
#RADARVALUES:0.100067,0.103011,0.000000,0.000000,0.000000,51.000000,0.000000,0.000000,0.000000,0.000000,0.000000,0.000000,0.000000,0.100067,0.103011,0.000000,0.000000,0.000000,51.000000,0.000000,0.000000,0.000000,0.000000,0.000000,0.000000,0.000000;
#CREDIT:;
#NOTES:
// measure 0
1000
0000
1000
0000
,  // measure 1
0001
0000
0001
0000
,  // measure 2
0100
0000
0100
0000
,  // measure 3
0010
0000
0010
0000
,  // measure 4
1000
0000
0000
0000
,  // measure 5
0100
0000
0000
0000
,  // measure 6
0010
0000
0000
0000
,  // measure 7
0001
0000
0000
0000
,  // measure 8
1000
0000
0000
0000
,  // measure 9
0000
0000
0000
0000
,  // measure 10
0001
0000
0001
0000
,  // measure 11
0100
0000
0100
0000
,  // measure 12
0010
0000
0000
0000
,  // measure 13
0000
0000
0000
0000
,  // measure 14
1000
0000
1000
0000
,  // measure 15
0001
0000
0001
0000
,  // measure 16
0010
0000
0000
0000
,  // measure 17
0010
0000
0000
0000
,  // measure 18
0100
0000
0000
0000
,  // measure 19
0000
0000
0000
0000
,  // measure 20
1000
0000
0000
0000
,  // measure 21
1000
0000
0000
0000
,  // measure 22
0001
0000
0000
0000
,  // measure 23
0000
0000
0000
0000
,  // measure 24
1000
0000
0001
0000
,  // measure 25
1000
0000
0001
0000
,  // measure 26
1000
0000
0001
0000
,  // measure 27
0001
0000
0000
0000
,  // measure 28
0100
0000
0010
0000
,  // measure 29
0100
0000
0010
0000
,  // measure 30
0100
0000
0010
0000
,  // measure 31
0100
0000
0010
0000
,  // measure 32
1000
0000
0000
0000
,  // measure 33
0001
0000
0000
0000
,  // measure 34
0010
0000
0000
0000
,  // measure 35
0100
0000
0000
0000
,  // measure 36
1000
0000
1000
0000
,  // measure 37
1000
0000
1000
0000
;
