#TITLE:In The Breeze;
#SUBTITLE:;
#ARTIST:96 & Sota ft. Mayumi Morinaga;
#TITLETRANSLIT:;
#SUBTITLETRANSLIT:;
#ARTISTTRANSLIT:;
#GENRE:;
#CREDIT:;
#BANNER:In The Breeze.png;
#BACKGROUND:In The Breeze-bg.png;
#LYRICSPATH:;
#CDTITLE:./CDTitles/DDR 2014.png;
#MUSIC:In The Breeze.ogg;
#OFFSET:0.000000;
#SAMPLESTART:58.160000;
#SAMPLELENGTH:15.000000;
#SELECTABLE:YES;
#DISPLAYBPM:123.000000:142.000000;
#BPMS:0.000000=123.000000
,20.000000=142.011002
;
#STOPS:
;
#BGCHANGES:0.000=In The Breeze.avi=1.000=0=0=0=StretchNoLoop====,
99999=-nosongbg-=1.000=0=0=0 // don't automatically add -songbackground-
;
#KEYSOUNDS:;
#ATTACKS:;

//---------------dance-single - ----------------
#NOTES:
     dance-single:
     :
     Hard:
     8:
     0.487438,0.545094,0.169661,0.216789,0.348747,321.000000,18.000000,23.000000,0.000000,0.000000,0.000000,0.487438,0.545094,0.169661,0.216789,0.348747,321.000000,18.000000,23.000000,0.000000,0.000000,0.000000:
// measure 0
0000
0000
0000
0000
,  // measure 1
0000
0000
0000
0000
,  // measure 2
0000
0000
0000
0000
,  // measure 3
1000
0100
0010
0001
0000
0100
0010
2000
,  // measure 4
0000
0000
0000
0000
,  // measure 5
3000
0000
0000
0000
,  // measure 6
0001
0000
0000
0000
0001
1000
0000
0000
0010
0000
0000
0010
0100
0000
0010
0000
,  // measure 7
1000
0000
0001
0000
1000
0100
0000
0000
0010
0000
0000
0010
0100
0000
0000
0000
,  // measure 8
1000
0000
0000
0000
1100
0000
0000
0000
0001
0000
0000
0001
0100
0000
0001
0000
,  // measure 9
0010
0000
0000
0100
0000
0000
2002
0000
0000
0000
3003
0000
0001
0000
0100
0000
,  // measure 10
0010
0000
0000
0000
0010
1000
0000
0000
0001
0000
0000
0001
0010
0000
0001
0000
,  // measure 11
0100
0000
0001
0000
1000
0100
0000
0000
0010
0000
0000
0010
0100
0000
1000
0000
,  // measure 12
0001
0000
0000
0000
0101
0000
0000
0000
0001
0000
0000
0001
0100
0000
0001
0000
,  // measure 13
0010
0000
0000
0100
0000
0000
2002
0000
0000
0000
3003
0000
0000
0000
0000
0000
,  // measure 14
0000
0000
0001
0000
0000
0010
0000
0000
1000
0000
0000
0010
0000
0000
0001
0000
,  // measure 15
0000
0000
0000
2200
0000
0000
0000
0000
0000
0000
0000
0000
3300
0000
0000
0000
,  // measure 16
1000
1000
1000
1000
,  // measure 17
0001
0001
0001
0001
,  // measure 18
0100
0010
0100
0010
1000
0100
0010
0001
,  // measure 19
1000
0001
1000
0001
0100
0010
1000
0000
,  // measure 20
0001
0001
0001
0001
,  // measure 21
1000
1000
1000
1000
,  // measure 22
0001
0010
0001
0010
0100
1000
0001
0100
,  // measure 23
0010
1000
0010
1000
0100
0010
0001
0000
,  // measure 24
0100
0000
0000
0010
0000
0000
1000
0000
0000
0000
0000
0000
0100
0000
1000
0000
,  // measure 25
0001
0100
0000
0010
0000
0000
1000
0000
0100
0000
0000
0010
0000
0000
0001
0000
,  // measure 26
1000
0000
0000
0100
0000
0000
0010
0000
0000
0000
0001
0000
1000
0000
0001
0000
,  // measure 27
0100
0001
0000
0010
0000
0001
0000
0000
0100
0000
0010
0000
1000
0000
0000
0000
,  // measure 28
0001
0000
0000
0010
0000
0000
0100
0000
0000
0000
0000
0000
1000
0000
0001
0000
,  // measure 29
0100
0010
0000
1000
0000
0000
0100
0000
0010
0000
0000
0001
0000
0000
1000
0000
,  // measure 30
0001
0000
0000
0100
0000
0000
0100
0000
1000
0000
0000
0100
0000
0000
0100
0000
,  // measure 31
0010
0000
0000
1000
0000
0000
1000
0000
0100
0000
0000
0010
0000
0000
0001
0000
,  // measure 32
0000
2002
0000
0000
0000
0000
0000
0000
0000
0000
0000
0000
0000
0000
3003
0000
,  // measure 33
0000
0000
0000
0000
0000
0000
0000
0000
0000
0000
1000
0000
0100
0010
0000
0010
,  // measure 34
0001
0000
0100
0000
1000
0000
0100
0000
0010
0000
0000
1000
0000
0000
0101
0000
,  // measure 35
0000
0000
0010
0000
0100
0000
0001
0000
0010
0000
0000
0010
0000
0000
0100
0000
,  // measure 36
1000
0010
0100
0010
1000
0100
0010
0001
,  // measure 37
1000
0000
0000
1010
0000
0000
2002
0000
3003
0000
0001
0000
0010
0100
0000
0100
,  // measure 38
1000
0000
0010
0000
0001
0000
0010
0000
0100
0000
0000
0001
0000
0000
1010
0000
,  // measure 39
0000
0000
0100
0000
0010
0000
1000
0000
0100
0000
0000
0100
0000
0000
0010
0000
,  // measure 40
0001
0100
0010
1000
0100
0010
0001
1000
,  // measure 41
0010
0000
0000
0110
0000
0000
2002
0000
0000
0000
3003
0000
0000
0000
1000
0000
,  // measure 42
0001
0010
0100
0010
0001
0100
0010
1000
,  // measure 43
0100
0000
0000
0020
0000
0000
0000
0000
0000
0000
0030
0000
0100
0000
1000
0000
,  // measure 44
0001
0100
0010
1000
0100
0010
0100
1000
,  // measure 45
0010
0000
0000
0100
0000
0000
2002
0000
0000
0000
3003
0000
0000
1000
0000
0100
,  // measure 46
0010
0000
0100
0000
1000
0010
0000
0100
0000
0010
0001
0000
0010
0000
1000
0000
,  // measure 47
0000
0001
0000
0000
0000
0000
0000
0000
,  // measure 48
1000
0000
0000
0000
1000
0001
0000
0000
0100
0000
0000
0100
0010
0000
0100
0000
,  // measure 49
0001
0000
1000
0000
0001
0010
0000
0000
0100
0000
0000
0100
0010
0000
0000
0000
,  // measure 50
0001
0000
0000
0000
0011
0000
0000
0000
1000
0000
0000
1000
0010
0000
1000
0000
,  // measure 51
0100
0000
0000
0010
0000
0000
2002
0000
0000
0000
3003
0000
1000
0000
0010
0000
,  // measure 52
0100
0000
0000
0000
0100
0001
0000
0000
1000
0000
0000
1000
0100
0000
1000
0000
,  // measure 53
0010
0000
1000
0000
0001
0010
0000
0000
0100
0000
0000
0100
0010
0000
0001
0000
,  // measure 54
1000
0000
0000
0000
1010
0000
0000
0000
1000
0000
0000
1000
0010
0000
1000
0000
,  // measure 55
0100
0000
0000
0010
0000
0000
2002
0000
0000
0000
3003
0000
0100
0000
0000
0000
,  // measure 56
0000
0000
0001
0010
0000
0100
1000
0000
0001
0100
0010
1000
0000
0000
0000
0000
,  // measure 57
0000
0000
0000
2002
0000
0000
0000
0000
0000
0000
0000
0000
0000
0000
3003
0000
,  // measure 58
0000
0000
0100
0010
0000
0010
0000
0000
1000
0010
0000
0010
0000
0000
0001
0010
,  // measure 59
0000
0010
0000
0010
0000
0100
0020
0000
0000
0000
0000
0000
0000
0000
0000
0000
,  // measure 60
0000
0000
0000
0000
0000
0000
0000
0030
;

//---------------dance-single - ----------------
#NOTES:
     dance-single:
     :
     Medium:
     6:
     0.356826,0.401649,0.037702,0.150810,0.230927,245.000000,4.000000,16.000000,0.000000,0.000000,0.000000,0.356826,0.401649,0.037702,0.150810,0.230927,245.000000,4.000000,16.000000,0.000000,0.000000,0.000000:
// measure 0
0000
0000
0000
0000
,  // measure 1
0000
0000
0000
0000
,  // measure 2
0000
0000
0000
0000
,  // measure 3
0020
0000
0000
0000
0000
0000
0000
0200
,  // measure 4
0000
0000
0000
0330
,  // measure 5
0000
0000
0000
0000
,  // measure 6
1000
0000
0000
0000
0001
0000
0000
0000
1000
0000
0000
1000
0000
0000
1000
0000
,  // measure 7
0000
0000
0001
0000
0000
1000
0000
0000
0010
0000
0000
0010
0000
0000
0000
0000
,  // measure 8
0100
0000
0000
0000
0001
0000
0000
0000
0010
0000
0000
0010
0000
0000
0100
0000
,  // measure 9
0010
0000
0000
0001
0000
0000
2000
0000
0000
0000
0000
0000
3000
0000
0000
0000
,  // measure 10
0010
0000
0000
0000
1000
0000
0000
0000
0001
0000
0000
0001
0000
0000
0001
0000
,  // measure 11
0000
0000
1000
0000
0000
0001
0000
0000
0010
0000
0000
0010
0000
0000
0010
0000
,  // measure 12
0100
0000
0000
0000
0100
0000
0000
0000
1000
0000
0000
0001
0000
0000
1000
0000
,  // measure 13
0010
0000
0000
0100
0000
0000
0002
0000
0000
0000
0000
0000
0003
0000
0000
0000
,  // measure 14
0000
0000
1000
0000
0000
0100
0000
0000
0010
0000
0000
0001
0000
0000
1000
0000
,  // measure 15
0000
0000
0000
0002
0000
0000
0000
0000
0000
0000
0000
0000
0000
0000
0003
0000
,  // measure 16
1000
0001
1000
0001
,  // measure 17
0010
0100
0010
0100
,  // measure 18
1000
0001
0100
0010
,  // measure 19
1000
0100
0010
0000
0001
0100
0010
0000
,  // measure 20
1000
0001
1000
0001
,  // measure 21
0100
0010
0100
0010
,  // measure 22
1000
0010
0100
0001
,  // measure 23
0010
0100
1000
0000
0001
0100
0010
0000
,  // measure 24
1000
0000
0000
0100
0000
0000
0010
0000
0001
0000
0000
0000
1000
0000
0000
0000
,  // measure 25
0001
0100
0010
0000
1000
0100
0010
0000
,  // measure 26
0100
0000
0000
1000
0000
0000
0001
0000
0100
0000
0000
0000
0010
0000
0000
0000
,  // measure 27
1000
0001
0100
0000
0001
1000
0100
0000
,  // measure 28
0010
0000
0000
0001
0000
0000
1000
0000
0010
0000
0000
0000
0100
0000
0000
0000
,  // measure 29
0010
1000
0100
0000
0010
0001
0100
0000
,  // measure 30
0001
0000
0000
0010
0000
0000
0001
0000
0010
0000
0000
0100
0000
0000
0010
0000
,  // measure 31
0100
0000
0000
1000
0000
0000
0100
0000
1000
0000
0000
0010
0000
0000
0100
0000
,  // measure 32
0000
0202
0000
0000
0000
0000
0000
0000
0000
0000
0000
0000
0303
0000
0000
0000
,  // measure 33
0000
0000
0000
0000
0000
1000
0100
0000
,  // measure 34
0010
0000
0001
0000
1000
0000
0000
0000
0010
0000
0000
1000
0000
0000
0001
0000
,  // measure 35
0000
0000
1000
0000
0001
0000
0000
0000
0010
0000
0000
0010
0000
0000
0000
0000
,  // measure 36
0100
1000
0100
0000
0010
0001
0010
0000
,  // measure 37
0100
0000
0000
1000
0000
0000
2002
0000
3003
0000
0001
0000
0100
0000
0000
0000
,  // measure 38
0010
0000
1000
0000
0001
0000
0000
0000
0010
0000
0000
0100
0000
0000
0010
0000
,  // measure 39
0000
0000
0001
0000
1000
0000
0000
0000
0010
0000
0000
0010
0000
0000
0010
0000
,  // measure 40
1000
0100
1000
0000
0001
0100
0001
0000
,  // measure 41
0010
0000
0000
0100
0000
0000
2002
0000
0000
0000
3003
0000
0000
0000
0000
0000
,  // measure 42
0001
1000
0001
0000
0010
0100
0010
0000
,  // measure 43
0100
0000
0000
1000
0000
0000
0000
0000
0000
0000
0000
0000
0000
0000
1000
0000
,  // measure 44
0001
0100
0001
0000
0100
0010
0100
0010
,  // measure 45
1000
0000
0000
0001
0000
0000
1000
0000
0000
0000
0000
0000
0000
0000
0100
0000
,  // measure 46
0010
0100
0010
0100
0010
0001
1000
0010
,  // measure 47
0000
0100
0000
0000
0000
0000
0000
0000
,  // measure 48
0001
0000
0000
0000
1000
0000
0000
0000
0001
0000
0000
0001
0000
0000
0001
0000
,  // measure 49
0000
0000
1000
0000
0000
0001
0000
0000
0100
0000
0000
0100
0000
0000
0000
0000
,  // measure 50
0010
0000
0000
0000
1000
0000
0000
0000
0100
0000
0000
0100
0000
0000
0010
0000
,  // measure 51
0100
0000
0000
1000
0000
0000
0002
0000
0000
0000
0000
0000
0003
0000
0000
0000
,  // measure 52
0100
0000
0000
0000
0001
0000
0000
0000
1000
0000
0000
1000
0000
0000
1000
0000
,  // measure 53
0000
0000
0001
0000
0000
1000
0000
0000
0100
0000
0000
0100
0000
0000
0100
0000
,  // measure 54
0010
0000
0000
0000
0010
0000
0000
0000
0001
0000
0000
1000
0000
0000
0001
0000
,  // measure 55
0100
0000
0000
0010
0000
0000
2000
0000
0000
0000
0000
0000
3000
0000
0000
0000
,  // measure 56
0000
0000
0001
0000
0000
0010
0000
0000
0100
0000
0000
1000
0000
0000
0000
0000
,  // measure 57
0000
0000
0000
2002
0000
0000
0000
0000
0000
0000
0000
0000
0000
0000
3003
0000
,  // measure 58
0000
0000
0000
0010
0000
0010
0000
0000
0000
0001
0000
0001
0000
0000
0000
1000
,  // measure 59
0000
1000
0000
1000
0000
0000
0020
0000
0000
0000
0000
0000
0000
0000
0000
0000
,  // measure 60
0000
0000
0000
0000
0000
0000
0000
0030
;

//---------------dance-single - ----------------
#NOTES:
     dance-single:
     :
     Easy:
     4:
     0.220828,0.279823,0.047128,0.131958,0.000000,145.000000,5.000000,14.000000,0.000000,0.000000,0.000000,0.220828,0.279823,0.047128,0.131958,0.000000,145.000000,5.000000,14.000000,0.000000,0.000000,0.000000:
0000
0000
0000
0000
,
0000
0000
0000
0000
,
0000
0000
0000
0000
,
0000
0000
0000
0000
,
0000
0000
0000
0000
,
0000
0000
0000
0000
,
1000
0000
1000
0001
,
0100
0000
0010
0000
,
1000
0000
0001
1000
,
0200
0000
0000
0300
,
0010
0000
0010
0001
,
1000
0000
0010
0000
,
0100
0000
0100
0001
,
2000
0000
0000
3001
,
0000
1000
0001
1000
,
0000
1001
0000
0000
,
0001
0000
0001
0000
,
1000
0000
1000
0000
,
0001
0100
0001
0100
,
0010
1000
0001
0000
,
1000
0000
1000
0000
,
0001
0000
0001
0000
,
1000
0100
1000
0100
,
0010
0001
1000
0000
,
0001
0100
0010
0000
,
1000
0001
1000
0001
,
1000
0100
0010
0000
,
0100
0100
0010
0010
,
0001
1000
0001
0000
,
0100
0100
0010
0010
,
1000
0000
0001
0000
,
0100
0000
0010
0000
,
0220
0000
0000
0330
,
0000
0000
0000
0000
,
1000
0001
1000
0000
,
0100
0010
0001
0000
,
1000
1000
0001
0001
,
1000
0001
2002
3003
,
0001
0100
0001
0000
,
1000
0100
1000
0000
,
0001
0010
0100
1000
,
0010
0100
2002
3003
,
0001
0001
0001
0000
,
2000
0000
3000
0000
,
0100
0100
0100
0000
,
0020
0000
0030
0000
,
0001
0000
1000
0000
0001
0000
0100
0100
,
0000
0100
0000
0000
0000
0000
0000
0000
,
0001
0001
1000
0001
,
0010
0010
0100
0000
,
1000
1000
0001
1000
,
0020
0000
0200
0330
,
0001
1000
0001
0001
,
0100
0010
1000
0000
,
0100
0100
0010
0100
,
2000
0000
0002
3003
,
0000
0001
1000
0001
,
0000
1001
0000
0000
,
0000
0100
0000
0000
0100
0000
0000
0100
,
0000
0000
0000
0100
0000
0000
0000
0000
;

//---------------dance-single - ----------------
#NOTES:
     dance-single:
     :
     Challenge:
     9:
     0.682683,0.745919,0.273342,0.405301,0.763474,435.000000,29.000000,43.000000,0.000000,0.000000,0.000000,0.682683,0.745919,0.273342,0.405301,0.763474,435.000000,29.000000,43.000000,0.000000,0.000000,0.000000:
// measure 0
0000
0000
0000
0000
,  // measure 1
2000
0000
0000
0000
0000
0000
3000
0002
,  // measure 2
0000
0000
0000
0003
,  // measure 3
0100
0010
1000
0100
0000
0001
0100
2000
,  // measure 4
0000
0000
0000
3000
,  // measure 5
0000
0000
0000
0000
,  // measure 6
0002
0000
0000
0000
0013
0100
0000
0000
1000
0000
0000
1000
0002
0000
0103
0000
,  // measure 7
0020
0000
1030
0000
0001
1000
0000
1000
0200
0000
0000
0310
0001
0000
0100
0000
,  // measure 8
0200
0000
0000
0000
0310
0000
0000
1000
0001
0000
0000
0001
0010
0000
0100
1000
,  // measure 9
0020
0000
0000
0100
0000
0000
0230
0000
0000
0000
0310
1000
0010
0100
0001
1000
,  // measure 10
0002
0000
0000
0000
0013
0100
0000
0000
0100
0000
0000
0100
2000
0000
3010
0000
,  // measure 11
0200
0000
0310
0000
1000
0001
0000
0010
0200
0000
0000
1300
0000
0000
0010
0000
,  // measure 12
0020
0000
0000
0000
0130
0000
0000
0000
0001
0000
1000
0010
1000
0000
0100
0000
,  // measure 13
0010
0000
0000
0011
0000
0000
2020
0000
0000
0000
0000
0000
0000
0000
3030
0000
,  // measure 14
0000
0000
1000
0010
1000
0001
0010
0001
1000
0100
0010
0001
0100
0010
1000
0000
,  // measure 15
0000
0000
0200
0020
0000
0000
0000
0000
0000
0000
0000
0330
0000
0000
0100
0000
,  // measure 16
1000
0000
0001
0000
0100
0001
0000
1000
0100
0000
0020
0000
0000
0000
0031
0000
,  // measure 17
0100
0000
0001
0000
0010
0001
0000
1000
0010
0000
0200
0000
0000
0000
0310
0000
,  // measure 18
2000
0000
0000
0100
0000
0000
0001
0000
0000
0000
0000
0000
3020
0000
0000
0000
,  // measure 19
0000
0000
0100
0000
0000
0100
0000
0000
1030
0000
0001
0000
0100
0000
0001
0000
,  // measure 20
0010
0000
0001
0000
0100
0001
0000
1000
0100
0000
0020
0000
0000
0000
0130
0000
,  // measure 21
1000
0000
0010
0000
0100
0001
0000
1000
0100
0000
0020
0000
0000
0000
0031
0000
,  // measure 22
2000
0000
0010
0000
0000
0001
0000
0000
3100
0010
0000
0001
0000
0000
0100
0010
,  // measure 23
0000
0000
1000
0000
0000
1000
0100
0000
0010
0001
0000
1000
0001
0000
1000
0001
,  // measure 24
0100
0000
0000
0010
0000
0000
0110
0000
0000
0000
1000
0001
0000
0000
0010
0000
,  // measure 25
0100
1000
0000
0100
1000
0000
0010
0000
0100
0001
0000
0100
0001
0000
0010
0000
,  // measure 26
0100
0000
0000
0010
0000
0000
1100
0000
0000
0000
0001
0000
1000
0000
0001
0000
,  // measure 27
0100
0010
0000
0100
0000
0010
0000
1000
0100
0000
0100
0010
0001
0000
0000
0000
,  // measure 28
0100
0000
0000
0010
0000
0000
0101
0000
0000
0000
1000
0100
0000
0000
1000
0000
,  // measure 29
0001
0010
0000
0001
0100
0000
0010
0000
1000
0010
0000
1000
0100
0000
0010
0000
,  // measure 30
0001
0000
0000
0011
0000
0000
0001
1000
0010
0000
0000
1010
0000
0000
1000
0100
,  // measure 31
0010
0000
0000
0110
0000
0000
0100
1000
0001
0000
0000
0101
0000
0000
0010
0000
,  // measure 32
0000
1000
0010
1000
0001
0010
0001
1000
0100
1000
0001
0100
0001
1000
0000
1000
,  // measure 33
0000
0001
0010
0001
1000
0010
1000
0002
0000
0000
1000
0003
1000
0100
0000
0100
,  // measure 34
0001
0000
0100
0000
1000
0010
0000
0010
0100
0000
0000
0100
0010
0000
0110
0000
,  // measure 35
0000
0000
1000
0000
0001
1000
0000
1000
0100
0000
0000
0110
0000
0000
0010
0000
,  // measure 36
0001
0000
0001
0100
0010
0000
1000
0000
0010
0000
0010
1000
0100
0000
1000
0000
,  // measure 37
0001
0000
0000
1100
0000
0000
0210
0000
0000
0000
1300
0000
0001
0100
0000
0100
,  // measure 38
1000
0000
0100
0000
0001
0010
0000
0010
0100
0000
0000
0100
0010
0000
0110
0000
,  // measure 39
0000
0000
0001
0000
1000
0001
0000
0001
0100
0000
0000
0110
0000
0000
0010
0000
,  // measure 40
1000
0000
1000
0100
0010
0000
0001
0000
0010
0000
0010
0001
0100
0000
0001
0000
,  // measure 41
1000
0000
0000
0101
0000
0000
2100
0000
0000
0000
3001
0000
0100
0000
0010
0000
,  // measure 42
1000
0000
1100
0000
0010
0000
0001
0000
1000
0001
0000
0001
0100
0000
0010
0000
,  // measure 43
1000
0000
0100
0000
0010
0001
0000
1000
0001
0000
0100
0010
0000
1000
0001
0000
,  // measure 44
0100
0000
0110
0000
0001
0000
0010
0000
0100
1000
0000
1000
0001
0000
0100
0000
,  // measure 45
0010
0000
0000
1100
0000
0000
0202
0000
0000
0000
0000
0000
0303
1000
0000
0100
,  // measure 46
0010
0000
0100
0000
0001
0100
0000
1000
0000
0010
0001
0000
0010
0000
1010
0000
,  // measure 47
0000
0101
0000
0000
0000
0000
0000
0000
,  // measure 48
1002
0000
0000
0000
0013
0000
0001
0100
0002
0000
0000
0013
0000
0000
0200
0000
,  // measure 49
0000
0000
1300
0001
0100
0000
0010
0000
1000
0001
1000
0100
0010
0001
0010
0000
,  // measure 50
0001
0100
0001
0100
0010
1000
0000
0001
1000
0100
1000
0100
0010
0001
1000
0001
,  // measure 51
0100
0010
1000
0001
0010
0100
0010
0002
0000
0000
0003
0000
0000
0000
0000
0000
,  // measure 52
1000
0010
1000
0010
0100
0001
0010
0100
2000
0000
0000
3001
0000
0000
0100
0010
,  // measure 53
1000
0000
0010
0000
1000
0100
0000
0010
0000
0100
1000
0001
0100
0000
0010
0000
,  // measure 54
2000
0000
0000
3100
0010
0000
0002
0000
0000
0000
1003
0000
0001
0000
1000
0100
,  // measure 55
0020
0000
0000
0031
0000
0000
0200
0000
0000
0000
0000
0000
0310
0000
0000
0000
,  // measure 56
0000
0000
1000
0100
1000
0001
0100
0001
0010
0100
1000
0001
0000
0000
0000
0000
,  // measure 57
0000
0000
0000
2200
0000
0000
0000
0000
0000
0000
0000
0000
0000
0000
3300
0000
,  // measure 58
0000
0000
0100
0010
0000
0101
0000
0000
0100
0010
0000
1100
0000
0000
1000
0100
,  // measure 59
0000
1010
0000
1001
0000
1000
0002
0000
0000
0000
0000
0000
0000
0000
0000
0000
,  // measure 60
0000
0000
0000
0000
0000
0000
0000
0003
;
