#VERSION:0.82;
#TITLE:ハピ恋☆らぶりぃタイム!!;
#SUBTITLE:;
#ARTIST:DJ TOTTO feat.anporin;
#TITLETRANSLIT:Happy koi Lovely Time!!;
#SUBTITLETRANSLIT:;
#ARTISTTRANSLIT:;
#GENRE:;
#ORIGIN:;
#CREDIT:;
#BANNER:[Right on Time] - Happy koi Lovely Time!!.png;
#BACKGROUND:[Right on Time] - Happy koi Lovely Time!!-bg.png;
#PREVIEWVID:;
#JACKET:[Right on Time] - Happy koi Lovely Time!!-jacket.png;
#CDIMAGE:;
#DISCIMAGE:;
#LYRICSPATH:;
#CDTITLE:;
#MUSIC:[Right on Time] - Happy koi Lovely Time!!.mp3;
#OFFSET:-0.560000;
#SAMPLESTART:63.316231;
#SAMPLELENGTH:14.999995;
#SELECTABLE:YES;
#BPMS:0.000=139.000;
#STOPS:51.000=0.216,
143.500=0.324,
143.750=0.108,
144.000=0.647,
238.500=0.216;
#DELAYS:;
#WARPS:;
#TIMESIGNATURES:0.000=4=4;
#TICKCOUNTS:0.000=4;
#COMBOS:0.000=1;
#SPEEDS:0.000=1.000=0.000=0;
#SCROLLS:0.000=1.000;
#FAKES:;
#LABELS:0.000=Song Start;
#BGCHANGES:;
#KEYSOUNDS:;
#ATTACKS:
;

//---------------dance-single - ----------------
#NOTEDATA:;
#CHARTNAME:;
#STEPSTYPE:dance-single;
#DESCRIPTION:;
#CHARTSTYLE:;
#DIFFICULTY:Hard;
#METER:8;
#RADARVALUES:0.550175,0.635631,0.213957,0.338765,0.236244,370.000000,24.000000,38.000000,0.000000,0.000000,0.000000,0.000000,0.000000,0.550175,0.635631,0.213957,0.338765,0.236244,370.000000,24.000000,38.000000,0.000000,0.000000,0.000000,0.000000,0.000000;
#CREDIT:;
#NOTES:
// measure 0
0000
0000
0000
0000
,  // measure 1
0000
0000
0000
0000
,  // measure 2
0000
0000
0000
0000
,  // measure 3
0000
0000
0000
0000
,  // measure 4
0000
0000
0000
0000
,  // measure 5
2000
0000
0000
0000
3001
0010
0100
1000
0001
0000
1000
0000
0000
0000
1000
0000
,  // measure 6
0001
0000
0010
0000
0000
0000
0100
1000
0100
0000
0010
0000
0001
0000
1000
0000
,  // measure 7
0002
0000
0000
0000
0103
0010
1000
0100
0010
0000
0001
0000
1000
0000
0001
0000
,  // measure 8
0200
0000
0301
0100
0001
0000
0010
0000
0001
0100
0001
0000
2000
0000
0000
0000
,  // measure 9
3002
0000
0000
0000
1003
0010
0100
0001
1000
0000
0100
0000
0000
0000
0100
0000
,  // measure 10
1000
0000
0001
0000
0000
0000
0010
0001
0010
0000
0100
0000
1000
0000
0010
0000
,  // measure 11
0100
0010
0100
0000
0001
0000
0010
0100
0010
0000
0001
0000
0100
0000
0020
0000
,  // measure 12
1000
0000
0130
0002
1000
0000
0013
1001
,  // measure 13
0000
1000
0000
0010
0100
0010
1000
0001
,  // measure 14
0000
1000
0000
0010
0100
0001
1000
0010
,  // measure 15
0000
0010
0000
1000
0100
0010
0001
0000
,  // measure 16
0001
1000
0010
0100
0010
1000
0001
0020
,  // measure 17
0000
0031
0000
0001
0100
0010
1000
0000
,  // measure 18
0010
1000
0100
0010
0100
1000
0001
1000
,  // measure 19
0000
0010
0100
0010
1000
0001
2002
0000
,  // measure 20
0000
0000
3003
0101
0000
1010
0000
1001
,  // measure 21
1000
0000
0010
0000
1000
0100
0000
0000
0010
0000
0001
0000
0100
0000
0010
0000
,  // measure 22
0000
0000
1000
0000
0100
0000
1000
0000
0001
0010
0000
0000
0001
0000
1000
0000
,  // measure 23
0000
0001
1000
0010
0100
0001
0010
0000
,  // measure 24
0001
0100
0010
0100
0001
0010
0100
1000
,  // measure 25
0000
0010
0100
0001
0100
0010
1000
0000
,  // measure 26
0100
0010
0001
0000
1000
0010
0100
0001
,  // measure 27
0000
1000
0010
0000
0100
0001
2001
0000
,  // measure 28
3010
0100
0001
0010
0100
1000
0001
2002
,  // measure 29
0000
0000
0000
0000
0000
0003
0000
0020
,  // measure 30
0000
3000
0000
0200
0000
0030
0000
0002
,  // measure 31
0000
0000
0000
0000
0000
0000
0000
0000
0300
0000
0003
0000
1000
0020
2000
0000
,  // measure 32
0000
0030
0000
0200
0000
3300
0000
1002
,  // measure 33
0000
0000
0000
0000
1003
0000
0001
0000
0000
0010
0000
0000
0100
0000
2001
0000
,  // measure 34
0000
0000
0000
0000
0000
0000
3001
0000
0000
0100
0000
0000
0010
0000
0110
0000
,  // measure 35
0000
0000
0100
0000
0000
0000
0001
0000
0000
0000
1000
0000
0000
0000
2002
0003
,  // measure 36
3000
0000
0000
0000
1001
0000
0000
0000
1000
0000
0010
0000
0100
0000
0001
0010
,  // measure 37
0000
0001
0000
0000
1000
0000
0010
0000
1000
0000
0100
0000
0000
0000
0010
0000
,  // measure 38
0001
0000
0100
0000
0010
0000
0000
0000
1010
0000
0000
0000
0001
0000
0010
0100
,  // measure 39
0000
1000
0000
0002
0000
0000
0000
0000
1003
0000
0010
0000
1000
0000
0001
0100
,  // measure 40
0000
0010
0000
0000
2001
0000
0000
0000
3001
0000
0100
0000
0010
0000
1000
0100
,  // measure 41
0000
1000
0000
0001
1000
0000
0000
0000
0010
0000
1000
0000
0001
0000
0010
0000
,  // measure 42
0001
0000
0100
0000
0020
0000
0000
0000
0130
0000
0001
1000
0002
0000
0000
0000
,  // measure 43
1003
0001
0011
0010
0100
1100
0000
0100
,  // measure 44
1000
0010
0100
0001
2000
0000
0000
0000
3001
0000
0010
0000
0001
0000
0100
0010
,  // measure 45
0000
0100
0000
0000
0001
0000
1000
0000
0010
0000
0100
0000
0000
0000
0100
0000
,  // measure 46
0001
0000
0010
0000
0100
0000
0000
0000
1100
0000
0000
0000
1000
0000
0001
0100
,  // measure 47
0000
0010
0000
2000
0000
0000
0000
0000
3001
0000
0010
0000
0001
0000
1000
0010
,  // measure 48
0000
0100
0000
0000
1002
0000
0000
0000
0103
0000
0010
1000
0010
0000
0100
0001
,  // measure 49
0000
0010
0000
0001
1000
0000
0000
0000
0100
0000
0010
0000
0001
0000
0100
0000
,  // measure 50
0010
0100
0001
0010
0001
0010
0100
1000
,  // measure 51
0100
0120
0000
0031
1000
2010
0000
3001
,  // measure 52
0011
0000
0000
0000
1002
0000
0000
0000
1003
0010
0100
0001
1000
0000
0100
0000
,  // measure 53
0000
0000
0010
0000
0001
0000
1000
0000
0000
0000
0010
0100
0010
0000
1000
0000
,  // measure 54
0100
0000
0010
0000
0002
0000
0000
0000
1003
0100
0010
0100
1000
0000
0001
0000
,  // measure 55
0100
0000
0010
0000
0100
0000
0001
0010
0001
0000
0100
0000
0010
1000
0010
0000
,  // measure 56
0200
0000
0000
0000
0302
0000
0000
0000
1003
0100
0010
0001
1000
0000
0010
0000
,  // measure 57
0000
0000
0100
0000
0001
0000
0010
0000
0000
0000
0100
1000
0100
0000
0010
0000
,  // measure 58
0001
0000
0100
0000
0010
1000
0010
0000
0100
0000
0001
0010
0001
0000
0100
0000
,  // measure 59
0010
0110
0000
0010
1000
0001
1000
0100
,  // measure 60
0010
2002
0000
0000
0000
0000
0000
0000
,  // measure 61
0000
0000
0000
0000
,  // measure 62
3003
0000
0000
0000
;

//---------------dance-single - ----------------
#NOTEDATA:;
#CHARTNAME:;
#STEPSTYPE:dance-single;
#DESCRIPTION:;
#CHARTSTYLE:;
#DIFFICULTY:Beginner;
#METER:1;
#RADARVALUES:0.178298,0.303997,0.053489,0.240702,0.000000,107.000000,6.000000,27.000000,0.000000,0.000000,0.000000,0.000000,0.000000,0.178298,0.303997,0.053489,0.240702,0.000000,107.000000,6.000000,27.000000,0.000000,0.000000,0.000000,0.000000,0.000000;
#CREDIT:;
#NOTES:
// measure 0
0000
0000
0000
0000
,  // measure 1
0000
0000
0000
0000
,  // measure 2
0000
0000
0000
0000
,  // measure 3
0000
0000
0000
0000
,  // measure 4
0000
0000
0000
0000
,  // measure 5
2000
3000
1000
0000
,  // measure 6
0002
0003
0001
0000
,  // measure 7
0200
0300
0100
0000
,  // measure 8
0020
0030
0010
0010
,  // measure 9
0020
0030
0010
0000
,  // measure 10
0200
0300
0100
0000
,  // measure 11
2000
3000
1000
0000
,  // measure 12
0002
0000
0000
0000
0000
0000
0003
0001
,  // measure 13
0000
0000
0000
0000
0000
0000
0000
1000
,  // measure 14
0000
0000
0000
0000
0000
0000
0000
0010
,  // measure 15
0000
0000
0000
0000
0000
0000
0000
0100
,  // measure 16
0000
0000
0000
0000
0000
0000
0000
0020
,  // measure 17
0000
0030
0000
0000
0000
0000
0000
0100
,  // measure 18
0000
0000
0000
0000
0000
0000
0000
0001
,  // measure 19
0000
0000
0000
0000
0000
0000
0000
2000
,  // measure 20
0000
3000
0000
1000
0000
1000
0000
1000
,  // measure 21
0000
0000
0000
0100
0000
0000
0000
0010
,  // measure 22
0000
0000
0000
0001
0000
0000
0000
1000
,  // measure 23
0000
0000
0000
0010
0000
0000
0000
0100
,  // measure 24
0000
0000
0000
0001
0000
0000
0000
1000
,  // measure 25
0000
0000
0000
0001
0000
0000
0000
0100
,  // measure 26
0000
0000
0000
0010
0000
0000
0000
1000
,  // measure 27
0000
0000
0000
0001
0000
0000
0000
1001
,  // measure 28
0000
0000
0000
0000
0000
0000
0000
0020
,  // measure 29
0000
0000
0000
0030
0000
0000
0000
0200
,  // measure 30
0000
0000
0000
0300
0000
0000
0000
0002
,  // measure 31
0000
0000
0000
0003
0000
0000
0000
2000
,  // measure 32
0000
0000
0000
3000
0000
0000
0000
0200
,  // measure 33
0000
0000
0000
0300
0000
0000
0000
0020
,  // measure 34
0000
0000
0000
0030
0000
0000
0000
0001
,  // measure 35
0000
0000
0000
1000
0000
0000
0000
1001
,  // measure 36
0000
1001
0000
1000
,  // measure 37
0000
0010
0010
0010
,  // measure 38
0000
1000
0000
0001
,  // measure 39
0000
0100
0000
0010
,  // measure 40
0010
0010
0000
1000
,  // measure 41
1000
1000
0000
0001
,  // measure 42
0001
0001
0000
1000
,  // measure 43
0000
0010
0010
0010
,  // measure 44
0000
0110
0000
0100
,  // measure 45
0000
0001
0001
0001
,  // measure 46
0000
0100
0000
0010
,  // measure 47
0000
1000
0000
0100
,  // measure 48
0100
0100
0000
0010
,  // measure 49
0000
0001
0000
1000
,  // measure 50
1000
1000
0000
0010
,  // measure 51
0000
0100
0100
0100
,  // measure 52
0000
0020
0030
0010
,  // measure 53
0000
2000
3000
1000
,  // measure 54
0000
0002
0003
0001
,  // measure 55
0000
0200
0300
0100
,  // measure 56
0000
0002
0003
0001
,  // measure 57
0000
2000
3000
1000
,  // measure 58
0000
0020
0030
0010
,  // measure 59
0000
0000
0220
0000
0000
0330
0000
0000
,  // measure 60
0000
2002
0000
0000
0000
0000
0000
0000
,  // measure 61
0000
0000
0000
0000
,  // measure 62
3003
0000
0000
0000
;

//---------------dance-single - ----------------
#NOTEDATA:;
#CHARTNAME:;
#STEPSTYPE:dance-single;
#DESCRIPTION:;
#CHARTSTYLE:;
#DIFFICULTY:Easy;
#METER:4;
#RADARVALUES:0.318389,0.359270,0.151553,0.151553,0.000000,216.000000,17.000000,17.000000,0.000000,0.000000,0.000000,0.000000,0.000000,0.318389,0.359270,0.151553,0.151553,0.000000,216.000000,17.000000,17.000000,0.000000,0.000000,0.000000,0.000000,0.000000;
#CREDIT:;
#NOTES:
// measure 0
0000
0000
0000
0000
,  // measure 1
0000
0000
0000
0000
,  // measure 2
0000
0000
0000
0000
,  // measure 3
0000
0000
0000
0000
,  // measure 4
0000
0000
0000
0000
,  // measure 5
1000
0100
1000
0010
,  // measure 6
1000
0100
1000
1000
,  // measure 7
0001
0010
0001
0100
,  // measure 8
0001
0010
0001
0001
,  // measure 9
1000
0010
1000
0001
,  // measure 10
1000
0100
0010
0010
,  // measure 11
0001
0100
0001
0010
,  // measure 12
0200
0000
0000
0000
0020
0000
0330
1001
,  // measure 13
0000
1000
0000
0010
0000
0010
0000
0100
,  // measure 14
0000
0100
0000
0001
0000
0001
0000
0010
,  // measure 15
0000
0010
0000
0100
0000
0100
0000
1000
,  // measure 16
0000
1000
0000
0001
0000
0001
0000
0200
,  // measure 17
0000
0310
0000
0100
0000
0100
0000
0001
,  // measure 18
0000
1000
0000
0001
0000
0001
0000
0010
,  // measure 19
0000
0100
0000
0010
0000
0001
2000
0000
,  // measure 20
0000
0000
3000
1000
0000
1000
0000
1001
,  // measure 21
0000
0010
0000
0001
0000
1000
0000
0001
,  // measure 22
0000
0010
0000
0001
0000
0000
0000
1000
,  // measure 23
0000
0010
0000
1000
0000
0001
0000
1000
,  // measure 24
0000
0010
0000
1000
0000
1000
0000
0100
,  // measure 25
0000
0010
0000
0100
0000
1000
0000
0001
,  // measure 26
0000
0010
0000
0001
0000
0100
0000
0010
,  // measure 27
0000
1000
0000
0010
0000
0100
0010
0000
,  // measure 28
0010
0100
0000
0010
0000
0110
0000
2001
,  // measure 29
0000
0000
0000
0000
0000
0000
0000
3020
,  // measure 30
0000
0000
0000
0230
0000
0000
0000
0302
,  // measure 31
0000
0000
0000
0000
0000
0000
0000
2003
,  // measure 32
0000
0000
0000
3020
0000
0030
0000
0220
,  // measure 33
0000
0000
0000
0000
0000
0330
0000
2002
,  // measure 34
0000
0000
0000
0000
0000
3003
0000
0110
,  // measure 35
0000
0010
0000
1000
0000
0001
0000
1001
,  // measure 36
0000
0000
1001
0000
0001
0000
1000
0001
,  // measure 37
1000
0000
0010
0000
0100
0000
0010
0100
,  // measure 38
0010
0000
1000
0000
0100
0000
1000
0100
,  // measure 39
1000
0000
0001
0000
0100
0000
0001
0100
,  // measure 40
0001
0000
0110
0000
0010
0000
0100
0010
,  // measure 41
0100
0000
0001
0000
0010
0000
0001
0010
,  // measure 42
0001
1000
0110
0001
,  // measure 43
0110
0000
0100
0000
0010
0000
1000
0001
,  // measure 44
1000
0000
1001
0000
0001
0000
0010
0001
,  // measure 45
0010
0000
0100
0000
1000
0000
0100
1000
,  // measure 46
0100
0000
0010
0000
0100
0000
0010
0100
,  // measure 47
0010
0000
0001
0000
0100
0000
0001
0100
,  // measure 48
0001
0000
1001
0000
1000
0000
0010
1000
,  // measure 49
0010
0000
0100
0000
0010
0000
0100
0010
,  // measure 50
0100
0110
0001
1000
,  // measure 51
0001
1000
0000
0000
1000
0001
0000
0001
,  // measure 52
1000
1001
0010
0001
,  // measure 53
0100
0001
0010
0001
,  // measure 54
0001
1000
0010
1000
,  // measure 55
0100
1000
0010
1000
,  // measure 56
1000
0001
0010
0100
,  // measure 57
0010
0001
0010
0100
,  // measure 58
0100
1000
0010
1000
,  // measure 59
0100
0020
0000
0000
0000
0030
0100
0000
,  // measure 60
0010
0220
0000
0000
0000
0000
0000
0000
,  // measure 61
0000
0000
0000
0000
,  // measure 62
0330
0000
0000
0000
;

//---------------dance-single - ----------------
#NOTEDATA:;
#CHARTNAME:;
#STEPSTYPE:dance-single;
#DESCRIPTION:;
#CHARTSTYLE:;
#DIFFICULTY:Medium;
#METER:6;
#RADARVALUES:0.403717,0.525087,0.169383,0.196127,0.000000,276.000000,19.000000,22.000000,0.000000,0.000000,0.000000,0.000000,0.000000,0.403717,0.525087,0.169383,0.196127,0.000000,276.000000,19.000000,22.000000,0.000000,0.000000,0.000000,0.000000,0.000000;
#CREDIT:;
#NOTES:
// measure 0
0000
0000
0000
0000
,  // measure 1
0000
0000
0000
0000
,  // measure 2
0000
0000
0000
0000
,  // measure 3
0000
0000
0000
0000
,  // measure 4
0000
0000
0000
0000
,  // measure 5
2000
0000
3010
0100
0010
0000
1000
0100
,  // measure 6
0000
0010
0000
0001
0100
0001
0100
0000
,  // measure 7
0002
0000
0013
0100
0010
0000
0001
0000
,  // measure 8
1000
0010
1000
0000
0001
0010
0001
0000
,  // measure 9
2000
0000
3100
0010
0100
0000
1000
0010
,  // measure 10
0000
0100
0000
0001
0010
0001
0010
0000
,  // measure 11
0001
0100
0001
1000
0100
1000
0001
2000
,  // measure 12
0000
0000
0000
0002
0000
0000
3003
1001
,  // measure 13
0000
1000
0000
0010
0100
0000
0100
0010
,  // measure 14
0000
1000
0000
0100
0010
0000
0010
0100
,  // measure 15
0000
1000
0000
0001
0010
0000
0010
0001
,  // measure 16
0000
1000
0000
0001
0100
0000
0100
0020
,  // measure 17
0000
0130
0000
0001
0010
0000
0010
0001
,  // measure 18
0000
1000
0000
0001
0100
0000
0100
0001
,  // measure 19
0000
1000
0000
0010
0100
0000
0220
0000
,  // measure 20
0000
0000
0330
1010
0000
0101
0000
1001
,  // measure 21
0000
1000
0000
0100
0010
0100
0000
1000
,  // measure 22
0000
0001
0000
0100
0010
0100
0000
0001
,  // measure 23
0000
1000
0000
0100
0010
0100
0000
1000
,  // measure 24
0000
0001
0000
0100
0010
0100
0010
1000
,  // measure 25
0000
0100
0000
0010
0001
0010
0001
0000
,  // measure 26
0001
0000
1000
0000
1000
0000
0010
0100
,  // measure 27
0000
0001
0000
1000
0001
1000
1001
0000
,  // measure 28
1000
0100
0010
0001
0010
0100
1000
2001
,  // measure 29
0000
0000
0000
0000
0000
0000
0000
3200
,  // measure 30
0000
0000
0000
0320
0000
0000
0000
0032
,  // measure 31
0000
0000
0000
0000
0000
0000
1003
0020
,  // measure 32
0000
0000
0000
0230
0000
0300
0000
0210
,  // measure 33
0000
0000
0000
0001
0000
0300
0000
0120
,  // measure 34
0000
0000
0000
1000
0000
0030
0000
0110
,  // measure 35
0000
0100
0000
0001
0000
1000
0000
1001
,  // measure 36
0000
0000
1001
0000
1000
0000
0100
0010
,  // measure 37
0100
0000
1000
0010
1000
0010
0000
0010
,  // measure 38
0100
0000
0001
0000
0010
0000
0100
1000
,  // measure 39
0100
1000
0010
0000
0100
0000
0001
0010
,  // measure 40
0001
0010
0100
0000
1000
0000
0010
0100
,  // measure 41
0010
0100
0001
0000
1000
0000
0100
0010
,  // measure 42
0100
0010
0001
0000
0110
0000
1000
0000
,  // measure 43
0110
0000
0001
0100
0010
1000
0001
0010
,  // measure 44
0100
0000
1001
0000
1000
0000
0010
0100
,  // measure 45
0010
0000
0001
0010
0001
0010
0000
0010
,  // measure 46
0100
0000
1000
0000
0010
0000
0100
0001
,  // measure 47
0100
0001
0010
0000
0100
0000
1000
0010
,  // measure 48
1000
0010
0100
0000
0001
0000
0010
0001
,  // measure 49
0010
0001
0100
0000
0010
0000
1000
0100
,  // measure 50
1000
0000
0010
0100
0010
0100
0001
1000
,  // measure 51
0001
2001
0000
3010
0000
1002
0000
0013
,  // measure 52
0110
0000
0002
0000
1003
0010
1000
0000
,  // measure 53
0100
0010
0000
0001
0000
0010
0100
0010
,  // measure 54
0100
0000
1000
0000
0010
0100
0010
0000
,  // measure 55
0100
0000
0001
0010
0001
0000
1000
0010
,  // measure 56
1000
0000
0001
0000
0100
0010
0100
0000
,  // measure 57
0001
0010
0000
0100
0000
1000
0010
1000
,  // measure 58
0010
0000
1000
0100
1000
0001
0100
0001
,  // measure 59
1000
0002
0000
0000
0000
0003
1000
0001
,  // measure 60
1000
2002
0000
0000
0000
0000
0000
0000
,  // measure 61
0000
0000
0000
0000
,  // measure 62
3003
0000
0000
0000
;
