#VERSION:0.82;
#TITLE:Einstein-Rosen Bridge;
#SUBTITLE:;
#ARTIST:Venetian Snares;
#TITLETRANSLIT:;
#SUBTITLETRANSLIT:;
#ARTISTTRANSLIT:;
#GENRE:;
#ORIGIN:;
#CREDIT:;
#BANNER:[Right on Time] - Einstein-Rosen Bridge.png;
#BACKGROUND:[Right on Time] - Einstein-Rosen Bridge-bg.png;
#PREVIEWVID:;
#JACKET:[Right on Time] - Einstein-Rosen Bridge-jacket.png;
#CDIMAGE:;
#DISCIMAGE:;
#LYRICSPATH:;
#CDTITLE:cdtitle.png;
#MUSIC:[Right on Time] - Einstein-Rosen Bridge.mp3;
#OFFSET:-0.050712;
#SAMPLESTART:51.270000;
#SAMPLELENGTH:10.244000;
#SELECTABLE:YES;
#BPMS:0.000=164.000;
#STOPS:;
#DELAYS:;
#WARPS:;
#TIMESIGNATURES:0.000=4=4;
#TICKCOUNTS:0.000=4;
#COMBOS:0.000=1;
#SPEEDS:0.000=1.000=0.000=0;
#SCROLLS:0.000=1.000;
#FAKES:;
#LABELS:0.000=Song Start;
#BGCHANGES:;
#KEYSOUNDS:;
#ATTACKS:
;

//---------------dance-single - ----------------
#NOTEDATA:;
#CHARTNAME:;
#STEPSTYPE:dance-single;
#DESCRIPTION:;
#CHARTSTYLE:;
#DIFFICULTY:Challenge;
#METER:12;
#RADARVALUES:1.000000,0.948653,0.694984,0.277994,1.000000,780.000000,85.000000,34.000000,0.000000,0.000000,3.000000,0.000000,0.000000,1.000000,0.948653,0.694984,0.277994,1.000000,780.000000,85.000000,34.000000,0.000000,0.000000,3.000000,0.000000,0.000000;
#CREDIT:;
#NOTES:
0000
0000
0000
0000
,
0000
0000
0000
0000
,
0000
0000
0000
0000
,
0000
0000
0000
0000
0000
0000
0000
0000
0001
0000
0000
0001
0100
0000
1000
0000
,
0100
0000
0010
0000
0100
0010
1000
0000
0001
0000
1000
0100
0010
0001
1000
0000
,
0001
0010
0001
0000
1000
0000
0000
1000
0100
0000
0001
0000
0100
0000
0010
0000
,
0100
1000
0001
0000
0100
0000
0010
1000
0001
0100
0001
1000
0100
1000
0001
0100
,
0001
0000
0100
0001
0010
0000
1000
0000
0010
0001
0000
0001
0100
0000
1010
0000
,
2002
0000
3003
0000
1000
0000
0100
0010
0000
0010
0100
0000
1000
0000
0100
1000
,
0010
0000
0001
0000
0010
1000
0000
1000
0100
0000
0011
0000
2002
0000
3003
0000
,
0011
0000
0000
1100
0000
0000
1001
0000
1000
0000
0001
0010
0100
0000
1000
0010
,
0000
0100
0001
0010
0100
0000
1100
0000
2002
0000
3003
0000
0001
0000
0100
0010
,
0000
0010
0100
0000
0001
0000
1000
0010
0100
0000
0001
0000
0010
0100
1000
0001
,
0100
0000
0101
0000
2002
0000
3003
0000
1010
0000
0000
0101
0000
0000
1001
0000
,
0001
0000
1000
0001
0010
0000
1000
0000
0010
0001
0000
0001
0100
0000
1010
0000
,
2001
0000
3001
0000
1000
0100
0010
0001
0100
0010
1000
0000
0001
0000
1000
0001
,
0010
0000
0100
1000
0001
0100
0000
0001
0100
0000
0010
1000
0000
1000
0100
0000
,
1100
0000
0000
0011
0000
0000
1001
0000
0001
0000
1000
0001
0100
0000
0001
0010
,
0000
0100
1000
0010
0100
0000
0101
0000
2002
0000
3003
0000
1000
0000
0001
0100
,
0010
1000
0100
0000
0010
0000
0100
1000
0001
0000
1000
0100
0010
0001
0000
0100
,
0010
0000
1000
0100
0000
1000
0100
0000
0011
0000
0000
1100
0000
0000
1001
0000
,
1001
0000
0000
0001
0100
0000
0000
0100
1000
0000
0000
1000
0100
0000
0000
0100
,
0001
0000
0000
0001
0010
0000
0001
0000
0010
0000
0100
0000
1100
0000
0000
0011
,
0000
0000
1100
0000
0011
0000
0000
0010
0001
0000
0000
0001
0100
0000
0000
0100
,
1000
0000
0100
0000
1000
0000
0100
0010
1000
0000
0000
1000
0100
0000
0100
0010
,
0001
1000
0001
1000
0001
1000
0100
0000
0010
0001
0000
0100
0010
0000
0100
0010
,
1000
0001
1000
0001
1000
0000
0000
1000
0100
0000
0010
0001
0100
0010
0000
0100
,
0010
0000
1000
0100
0000
0100
1000
0000
1010
0000
0000
0101
0000
0000
1001
0000
,
1001
0000
0000
0011
0000
0000
1100
0000
0011
0000
0000
0001
0010
0000
0000
0010
,
1000
0000
0000
1000
0010
0000
1000
0000
0010
0000
0001
0000
0101
0000
0000
1010
,
0000
0000
0101
0000
1010
0000
0000
0010
0001
0000
0000
0001
0010
0000
0000
0010
,
1000
0000
0100
0000
0010
0001
0010
0001
0100
0000
0000
0100
0010
0000
0010
1000
,
0100
0010
0100
1000
0001
1000
0100
0000
0010
0001
0000
0100
0001
0000
1000
0001
,
0100
0010
0100
0010
1000
0000
0000
1000
0001
0000
1000
0100
0010
0001
0000
0010
,
0001
0000
0100
0010
0000
0010
0100
0000
0101
0000
0000
1010
0000
0000
1001
0000
,
1000
0100
0020
0000
0100
0000
0030
0000
0001
0100
0020
0000
0100
0000
0030
1000
,
0100
0000
0010
0000
0001
0100
0010
0100
0001
0000
0100
0000
1010
0000
0000
0101
,
0000
0000
1010
0000
1001
0000
0000
1000
0100
0000
0000
0100
0001
0000
0000
0001
,
0100
0000
0010
0100
1000
0010
1000
0001
0100
0001
0020
0000
0001
0000
0030
0000
,
0100
1000
0020
0000
1000
0000
0030
0000
0100
0001
0010
0000
1000
0010
0100
0010
,
0001
0000
0010
0000
0011
0000
0000
1100
0000
0000
0011
0000
1001
0000
0000
1000
,
0010
0000
0000
0010
0001
0000
0000
0001
0010
0100
0010
1000
0010
0100
0001
1000
,
0001
0010
0200
0000
0010
0000
0300
0000
1000
0010
0200
0000
0010
0000
0300
0001
,
0010
0000
0100
0000
1000
0010
0100
0010
1000
0000
0001
0000
0101
0000
0000
1010
,
0000
0000
0101
0000
1001
0000
0000
0001
0100
0000
0000
0100
1000
0000
0000
1000
,
0100
0000
0001
0100
0010
1000
0001
0010
0100
1000
0020
0000
1000
0000
0030
0000
,
0100
0001
0020
0000
0001
0000
0030
0000
0100
1000
0010
0000
0001
0010
1000
0010
,
0100
0000
0001
0000
0011
0000
0000
1100
0000
0000
0011
0000
1001
0000
0000
1000
,
0010
0000
0000
0010
0100
0000
0000
0100
0010
0100
0001
0100
2000
0000
0000
0000
,
3200
0000
0300
0000
0010
1000
0010
1000
0001
0010
0001
1000
0100
1000
0001
0000
,
1000
0100
0000
0100
0001
0000
0100
0010
0001
0100
0010
1000
0002
0000
0000
0000
,
0013
1000
0000
0010
0001
1000
0100
1000
0100
1000
0001
1000
0000
1000
0100
0010
,
0100
0010
0100
1000
0000
1000
0001
1000
0020
0000
0030
0000
0001
0010
0000
1000
,
0010
0100
0010
0100
0001
1000
0100
0010
0100
0010
0001
0010
0001
0100
0010
0100
,
1000
0100
0010
1000
0200
0000
0000
0000
0301
0100
0000
1000
0100
0010
0001
1000
,
0001
0000
0000
1000
0000
0000
0010
0000
0000
1000
0000
0000
0000
0000
0000
1000
0000
0000
0010
0000
0000
0100
0000
0000
0002
0000
0000
0000
0000
0000
0023
0000
0000
0000
0000
0000
0030
0000
0000
0000
0000
0000
0001
0000
0010
0000
0001
0000
,
0020
0000
0030
0000
0001
0010
0000
1000
0010
0001
0010
0000
0100
0000
1000
1001
,
0000
0000
1001
0000
1000
0001
0010
0001
0100
0010
1000
0100
2000
0000
3000
0000
,
0100
0001
0000
0100
1000
0001
0100
0000
0010
1000
0000
0010
1000
0100
1000
0001
,
1000
0001
0100
0010
1000
0001
0010
0100
2000
0000
3000
0000
0010
0001
0000
0010
,
1000
0001
0010
0000
0010
0001
1000
0100
1000
0100
0001
0100
0001
0100
0010
0001
,
0100
0010
1000
0001
1001
0000
0000
1001
0000
0000
1001
0000
0000
1001
0000
1000
,
0001
0000
0001
1000
0010
1000
0010
0000
0100
0001
0100
0001
0100
1000
0100
0010
,
1000
0010
0200
0000
0010
0000
0300
0001
0010
0000
0200
0000
0010
0000
0300
1000
,
0010
0000
0100
0000
0001
0010
0100
0010
0001
0000
0100
0000
1010
0000
0000
0101
,
0000
0000
1010
0000
0101
0000
0000
0001
0100
0000
0000
0100
0010
1000
0100
1000
,
0010
0000
1000
0001
1000
0001
0010
0000
0100
1000
0020
0000
1000
0000
0030
0100
,
0001
0000
0020
0000
0100
0000
0030
0000
0001
1000
0010
0000
0001
0000
0010
1000
,
0100
0000
0010
0000
0011
0000
0000
1100
0000
0000
0011
0000
1100
0000
0000
1000
,
0010
0000
0000
0000
1000
0010
1000
0010
0001
0010
0001
0010
0100
0001
1000
0010
,
0100
0001
0010
0000
0001
0000
0010
0000
0100
1000
0010
0000
1000
0000
0010
0100
,
0001
0000
0010
0000
0100
1000
0010
1000
0100
0000
0010
0000
0011
0000
0000
1100
,
0000
0000
0011
0000
1100
0000
0000
1000
0001
0000
0010
0001
0100
0000
1000
0100
,
0001
0010
0001
0000
0010
0100
1000
0100
0010
0001
0200
0000
0010
0000
0300
0001
,
1000
0000
0100
0000
0110
0000
0000
0010
0001
0000
0100
0000
0001
0100
0010
1000
,
0100
1000
0010
0000
0000
0000
0000
0000
,
0010
1000
0010
1000
0040
4000
0000
0000
0000
0000
0030
0000
0004
0000
0003
3000
,
1001
0000
0000
0000
1000
0000
0100
0000
0010
0000
0001
0000
0100
0010
1000
0000
,
0001
0001
0001
1001
,
1000
0000
0000
0000
0000
0000
0010
0000
0000
0000
0000
0000
1000
0000
0000
0000
0000
0000
0100
0000
0000
0000
0000
0000
0010
0000
0000
0001
0000
0000
1000
0000
0000
0000
0000
0000
0001
0000
0000
0000
0000
0000
1000
0000
0010
0000
1000
0000
,
0010
0000
0000
0100
0001
0100
0001
0000
0000
1000
0010
1000
0010
0000
0000
0000
0000
0000
1000
0000
0000
0100
0000
0000
,
0000
0000
0010
0000
0001
1000
0001
0000
0110
0000
0000
0000
0110
0000
0000
0000
,
0110
0000
1001
0000
0001
0100
0000
0110
;

//---------------dance-single - ----------------
#NOTEDATA:;
#CHARTNAME:;
#STEPSTYPE:dance-single;
#DESCRIPTION:;
#CHARTSTYLE:;
#DIFFICULTY:Hard;
#METER:10;
#RADARVALUES:0.851501,0.779251,0.752218,0.204407,0.699072,612.000000,92.000000,25.000000,0.000000,0.000000,0.000000,0.000000,0.000000,0.851501,0.779251,0.752218,0.204407,0.699072,612.000000,92.000000,25.000000,0.000000,0.000000,0.000000,0.000000,0.000000;
#CREDIT:;
#NOTES:
0000
0000
0000
0000
,
0000
0000
0000
0000
,
0000
0000
0000
0000
,
0000
0000
0000
0000
0000
0000
0000
0000
0001
0000
0000
0100
0000
0000
1000
0000
,
0000
0000
0100
0000
0001
0000
1000
0000
0001
0000
0000
0001
0010
0000
1000
0000
,
0010
0000
0001
0000
1000
0000
0000
0100
0000
0000
0001
0000
0000
0000
0100
0000
,
1000
0000
0001
0000
1000
0000
0010
0000
0100
0000
0000
0100
0000
0000
0010
0100
,
0001
0000
0000
0000
0001
0000
0100
0000
0010
1000
0000
1000
0100
0000
0010
0000
,
0022
0000
0033
0000
0001
0000
0000
0100
0000
0000
0010
0000
1000
0000
0000
0000
,
1000
0000
0100
0000
0010
0001
0000
0001
0100
0000
0010
0000
2020
0000
3030
0000
,
1010
0000
0000
0101
0000
0000
1001
0000
1000
0000
0000
0000
1000
0000
0100
0010
,
0000
0100
0000
0010
0001
0000
0100
0000
0202
0000
0303
0000
0001
0000
0000
0100
,
0000
0000
0010
0000
1000
0000
0000
0000
1000
0000
0100
0000
0000
1000
0100
0000
,
0010
0000
0001
0000
0022
0000
0033
0000
0011
0000
0000
1100
0000
0000
1001
0000
,
1000
0000
0000
0000
0010
0000
1000
0000
0001
0010
0000
0010
0100
0000
0010
0000
,
0002
0000
1003
0000
0001
0000
0100
0010
0000
0100
0010
0000
1000
0000
0000
0000
,
0010
0000
1000
0000
0001
0010
0000
0001
0010
0000
0100
1000
0000
0100
1000
0000
,
1010
0000
0000
0101
0000
0000
1001
0000
0001
0000
0000
0000
0001
0000
0100
0010
,
0000
1000
0000
0100
0010
0000
0001
0000
2002
0000
3003
0000
0001
0000
0100
0000
,
1000
0000
0100
0000
0001
0000
0000
0000
1000
0000
0100
0000
1000
0010
0000
1000
,
0010
0000
0100
0001
0000
0100
0001
0000
0011
0000
0000
1100
0000
0000
1001
0000
,
1001
0000
0000
0001
0100
0000
0000
0100
0010
0000
0000
0010
1000
0000
0000
1000
,
0100
0000
0000
0100
0010
0000
0100
0000
0010
0000
0001
0000
0011
0000
0000
0101
,
0000
0000
1010
0000
1010
0000
0000
0010
1000
0000
0000
1000
0100
0000
0000
0100
,
0010
0000
0001
0000
0010
0000
0001
0000
1000
0000
0000
0000
0010
0000
1000
0001
,
0000
1000
0000
0001
0010
0000
0110
0000
0000
1100
0000
0000
1001
0000
0000
0001
,
0100
0000
0010
0000
1000
0000
0000
0000
0001
0000
0010
0000
0100
1000
0000
0100
,
1000
0000
0001
0100
0000
0001
0100
0000
1010
0000
0000
0101
0000
0000
1001
0000
,
1001
0000
0000
1100
0000
0000
0011
0000
0011
0000
0000
0001
0010
0000
0000
0010
,
0100
0000
0000
0100
1000
0000
0010
0000
1000
0000
0010
0000
0101
0000
0000
1010
,
0000
0000
1001
0000
1001
0000
0000
1000
0100
0000
0000
0100
0010
0000
0000
0010
,
0001
0000
0100
0000
1000
0000
0100
0000
0001
0000
0000
0000
1000
0000
0001
0010
,
0000
0100
0000
1000
0010
0000
1010
0000
0000
0110
0000
0000
0101
0000
0000
0001
,
0010
0000
0100
0000
1000
0000
0000
0000
0001
0000
0100
0000
0001
0010
0000
0001
,
0010
0000
0100
1000
0000
0100
1000
0000
0011
0000
0000
1100
0000
0000
1001
0000
,
1000
0010
1000
0000
0001
0000
0000
0000
0001
0010
0001
0000
1000
0000
0000
1000
,
0010
0000
1000
0000
0001
0010
0001
0010
0001
0000
0100
0000
0110
0000
0000
1010
,
0000
0000
1001
0000
1001
0000
0000
1000
0100
0000
0000
0100
0010
0000
0000
0010
,
0001
0000
1000
0000
0010
0000
1000
0000
0001
0100
0001
0000
0010
0000
0000
0000
,
1000
0100
1000
0000
0010
0000
0000
0000
0001
0100
0001
0000
1000
0010
1000
0010
,
1000
0000
0001
0000
0011
0000
0000
1100
0000
0000
1001
0000
1001
0000
0000
1000
,
0010
0000
0000
0010
0100
0000
0000
0100
0001
0000
0100
0000
1000
0000
0100
0000
,
0001
0010
0001
0000
1000
0000
0000
0000
1000
0010
1000
0000
0001
0000
0000
0001
,
0010
0000
0100
0000
1000
0010
1000
0010
1000
0000
0001
0000
0011
0000
0000
1100
,
0000
0000
1001
0000
1001
0000
0000
0001
0100
0000
0000
0100
0010
0000
0000
0010
,
1000
0000
0001
0000
0010
0000
0001
0000
1000
0010
1000
0000
0100
0000
0000
0000
,
0001
0010
0001
0000
0100
0000
0000
0000
1001
0000
0000
0000
1001
0000
0000
0000
,
1000
0000
0010
0000
0110
0000
0000
0101
0000
0000
1001
0000
1001
0000
0000
1000
,
0100
0000
0000
0100
0010
0000
0000
0010
0001
0000
0100
0000
2000
0000
3000
0000
,
0200
0300
0001
0010
1000
0010
0001
0100
,
0000
0010
0000
0000
1000
0000
0010
0000
0001
0000
0010
0000
2000
0000
0000
0000
,
3100
0010
0000
0010
0001
1000
0000
1000
0001
0000
1000
0010
0000
0010
1000
0000
,
0001
0100
0000
0010
0000
1000
0001
1000
0200
0000
0300
0000
0001
0100
0000
0100
,
1000
0000
0100
0000
0010
0000
0011
0000
0000
0101
0000
0000
1001
0000
0001
0000
,
0100
0000
0010
0000
2000
0000
0000
0000
3001
0100
0000
0100
0010
1000
0000
1000
,
0001
0000
1000
0100
0000
0100
1000
0000
0002
0000
0203
0000
0000
0000
0300
0000
,
0020
0000
0030
0000
1000
0010
0000
0010
0100
0000
0001
0000
0010
0000
0000
1001
,
0000
1001
1000
0010
1000
0100
0002
0003
,
0100
0010
0000
0010
0001
0000
1000
0000
0010
0100
0000
0010
0100
0000
0001
0000
,
1000
0000
1001
0000
0000
1001
0000
0000
2000
0000
3000
0000
0100
0010
0000
0010
,
0001
0000
0010
0000
2000
0000
3010
0000
0001
0100
0000
0100
0010
0000
1000
0000
,
0001
0000
0010
0000
1001
0000
0000
1001
0000
0000
1001
0000
0000
1001
0000
1000
,
0001
0000
0000
1000
0100
1000
0100
0000
0000
0100
1000
0000
0010
0000
0100
0000
,
0001
0010
0001
0000
1000
0000
0000
1000
0010
0000
1000
0000
0001
0000
0000
0001
,
0010
0000
0100
0000
1000
0010
1000
0010
1000
0000
0001
0000
0011
0000
0000
1100
,
0000
0000
1001
0000
1001
0000
0000
0001
0100
0000
0000
0100
1000
0000
0100
0000
,
0001
0000
0010
0000
0001
0000
2000
3000
0001
0100
0001
0000
0010
0000
0000
0100
,
1000
0000
0010
0000
1000
0000
0000
0000
0001
0100
0001
0000
0010
0000
0100
1000
,
0100
0000
0010
0000
0011
0000
0000
1001
0000
0000
1010
0000
1010
0000
0000
1000
,
0010
0000
1000
0010
0001
0010
1000
0100
,
1000
0001
1000
0000
0010
0000
0100
0000
0001
1000
0001
0000
0010
0000
0100
1000
,
0100
0000
0010
0000
0001
1000
0001
1000
0001
0000
0100
0000
0101
0000
0000
1010
,
0000
0000
1001
0000
1001
0000
0000
1000
0001
0000
1000
0000
0010
0000
1000
0000
,
0100
0000
0001
0000
0100
0000
1000
0000
0010
1000
0010
0000
0100
0000
0000
0001
,
0010
0000
0100
0000
0110
0000
0000
0010
0001
0000
0100
0000
0010
1000
0010
1000
,
0001
1000
0100
0000
0000
0000
0000
0000
,
1000
0001
0200
0000
0000
0000
0020
0330
,
0110
0000
0000
0000
0100
0000
0010
0000
1000
0000
0001
0000
1000
0100
0010
0000
,
0001
0001
0001
1001
,
1000
0000
0010
0000
1000
0000
0001
0000
0010
0100
1000
0000
0001
0000
0100
0000
,
1000
0100
0001
0100
0110
0000
0010
1000
,
0000
0000
0100
0000
0010
0100
0010
0000
1001
0000
0000
0000
1001
0000
0000
0000
,
1001
0000
0101
0000
0010
1000
0000
1001
;

//---------------dance-single - ----------------
#NOTEDATA:;
#CHARTNAME:;
#STEPSTYPE:dance-single;
#DESCRIPTION:;
#CHARTSTYLE:;
#DIFFICULTY:Medium;
#METER:8;
#RADARVALUES:0.562995,0.508207,0.171702,0.130820,0.106292,445.000000,21.000000,16.000000,0.000000,0.000000,0.000000,0.000000,0.000000,0.562995,0.508207,0.171702,0.130820,0.106292,445.000000,21.000000,16.000000,0.000000,0.000000,0.000000,0.000000,0.000000;
#CREDIT:;
#NOTES:
0000
0000
0000
0000
,
0000
0000
0000
0000
,
0000
0000
0000
0000
,
0000
0000
0001
0100
,
0010
0000
1000
0001
0100
0000
0100
0001
,
0010
0100
1000
0000
0010
0000
0100
0000
,
0001
1000
0100
0000
0020
0000
0030
0000
,
0011
0000
1000
0010
0100
0001
1000
0100
,
0020
0030
0100
0000
0100
0000
1100
0000
,
0001
0010
0100
1000
0001
0100
0020
0030
,
0100
0000
0001
0000
1010
0000
0001
0100
,
0010
1000
0001
0010
0200
0300
0010
0000
,
0010
0000
0011
0000
1000
0100
0010
0001
,
1000
0010
0200
0300
0010
0000
1000
0000
,
0101
0000
1000
0100
0010
0100
1000
0001
,
0200
0300
0010
0000
0010
0000
1010
0000
,
0001
0000
0100
0000
0010
0000
1000
0000
0001
0000
1000
0000
0000
1000
0000
0000
,
0001
0000
0000
0010
0000
0000
0001
0000
1000
0000
0000
0000
0100
0000
0010
0000
,
0001
0100
0010
1000
0002
0003
0010
0000
,
0010
0000
1001
0000
1000
0100
0010
0001
,
1000
0000
0001
0000
0000
0001
0000
0000
1000
0000
0000
0010
0000
0000
1000
0000
,
0001
0100
0001
0100
,
0100
0000
0100
0010
0100
0000
1000
0000
,
0100
0001
0010
0010
,
0010
0100
0010
0000
1001
0000
1000
0100
,
0010
0000
0001
0000
0100
0000
0010
0000
0000
1000
0000
0000
0001
0000
0000
0000
,
1000
0100
0010
0000
0001
0100
0010
1000
,
0100
0000
0010
0000
0000
0010
0000
0000
0001
0000
0000
0100
0000
0000
0010
0000
,
1000
0100
0010
0100
,
0100
0000
0100
0010
0100
0000
0001
0000
,
0100
1000
0010
0010
,
0010
0100
0001
1000
0100
0000
1000
0100
,
0010
0000
0001
0000
0100
0000
0001
0000
0000
1000
0000
0000
0010
0000
0000
0000
,
1000
0001
0010
0000
0001
0010
0100
1000
,
0001
0000
0100
0000
0000
0100
0000
0000
0010
0000
0000
1000
0000
0000
0001
0000
,
1000
0100
0010
0000
0100
0010
0001
0000
,
1000
0010
1000
0001
0010
0001
0100
0000
,
0010
1000
0001
0001
,
0010
0001
1000
0010
1000
0100
0001
0000
,
0001
0100
1000
0000
1000
0100
0010
0001
,
1000
0010
1000
0000
0010
0000
0100
0000
,
0001
0000
0001
0000
0010
0001
0100
0000
,
0001
0010
0100
0000
0010
0100
1000
0000
,
0001
0100
0001
1000
0100
1000
0010
0000
,
0100
0001
1000
1000
,
0100
1000
0001
0100
0001
0010
1000
0000
,
1000
0010
0001
0000
1001
0000
1001
0000
,
1000
0100
0010
0000
0001
0000
0100
0000
,
0010
0000
0010
0000
0100
0001
2000
3000
,
0001
0000
0100
0010
1000
0100
0010
0001
,
0000
1000
0000
0000
0001
0000
0000
0000
0100
0000
0010
0000
2000
0000
0000
0000
,
3001
0000
0000
0010
0000
0000
0000
0000
0001
0000
1000
0000
0000
0000
0001
0000
,
1000
0000
0000
0001
0000
0000
1000
0000
0200
0000
0300
0000
0001
0000
0000
0100
,
0000
0000
1000
0000
0010
0000
0100
0000
0000
0100
0000
0000
0010
0000
0000
0010
,
0000
0000
1000
0000
0002
0000
0000
0000
0013
0000
0000
0001
0000
0000
0100
0000
,
0010
1000
0000
1000
0002
0000
0000
0003
,
1001
0000
0000
0000
1000
0000
0000
0100
0000
0000
0010
0000
0001
0000
0000
1001
,
0000
1001
0000
0001
0100
0010
2000
3000
,
0010
0000
0000
1000
0000
0000
0100
0000
0010
0000
0000
0000
0001
0000
1000
0000
,
0001
0000
0010
0000
0000
0010
0000
0000
0002
0000
0003
0000
0100
0000
0000
0010
,
0000
0000
1000
0000
0010
0000
1000
0000
0000
0001
0000
0000
1000
0000
0001
0000
,
1000
0000
0000
0000
1001
0000
0000
1001
0000
0000
1001
0000
0000
1000
0000
0000
,
0100
0000
0000
0010
0000
0000
0010
0000
0000
0000
0010
0000
0001
0000
1000
0000
,
0001
0100
0010
0000
1000
0010
0100
0000
,
0001
0010
0100
0010
0001
1000
0010
0000
,
1000
0000
0100
0000
0100
0000
0001
0100
,
1000
0000
0001
1000
0001
0010
1000
0000
,
1000
0010
0001
0000
1000
0100
0010
0001
,
0100
0010
1000
0000
0010
0000
0100
0000
,
0100
0000
1000
0100
0001
0000
0010
0000
,
0001
1000
0001
1000
0100
0010
0100
0010
,
0001
0100
0010
1000
0001
1000
0100
0000
,
0010
0000
0001
0000
0010
0001
1000
0000
,
0001
0100
0010
0000
1000
0010
0100
0000
,
1001
0000
1001
0000
1000
0010
0100
0001
,
1000
0100
0010
0000
0000
0000
0000
0000
,
0000
0002
0000
2003
,
3001
0000
0100
0010
0100
0001
1000
0000
,
0001
0001
0001
1000
,
0100
0010
0100
1000
0001
0000
0100
0010
,
0100
0010
0100
0010
1000
0000
0001
0010
,
0000
0100
1000
0000
1001
0000
1001
0000
,
1001
0000
1000
0000
0010
0100
0000
0001
;

//---------------dance-single - ----------------
#NOTEDATA:;
#CHARTNAME:;
#STEPSTYPE:dance-single;
#DESCRIPTION:;
#CHARTSTYLE:;
#DIFFICULTY:Easy;
#METER:5;
#RADARVALUES:0.442687,0.440446,0.081763,0.286170,0.000000,334.000000,10.000000,35.000000,0.000000,0.000000,0.000000,0.000000,0.000000,0.442687,0.440446,0.081763,0.286170,0.000000,334.000000,10.000000,35.000000,0.000000,0.000000,0.000000,0.000000,0.000000;
#CREDIT:;
#NOTES:
0000
0000
0000
0000
,
0000
0000
0000
0000
,
0000
0000
0000
0000
,
0000
0000
1000
1000
,
0001
0000
0001
0000
1000
0000
0100
0010
,
0100
1000
1000
0001
,
0001
0100
0020
0030
,
1000
0000
1000
0000
0010
0000
1000
0001
,
2000
3000
0100
0000
0010
0000
0001
0000
,
0001
0000
0010
0000
0001
1000
0002
0003
,
1000
0010
0100
0100
,
0001
0000
1000
0100
2000
3000
0010
0000
,
1000
0100
0100
1000
,
0001
0100
0002
0003
1000
0000
0100
0000
,
0010
0000
0010
0000
0001
0000
1000
0010
,
2000
3000
0001
0000
0100
0000
0010
0000
,
0010
0000
0000
0000
1000
0000
0000
0000
0001
0000
2000
0000
0000
3000
0000
0000
,
0200
0000
0000
0300
0000
0000
0010
0000
0001
0000
0000
0000
0001
0000
0000
0000
,
0100
0000
0010
1000
0020
0030
1000
0000
,
0001
1000
1000
0100
,
0010
0000
0002
0000
0000
0003
0000
0000
0200
0000
0000
0300
0000
0000
0010
0000
,
1000
0001
1000
0001
,
0001
0000
1000
0001
1000
0000
0001
0000
,
0100
0010
1000
1000
,
0001
1000
0001
0000
0010
0000
0100
0000
,
1000
0000
0000
0000
0010
0000
0200
0000
0000
0300
0000
0000
0002
0000
0000
0003
,
0000
1000
0001
0000
0001
0000
0010
0000
,
0100
0000
2000
0000
0000
3000
0000
0000
0020
0000
0000
0030
0000
0000
0100
0000
,
0001
1000
0001
1000
,
1000
0000
0001
1000
0001
0000
1000
0000
,
0001
1000
0001
0001
,
0010
0001
0100
0010
,
1000
0000
0000
0000
0001
0000
2000
0000
0000
3000
0000
0000
0002
0000
0000
0003
,
0000
1000
0001
0000
0001
0000
0010
0000
,
0100
0000
2000
0000
0000
3000
0000
0000
0002
0000
0000
0003
0000
0000
1000
0000
,
0001
0001
1000
1000
,
0001
0010
0100
1000
,
0001
1000
0010
0100
,
0001
1000
0001
0000
0010
0000
0010
0000
,
0100
0100
0010
0001
,
0100
0010
1000
0010
,
0100
0000
0001
0000
1000
0010
1000
0000
,
0001
0001
1000
1000
,
0001
0010
0100
1000
,
0001
1000
0001
0100
,
0001
1000
0001
0000
0010
0000
0010
0000
,
0100
0100
1001
1001
,
0001
0100
0010
1000
,
0001
1000
0100
1001
,
0001
0000
0100
0010
0000
0010
1000
0002
,
0000
0003
0000
0000
2000
0000
0000
3000
0000
0000
0001
0000
0020
0000
0000
0000
,
0031
1000
0010
0000
0000
0010
0000
0000
,
0010
0000
0000
0100
0020
0030
1000
0001
,
0010
0000
0000
0000
0001
0000
2000
0000
0000
3000
0000
0000
0002
0000
0000
0003
,
0000
1000
0020
0000
0130
0010
1000
0000
,
0000
0100
0000
0000
0220
0000
0330
0000
,
1001
0000
0001
0100
0010
0000
1000
0000
,
1001
0000
0000
0000
0001
1000
0002
0003
,
0010
0001
0100
0000
0010
0000
1000
0001
,
1000
0000
0200
0000
0000
0300
0000
0000
0020
0000
0030
0000
0001
0000
0010
0000
,
0100
0000
1000
0000
0001
0000
1000
0001
,
1000
2002
0000
3003
,
0000
0001
0000
0000
,
1000
1000
0001
0001
,
1000
0100
0010
0001
,
0100
0000
0001
0000
1000
0000
0010
1000
,
0010
1000
0100
0100
,
0010
0010
0100
1000
,
0010
0100
0001
0100
,
0010
0000
1000
0001
1000
0000
0100
0000
,
1000
0010
0001
0010
,
1000
0010
0100
0001
,
0010
0000
0001
0000
1000
0001
1000
0000
,
0001
1000
0001
0000
0100
0000
0100
0000
,
0010
0010
0100
0010
,
1000
0001
0000
0000
,
0000
2000
0000
3002
,
1003
0000
0010
0100
0000
0010
0100
0000
,
0001
0001
0001
1000
,
0100
0010
0000
0100
0010
0000
0001
0000
,
1000
0000
0001
0000
1000
0000
0010
0100
,
0000
0010
0000
0000
1001
0000
1001
0000
,
1001
0000
0001
0000
0010
0100
0000
0010
;

//---------------dance-single - ----------------
#NOTEDATA:;
#CHARTNAME:;
#STEPSTYPE:dance-single;
#DESCRIPTION:;
#CHARTSTYLE:;
#DIFFICULTY:Beginner;
#METER:3;
#RADARVALUES:0.252297,0.270635,0.040881,0.016353,0.000000,209.000000,5.000000,2.000000,0.000000,0.000000,0.000000,0.000000,0.000000,0.252297,0.270635,0.040881,0.016353,0.000000,209.000000,5.000000,2.000000,0.000000,0.000000,0.000000,0.000000,0.000000;
#CREDIT:;
#NOTES:
// measure 0
0000
0000
0000
0000
,  // measure 1
0000
0000
0000
0000
,  // measure 2
0000
0000
0000
0000
,  // measure 3
0000
0000
1000
0000
,  // measure 4
0001
0000
1000
0000
,  // measure 5
1000
0100
0000
0010
,  // measure 6
0000
0001
0001
0000
,  // measure 7
1000
0000
0010
1000
,  // measure 8
1000
0001
0000
0001
,  // measure 9
0000
0010
0001
0001
,  // measure 10
1000
0000
1000
0000
,  // measure 11
0100
1000
1000
0001
,  // measure 12
0000
0001
0000
0100
,  // measure 13
0001
0001
1000
0000
,  // measure 14
0010
0000
1000
0001
,  // measure 15
0001
0010
0000
0100
,  // measure 16
0000
0010
0001
0000
,  // measure 17
1000
0000
0010
0000
,  // measure 18
0100
0010
0010
1000
,  // measure 19
0000
0001
0000
1000
,  // measure 20
0100
0000
0010
0000
,  // measure 21
0001
0000
0001
0000
,  // measure 22
1000
1000
1000
0001
,  // measure 23
0010
0001
0000
1000
,  // measure 24
1000
1000
0010
0000
,  // measure 25
0100
0100
0000
0001
,  // measure 26
0000
1000
0000
0010
,  // measure 27
0010
0000
1000
0000
,  // measure 28
0001
0010
0001
0000
,  // measure 29
1000
1000
1000
0001
,  // measure 30
0010
0001
0000
0100
,  // measure 31
0100
0100
0000
0010
,  // measure 32
0010
0010
0000
1000
,  // measure 33
0000
0001
0000
1000
,  // measure 34
1000
0000
0100
0000
,  // measure 35
1000
0000
0001
0000
,  // measure 36
1000
1000
1000
0010
,  // measure 37
0100
0010
0000
1000
,  // measure 38
0000
0001
0010
0000
,  // measure 39
0100
0000
0010
0010
,  // measure 40
0010
0001
0000
1000
,  // measure 41
0000
0001
1000
0000
,  // measure 42
0001
0000
1000
0000
,  // measure 43
0001
0001
0001
0010
,  // measure 44
0100
0010
0000
0001
,  // measure 45
0000
1000
0010
0000
,  // measure 46
0100
0000
1001
1001
,  // measure 47
0000
1000
0001
1000
,  // measure 48
0000
0100
0000
0010
,  // measure 49
0001
0001
0100
0100
,  // measure 50
0000
0010
0000
1000
,  // measure 51
0001
0001
0000
0000
,  // measure 52
0000
0000
1000
0100
,  // measure 53
1000
1000
0000
0010
,  // measure 54
0000
0100
0001
0001
,  // measure 55
0000
0000
0110
0000
,  // measure 56
1000
0001
0001
0000
,  // measure 57
1001
0000
0000
0001
,  // measure 58
0100
0100
0000
0010
,  // measure 59
0010
0000
1000
0001
,  // measure 60
0001
0000
0000
0001
,  // measure 61
1000
0002
0000
0003
,  // measure 62
0000
0010
0000
0000
,  // measure 63
0001
0000
1000
0000
,  // measure 64
0001
0001
0001
0100
,  // measure 65
0010
0100
0000
0001
,  // measure 66
0001
1000
0100
0000
,  // measure 67
0010
0000
0100
0100
,  // measure 68
0100
1000
0000
0001
,  // measure 69
0000
0100
0010
0000
,  // measure 70
1000
0001
1000
0001
,  // measure 71
1000
1000
1000
0100
,  // measure 72
0010
0100
0000
1000
,  // measure 73
0001
0001
0100
0000
,  // measure 74
0100
0000
0100
0100
,  // measure 75
0100
0100
0000
0000
,  // measure 76
0000
0020
0000
0030
,  // measure 77
1000
0000
0010
0000
,  // measure 78
0100
0000
0000
0100
,  // measure 79
0000
0001
0000
0010
,  // measure 80
0010
0010
0010
0000
,  // measure 81
0001
0000
1001
0000
,  // measure 82
0000
1000
0000
0001
;
