#TITLE:Beautiful Life;
#SUBTITLE:;
#ARTIST:Ace of Base;
#TITLETRANSLIT:;
#SUBTITLETRANSLIT:;
#ARTISTTRANSLIT:;
#GENRE:;
#CREDIT:;
#BANNER:Beautiful Life-bn.png;
#BACKGROUND:Beautiful Life-bg.png;
#LYRICSPATH:;
#CDTITLE:./CDTitles/DDR 2014.png;
#MUSIC:Beautiful Life.ogg;
#OFFSET:-0.988229;
#SAMPLESTART:50.746868;
#SAMPLELENGTH:15.000000;
#SELECTABLE:YES;
#DISPLAYBPM:135.000000;
#BPMS:0.000000=135.011993
;
#STOPS:
;
#BGCHANGES:;
#KEYSOUNDS:;
#ATTACKS:;

//---------------dance-single - ----------------
#NOTES:
     dance-single:
     :
     Easy:
     4:
     0.247584,0.273491,0.078420,0.156841,0.000000,191.000000,10.000000,20.000000,0.000000,0.000000,0.000000,0.247584,0.273491,0.078420,0.156841,0.000000,191.000000,10.000000,20.000000,0.000000,0.000000,0.000000:
0000
0000
0000
0000
,
0000
0000
0000
0000
,
0000
0000
0000
0000
,
0000
0000
0000
0000
,
0000
0000
0000
0000
,
0000
0000
0000
0000
,
0000
0000
0000
0000
,
0000
0000
0000
0000
,
1000
0000
1000
0000
,
0001
0000
0001
0000
,
0100
0010
1000
0001
,
0200
0000
0320
0000
,
1030
1000
0001
1000
,
0001
0001
0100
0000
,
0001
0001
1000
0001
,
1000
1000
0100
0000
,
0010
0010
0001
1000
,
0010
0010
0100
0000
,
0010
0010
1000
0001
,
0100
0100
0010
0000
,
1000
0000
1000
0000
,
1000
0000
1000
0100
,
0010
0000
0010
0000
,
0010
0000
0010
0001
,
1000
0000
0001
0000
,
0100
0000
0010
1000
,
0001
0000
0010
0000
,
0200
0000
0000
0300
,
1000
1000
0001
1000
,
0001
0001
0100
0110
,
0001
0001
1000
0001
,
0010
0010
0100
0110
,
1000
1000
0001
1000
,
0010
0010
0100
0110
,
1000
1000
0001
1000
,
0010
0100
0001
1000
,
0200
0010
0000
0310
,
0000
0010
0002
1000
,
2003
0001
0000
3001
,
0000
0001
0200
0010
,
0320
1000
0030
1000
,
0000
1000
0001
1000
,
0200
0010
0320
0031
,
2002
0000
0000
3003
,
1000
0001
1000
0001
,
1000
0000
1000
0000
,
0001
0100
0001
0100
,
0001
0000
0001
0000
,
0100
0010
1000
0100
,
0010
0000
0010
0000
,
0100
0010
0001
1000
,
0020
0000
0230
0000
,
0301
0001
1000
1000
,
0100
0010
0001
1000
,
0010
0010
0100
0100
,
0001
1000
0100
0000
,
0010
0010
0001
0001
,
1000
0001
0100
0010
,
1000
1000
0100
0100
,
0010
0100
1000
0001
,
0101
0000
0110
0000
,
2000
3100
0010
0001
,
1001
0000
1100
0000
,
0020
0031
1000
0001
,
0101
0000
1010
0000
,
0020
1030
0100
0010
,
0001
0001
0010
0001
,
2000
0000
3002
0000
,
0203
0000
0000
0000
,
0000
0000
0000
0300
;

//---------------dance-single - ----------------
#NOTES:
     dance-single:
     :
     Hard:
     8:
     0.491807,0.479932,0.219577,0.188209,0.015684,387.000000,28.000000,24.000000,0.000000,0.000000,0.000000,0.491807,0.479932,0.219577,0.188209,0.015684,387.000000,28.000000,24.000000,0.000000,0.000000,0.000000:
// measure 0
0000
0000
0000
0000
,  // measure 1
0000
0000
0000
0000
,  // measure 2
0000
0000
0000
0000
,  // measure 3
0000
0000
0000
0000
,  // measure 4
2000
0000
0000
0000
0000
0000
0000
0000
3001
0000
0000
1000
0000
0000
0001
0000
,  // measure 5
0200
0000
0000
0000
0300
0000
0010
0100
,  // measure 6
0002
0000
0000
0000
,  // measure 7
2003
0000
0000
3000
,  // measure 8
0100
0000
0100
0000
0100
0000
0100
0010
,  // measure 9
0000
0010
0000
0010
0000
0010
0000
0010
,  // measure 10
0001
0100
0100
0010
0010
1000
1000
0001
,  // measure 11
1000
0100
0021
0130
,  // measure 12
1000
0001
0100
0001
1000
0001
0100
0010
,  // measure 13
0000
1010
0000
1001
0000
1100
0000
0100
,  // measure 14
0010
0001
1000
0001
0100
0001
1000
0010
,  // measure 15
0000
1001
0000
1100
0000
0110
0000
0010
,  // measure 16
0001
0100
0010
0100
0001
1000
0100
0010
,  // measure 17
0000
0011
0000
1001
0000
0101
0000
0001
,  // measure 18
0100
1000
0100
0001
0100
0010
1000
0001
,  // measure 19
0000
0011
0000
0110
0000
1100
0000
1000
,  // measure 20
0001
0000
0001
0100
0010
0100
0001
1000
,  // measure 21
0100
1000
0000
1000
0000
0001
0010
0100
,  // measure 22
1000
0000
1000
0010
0100
0010
1000
0001
,  // measure 23
0000
0001
0010
0001
0100
0010
1000
0100
,  // measure 24
0010
0000
0001
0010
0001
0100
0010
1000
,  // measure 25
0001
1000
0000
0100
0000
0010
0001
1000
,  // measure 26
0100
0000
0100
0000
0010
0001
1000
0001
,  // measure 27
0202
0000
0000
0303
,  // measure 28
1000
0100
0001
0100
1000
0001
0010
0100
,  // measure 29
0000
0010
0000
1001
0000
0100
0010
1000
,  // measure 30
0001
0100
1000
0100
0001
0100
0010
1000
,  // measure 31
0000
0010
0000
1001
0000
0010
0001
0100
,  // measure 32
0010
1000
0010
0001
0010
1000
0100
0010
,  // measure 33
0000
0001
0000
1001
0000
0100
0010
1000
,  // measure 34
0100
0001
0100
1000
0100
0010
0001
2000
,  // measure 35
0000
3001
0100
0020
0000
1030
0100
0001
,  // measure 36
0200
0000
1000
0000
0000
0000
1300
0001
,  // measure 37
0000
0001
0000
0001
0200
0010
0000
0310
,  // measure 38
2000
0000
0001
0000
0000
0000
3001
0100
,  // measure 39
0000
0100
0000
0010
2000
0100
0000
3100
,  // measure 40
0020
0000
0001
0000
0030
0000
1000
0001
,  // measure 41
0000
0000
0001
0000
0000
0000
0010
0000
0001
0000
0010
0100
0000
0000
1000
0000
,  // measure 42
0002
0000
0103
0010
0020
0000
1030
0001
,  // measure 43
1000
0000
0000
0010
0000
0000
1000
0000
0001
0000
0000
0010
0000
0000
0100
0000
,  // measure 44
0010
0000
0100
1000
0001
1000
0100
0010
,  // measure 45
0000
0010
0100
0010
0001
0100
0010
1000
,  // measure 46
0100
0000
0010
0100
1000
0001
0000
0100
,  // measure 47
0010
0100
0000
0010
1000
0002
0000
0013
,  // measure 48
0100
0000
1000
0001
0100
0010
1000
0001
,  // measure 49
0000
0001
0010
0001
0100
0010
1000
0100
,  // measure 50
0010
0000
0100
1000
0001
1000
0000
0001
,  // measure 51
0200
0010
0000
0310
2000
0001
0000
3001
,  // measure 52
0011
0100
0100
1000
0010
0100
0100
0001
,  // measure 53
1000
0100
0001
0100
1000
0100
0001
0100
,  // measure 54
1000
0010
0010
0100
0001
1000
1000
0100
,  // measure 55
0010
0001
0010
1000
0010
0001
1000
0000
,  // measure 56
0001
0100
0100
0010
1000
0001
0001
1000
,  // measure 57
0001
0100
1000
0100
0001
0100
1000
0100
,  // measure 58
0001
0100
0100
0010
1000
0001
0001
0010
,  // measure 59
0100
1000
0100
0001
0100
1000
0001
0000
,  // measure 60
0011
0001
0100
0010
1010
1000
0100
0210
,  // measure 61
0000
1300
0001
0100
0000
0010
1000
0100
,  // measure 62
0110
0100
1000
0001
1001
0001
0100
0210
,  // measure 63
0000
0301
1000
0100
0000
0010
0100
1000
,  // measure 64
1010
0100
0001
0010
0011
0100
1000
1020
,  // measure 65
0000
0130
0001
0010
0000
1000
0010
0001
,  // measure 66
0011
0000
0001
0100
1000
0100
0001
0100
,  // measure 67
0020
0000
1000
0000
2030
0000
3001
0010
,  // measure 68
0100
0000
0000
0000
;

//---------------dance-single - ----------------
#NOTES:
     dance-single:
     :
     Medium:
     6:
     0.359613,0.399208,0.125472,0.133315,0.000000,288.000000,16.000000,17.000000,0.000000,0.000000,0.000000,0.359613,0.399208,0.125472,0.133315,0.000000,288.000000,16.000000,17.000000,0.000000,0.000000,0.000000:
0000
0000
0000
0000
,
0000
0000
0000
0000
,
0000
0000
0000
0000
,
0000
0000
0000
0000
,
0000
0000
0000
0000
,
0000
0000
0000
0000
,
0000
0000
0000
0000
,
0000
0000
0000
0000
,
1000
1000
1000
1000
,
0001
0001
0001
0001
,
1000
0001
0010
0100
,
2000
0001
3002
1000
,
1003
0000
0100
0000
0001
0000
0100
0010
,
0000
0001
0000
1000
0000
0001
0000
1000
,
0001
0000
0100
0000
1000
0000
0100
0010
,
0000
1000
0000
0001
0000
0010
0000
0100
,
0010
0000
0001
0000
1000
0000
0001
0100
,
0000
0010
0000
0100
0000
0001
0000
1000
,
0100
0000
0010
0000
0001
0000
1000
0001
,
0000
0100
0000
0010
0000
1000
0000
0001
,
1000
0100
1000
0001
,
1000
0100
0010
0001
,
1000
0001
0100
0001
,
1000
0000
0010
0000
0100
0001
0100
0000
,
0001
1000
0100
1000
,
0001
0100
0010
1000
,
0001
0000
1000
0000
0100
0010
0100
0000
,
2200
0000
0000
3300
,
1000
0000
0001
0100
0001
0100
0001
0100
,
0000
0010
0000
1000
0000
0001
1000
0001
,
1000
0000
0100
1000
0100
1000
0100
1000
,
0000
0001
0000
0100
0000
0001
0100
0010
,
1000
0000
0001
1000
0001
1000
0001
1000
,
0000
0100
0000
0010
0000
0001
0010
0100
,
1000
0000
0001
1000
0001
0100
0001
0200
,
0000
0310
1000
0002
0000
1003
0001
1000
,
0100
0000
1100
0000
0000
0000
0000
0001
,
0000
0001
0000
0100
0000
0100
0000
0010
,
0100
0000
0101
0000
0000
0000
0000
1000
,
0000
1000
0000
0100
0000
0100
0000
0010
,
0001
0000
0011
0000
0000
0000
0000
0001
,
0000
0001
0000
0100
0000
0100
0000
0010
,
1000
0000
1010
0000
0000
0000
0000
1000
,
0000
1000
0000
0001
0000
1000
0000
0001
,
0100
0000
0010
0000
1000
0100
0010
0000
,
0001
0000
1000
0000
0010
1000
0001
0000
,
1000
0000
0100
0000
0010
0001
1000
0000
,
0001
0100
0010
0000
1000
0100
0010
0000
,
0001
0000
0100
0000
0001
1000
0100
0000
,
0010
0000
0100
0000
1000
0001
0100
0001
,
1000
0000
0100
0000
0001
0100
1000
0000
,
0002
0000
0000
0000
0203
0000
0000
0300
,
0110
0000
1000
0001
1001
0000
0001
0010
,
0000
0110
0000
1001
0000
0001
0000
0100
,
0010
0000
1000
0001
1000
0001
1000
0002
,
0000
0010
0000
2003
0000
0010
0000
3001
,
0100
0000
0100
0001
1000
0000
1000
0001
,
1000
0100
0000
0011
0000
0001
0100
0010
,
1000
0000
0001
1000
0001
1000
0001
0200
,
0000
0010
0000
0302
0000
0010
0000
1003
,
1100
0000
1000
0001
0101
0000
0001
0200
,
0000
0310
0100
0001
0000
1000
0001
1000
,
1100
0000
0010
0001
0101
0000
0001
0020
,
0000
0130
1000
0010
0000
0100
0001
0100
,
0110
0000
1000
0100
0110
0000
0001
0200
,
0000
0310
1000
0001
0000
0010
0001
0100
,
1000
0000
0100
0010
0100
0010
1000
0002
,
0000
0000
0000
2003
0000
0000
0000
3100
;
