#TITLE:Zigeunerweisen, Op.20;
#SUBTITLE:;
#ARTIST:CJ Crew Feat. Shazza;
#TITLETRANSLIT:;
#SUBTITLETRANSLIT:;
#ARTISTTRANSLIT:;
#CREDIT:;
#BANNER:Zigeunerweisen, Op. 20-bN.png;
#BACKGROUND:Zigeunerweisen, Op. 20-bg.png;
#LYRICSPATH:;
#CDTITLE:Dancemania Classical Speed 2.png;
#MUSIC:Zigeunerweisen, Op.20.mp3;
#OFFSET:-5.540;
#SAMPLESTART:28.175;
#SAMPLELENGTH:12.000;
#SELECTABLE:YES;
#BPMS:0.000=180.000;
#STOPS:;
#BGCHANGES:;

//---------------dance-single - ----------------
#NOTES:
     dance-single:
     :
     Hard:
     9:
     0.744,0.621,0.552,0.092,0.000:
1000
0001
1000
0010
0010
1000
0100
0000
,
0210
0000
1300
0000
0001
1000
0010
1000
,
0010
0100
0010
1000
0010
0100
0010
0000
,
0100
1000
0100
0010
1000
0100
0000
0100
,
1000
0010
1000
0010
0100
0001
0001
1000
,
1000
0100
0010
1000
0100
0010
0001
0000
,
1000
0001
1000
0010
0010
1000
0000
0100
,
1000
0010
1000
0010
0100
0001
0001
1000
,
0010
0100
0001
1000
0010
0010
0100
0000
,
0001
1000
0100
1000
0001
1000
0010
0100
,
0010
0100
0010
0000
0110
0000
1001
0000
,
0100
1000
0001
0001
0100
0010
0100
0010
,
1000
0010
0100
0010
1010
0000
0011
0000
,
0001
1000
0001
1000
0100
1000
0010
0010
,
0100
0010
0100
0000
0011
0000
1010
0000
,
0100
1000
0010
0100
0010
1000
0001
0100
,
0010
0100
0010
0000
0011
0000
1010
0000
,
0210
0301
1020
0130
,
1000
0100
1000
0001
0001
0000
1000
0000
,
0100
1000
0010
0100
0001
1000
0010
0100
,
0001
1000
0100
0010
1000
0010
0010
0000
,
1001
0110
1001
0110
,
0010
1000
0100
1000
0010
0000
0010
1000
,
0100
1000
0001
0001
0100
0010
1000
0001
,
0100
0010
1000
0010
0100
0010
0010
0000
,
0010
1000
0100
1000
0100
1000
0100
0000
,
1010
1100
0110
1001
,
0001
0100
0010
1000
0010
0010
0100
0000
,
0011
1010
0110
1010
,
0001
1000
0010
0010
0100
0001
1000
0010
,
0010
0100
0001
1000
0100
0010
0100
1000
,
1010
1100
1010
0110
,
1000
0001
1000
0001
0100
0010
1000
0001
,
0001
0100
0010
1000
0010
0100
0010
0010
,
1100
0110
1001
0110
,
0100
0010
1000
0100
0010
0001
1000
0100
,
1000
0001
1000
0010
0100
0010
0010
0000
,
1010
1100
0110
1001
,
0100
1000
0001
0000
0001
1000
0010
0100
,
0010
0001
1000
0100
0010
0010
0010
0000
,
1001
0110
0011
1100
,
1001
0000
0010
0000
1000
0100
1000
0001
,
0001
0100
0010
1000
0010
0100
0010
0000
,
1100
0000
1010
0000
0001
1000
0000
0100
,
1000
0010
0100
0010
1000
0001
0001
0100
,
0010
1000
0010
0100
0010
0010
0010
0000
,
1001
0000
0110
0000
0001
1000
0000
0001
,
1000
0010
1000
0010
0010
0100
0100
0001
,
1000
0100
0010
0100
0010
0010
0010
0000
,
1000
0001
1000
0020
0000
1030
0010
1000
,
0001
0100
0010
2000
0000
3001
0001
1000
,
0010
0100
0000
0010
1000
0100
0000
0100
,
1000
0001
0100
0010
1000
0010
0010
0100
,
0001
1000
0100
0200
0000
1300
0001
0001
,
0100
0010
0010
0200
0000
0301
0100
0010
,
0100
0100
0000
0100
0001
1000
0000
0100
,
0001
1000
0100
0010
0001
1000
0100
0000
,
1001
0110
0011
1100
,
0010
1000
0100
1000
0100
0000
0100
1000
,
0001
0100
0010
1000
0010
0010
0100
0001
,
1000
0010
0100
0010
0100
0010
0010
0000
,
0011
1010
2200
3300
,
0001
1000
0100
1000
0001
0000
0001
1000
,
0010
0100
0010
1000
0001
0010
0001
0100
,
0010
1000
0100
0010
0001
0100
0010
1000
,
0001
0100
0010
1000
0100
0010
0001
0100
,
0010
1000
0100
0010
0001
1000
0010
0100
,
1001
0110
1001
0000
;

//---------------dance-single - ----------------
#NOTES:
     dance-single:
     :
     Medium:
     6:
     0.581,0.552,0.245,0.000,0.000:
1000
0001
1000
0000
0100
0000
1000
0000
,
0001
1000
0000
0100
1000
0000
0010
0000
,
1000
0000
0100
0000
1000
0001
1000
0000
,
0010
1000
0100
0000
1000
0100
0000
1000
,
0001
0010
1000
0100
,
0001
1000
0010
1000
0100
0000
1000
0000
,
0001
0000
1000
0000
0100
1000
0000
0001
,
1000
0010
0100
0001
,
1000
0100
1000
0001
0001
0000
1000
0000
,
0100
0000
1000
0000
0010
1000
0100
0000
,
0100
1000
0001
1000
0010
0000
0100
0000
,
1000
0000
0001
0000
1000
0100
1000
0000
,
0010
0100
0001
1000
0001
0000
0100
0000
,
1000
0000
0010
0000
0100
0001
1000
0000
,
0100
1000
0010
0010
0100
0000
0001
0000
,
1000
0000
0100
0000
0001
1000
0010
0000
,
0100
1000
0001
1000
0010
0000
0010
0000
,
1001
0110
1001
0110
,
0001
0000
1000
0000
0100
0000
0001
1000
,
0010
0000
1000
0100
1000
0001
1000
0000
,
0010
1000
0100
1000
0001
1000
0010
0000
,
0100
1000
0001
0010
,
1000
0100
1000
0000
0001
0000
0001
0000
,
1000
0100
1000
0000
0010
1000
0010
0000
,
1000
0100
1000
0001
1000
0010
0100
0000
,
0010
1000
0100
0000
1000
0000
0001
0000
,
0100
0010
1000
0000
0001
1000
0010
0000
,
0100
1000
0100
1000
0010
1000
0100
0000
,
0001
1000
0010
0000
0100
0000
1100
0000
,
0010
1000
0100
0000
0001
1000
0010
0000
,
1000
0100
1000
0001
1000
0010
1000
0000
,
0100
1000
0100
0000
1100
0000
1010
0000
,
0100
1000
0001
0000
1000
0010
1000
0000
,
0100
1000
0001
0100
0010
1000
0001
0000
,
1000
0100
1100
1100
,
0001
1000
0010
0000
1000
0100
1000
0000
,
0001
1000
0010
0100
0010
1000
0010
0000
,
1001
0110
1001
0110
,
0100
0000
1000
0000
0001
1000
0010
1000
,
0100
1000
0001
0000
0001
1000
0010
0000
,
0100
1000
0110
0000
1001
0000
0110
0000
,
0001
1000
0100
0000
1000
0001
1000
0000
,
0010
1000
0100
1000
0001
1000
0010
0000
,
0100
1000
0001
0000
0001
1000
0000
0001
,
1000
0010
1000
0000
0100
0000
1000
0000
,
0001
0100
0010
1000
0001
0000
1000
0000
,
0100
0000
1000
0000
0001
0010
0000
1000
,
0100
1000
0001
0000
0010
0000
1000
0000
,
0100
1000
0001
0000
0010
0000
1000
0000
,
0100
1000
0001
0000
0000
1000
0100
1000
,
0001
0010
0001
0000
0000
0100
1000
0001
,
1000
0010
0000
1000
0100
0000
0000
0001
,
1000
0010
1000
0100
,
1000
0001
1000
0010
0000
0100
1000
0001
,
1000
0010
1000
0100
0000
0001
1000
0000
,
0010
1000
0000
0000
0100
1000
0000
0000
,
0001
1000
0010
0000
1000
0000
0100
0000
,
1001
0110
1001
0110
,
0010
1000
0100
1000
0001
0000
0001
0000
,
1000
0001
1000
0000
0010
1000
0010
0000
,
1000
0100
1000
0001
0100
0010
1000
0000
,
0100
1000
0001
1010
,
0001
1000
0001
1000
0001
0000
0010
0000
,
1000
0100
1000
0000
0001
1000
0010
0000
,
1000
0100
1000
0001
1000
0000
0010
0000
,
1000
0100
1000
0001
0010
0000
1000
0000
,
0100
1000
0001
1000
0010
0000
0001
0000
,
1001
0110
1001
0000
;

//---------------dance-single - ----------------
#NOTES:
     dance-single:
     :
     Easy:
     4:
     0.400,0.380,0.266,0.082,0.000:
1000
0001
1000
0100
,
0010
0000
1000
0001
,
1000
0100
0010
0001
,
0010
0100
0001
0000
,
1000
0100
0010
1000
,
0001
0100
0010
1000
,
0100
0010
1001
0000
,
0100
0001
1000
0010
,
0100
0001
1000
0010
,
0100
1000
0001
0100
,
0010
0010
1010
0000
,
0100
1000
0001
0100
,
0010
1000
0100
0000
,
0001
1000
0010
0100
,
0100
0010
1010
0000
,
0100
1000
0010
0001
,
0100
0010
1100
0000
,
1001
0110
1001
0100
,
0000
1000
0001
0000
,
1000
0010
0100
1000
,
0001
0010
0100
0001
,
1010
1100
1001
0001
,
0000
0001
1000
0000
,
0100
1000
0001
0010
,
0100
1000
0001
0010
,
1000
1000
0001
0001
,
0010
0001
0010
0001
,
1000
0010
1000
0100
,
0100
0100
0010
0010
,
1000
0010
1000
0010
,
0100
0010
0100
0010
,
0010
0010
0100
0100
,
1000
0001
1000
0001
,
0001
0010
0001
0010
,
1000
0100
0100
1000
,
0010
0010
1000
0001
,
0100
0010
1000
0100
,
0001
0010
0100
0010
,
0110
0000
0001
1000
,
0100
0010
1000
0001
,
1000
0100
0010
1010
,
0100
0000
1000
0001
,
1000
0010
0100
0001
,
0010
1000
0100
0000
,
1000
0001
0010
0100
,
0001
1000
0010
0010
,
0100
0010
1100
0000
,
0001
1000
0010
0100
,
0001
1000
0010
0100
,
2200
0000
3300
0001
,
0022
0000
0033
1000
,
0110
0000
1100
0000
,
0001
1000
0100
0010
,
2020
0000
3030
0001
,
0202
0000
0303
1000
,
1100
0000
0110
0000
,
0001
1000
0100
0010
,
1000
0100
1001
0010
,
0000
0100
1000
0000
,
0001
1000
0100
0010
,
1000
0001
0100
0010
,
0100
0010
1010
0000
,
0100
1000
0001
0000
,
0001
1000
1000
0100
,
0010
0001
1000
0100
,
0001
0010
0100
1000
,
0001
0010
1000
0001
,
1001
0110
1001
0000
;
