#VERSION:0.83;
#TITLE:ゆっくりしていってね!!!;
#SUBTITLE:;
#ARTIST:今日犬 feat. 初音ミク;
#TITLETRANSLIT:Yukkuri Shiteitte ne!!!;
#SUBTITLETRANSLIT:;
#ARTISTTRANSLIT:Kyouken feat. Hatsune Miku;
#GENRE:;
#ORIGIN:;
#CREDIT:vincentw;
#BANNER:[Punctuations] - Yukkuri Shiteitte ne!!!.png;
#BACKGROUND:[Punctuations] - Yukkuri Shiteitte ne!!!-bg.png;
#PREVIEWVID:;
#JACKET:[Punctuations] - Yukkuri Shiteitte ne!!!-jacket.png;
#CDIMAGE:;
#DISCIMAGE:;
#LYRICSPATH:[Punctuations] - Yukkuri Shiteitte ne!!!.lrc;
#CDTITLE:cdtitle.png;
#MUSIC:[Punctuations] - Yukkuri Shiteitte ne!!!.ogg;
#OFFSET:0.000000;
#SAMPLESTART:42.276352;
#SAMPLELENGTH:17.348248;
#SELECTABLE:YES;
#BPMS:0.000=221.348,
36.000=110.674,
44.000=221.348;
#STOPS:254.000=0.271,
257.000=0.271,
260.000=0.045,
260.167=0.045,
260.333=0.046,
260.500=0.045,
260.667=0.045,
260.833=0.045,
263.000=0.045,
263.167=0.045,
263.333=0.046,
263.500=0.045,
263.667=0.045,
263.833=0.045;
#DELAYS:;
#WARPS:;
#TIMESIGNATURES:0.000=4=4;
#TICKCOUNTS:0.000=4;
#COMBOS:0.000=1;
#SPEEDS:0.000=1.000=0.000=0;
#SCROLLS:0.000=1.000;
#FAKES:;
#LABELS:0.000=Song Start;
#BGCHANGES:0.000=[Punctuations] - Yukkuri Shiteitte ne!!!-bg.png=1.000=0=0=1=====,
99999=-nosongbg-=1.000=0=0=0 // don't automatically add -songbackground-
;
#KEYSOUNDS:;
#ATTACKS:
;

//---------------dance-single - ----------------
#NOTEDATA:;
#CHARTNAME:Level 02;
#STEPSTYPE:dance-single;
#DESCRIPTION:;
#CHARTSTYLE:;
#DIFFICULTY:Beginner;
#METER:2;
#RADARVALUES:0.144658,0.265905,0.144658,0.296930,0.000000,133.000000,114.000000,19.000000,39.000000,0.000000,0.000000,0.000000,0.000000,0.000000,0.144658,0.265905,0.144658,0.296930,0.000000,133.000000,114.000000,19.000000,39.000000,0.000000,0.000000,0.000000,0.000000,0.000000;
#CREDIT:vincentw;
#DISPLAYBPM:221.384003;
#NOTES:
// measure 0
0000
0000
0000
0000
,  // measure 1
0000
0000
0000
0000
,  // measure 2
0000
0000
0000
0000
,  // measure 3
0000
0000
0000
0000
,  // measure 4
0000
0000
0000
0000
,  // measure 5
0000
0000
0000
0000
,  // measure 6
0000
0000
0000
0000
,  // measure 7
0000
0000
0000
0000
,  // measure 8
0000
0000
0000
0000
,  // measure 9
0000
1000
0000
1000
,  // measure 10
0000
0001
0000
0001
,  // measure 11
0000
0000
0100
0000
,  // measure 12
0000
0000
0100
0000
,  // measure 13
0000
0000
0010
0000
,  // measure 14
0000
0000
0010
0000
,  // measure 15
0000
0000
1000
0000
,  // measure 16
0000
0000
0100
0000
,  // measure 17
0000
0000
0010
0000
,  // measure 18
0000
0000
0001
0000
,  // measure 19
2000
0000
0000
3000
,  // measure 20
0002
0000
0003
0000
,  // measure 21
1001
0000
0000
0000
,  // measure 22
0001
0000
0000
0000
,  // measure 23
0100
0000
0000
0000
,  // measure 24
0010
0000
0000
0000
,  // measure 25
0110
0000
0000
0000
,  // measure 26
0100
0000
0000
0000
,  // measure 27
0000
0000
0110
0000
,  // measure 28
0000
0000
1001
0000
,  // measure 29
1000
0000
0000
0000
,  // measure 30
0100
0000
0000
0000
,  // measure 31
1000
0000
0000
0000
,  // measure 32
0001
0000
0000
0000
,  // measure 33
0000
1001
0000
0000
,  // measure 34
0010
0000
0000
0000
,  // measure 35
0000
0000
0110
0000
,  // measure 36
0000
0000
1001
0000
,  // measure 37
0002
0000
0000
0000
,  // measure 38
0000
0000
0003
0000
,  // measure 39
2000
0000
0000
0000
,  // measure 40
0000
0000
3000
0000
,  // measure 41
0020
0000
0000
0000
,  // measure 42
0000
0000
0030
0000
,  // measure 43
0200
0000
0000
0000
,  // measure 44
0000
0000
0300
0000
,  // measure 45
0002
0000
0000
0000
,  // measure 46
0003
0000
0001
0000
,  // measure 47
0020
0000
0000
0000
,  // measure 48
0030
0000
0010
0000
,  // measure 49
0200
0000
0000
0000
,  // measure 50
0300
0000
0100
0000
,  // measure 51
2000
0000
3000
0000
,  // measure 52
0002
0000
0003
0000
,  // measure 53
1000
0000
0000
0000
,  // measure 54
0010
0000
0100
0000
,  // measure 55
0110
0000
0000
0000
,  // measure 56
0010
0000
0000
0000
,  // measure 57
1000
0000
0000
0000
,  // measure 58
0001
0000
0000
0000
,  // measure 59
0010
0000
0000
0000
,  // measure 60
0001
0000
0000
0000
,  // measure 61
1000
0000
0000
0000
,  // measure 62
0100
0000
0000
0000
,  // measure 63
2000
0000
3000
0002
,  // measure 64
0000
0003
2000
0000
,  // measure 65
3000
0002
0000
0003
,  // measure 66
0000
0000
1000
0000
,  // measure 67
1000
0000
2000
0000
,  // measure 68
3000
0000
0010
0000
,  // measure 69
0010
0000
0020
0030
,  // measure 70
0000
0000
0100
0000
,  // measure 71
0100
0000
0200
0000
,  // measure 72
0300
0000
0001
0000
,  // measure 73
0001
0000
0002
0003
,  // measure 74
1000
0000
0000
0000
,  // measure 75
0010
0000
0000
0000
,  // measure 76
0100
0000
0000
0000
,  // measure 77
0001
0000
0000
0000
,  // measure 78
1001
0000
0000
0000
,  // measure 79
1000
0000
0000
0000
,  // measure 80
0000
0000
0110
0000
,  // measure 81
0000
0000
1001
0000
,  // measure 82
0001
0000
0000
0000
,  // measure 83
0010
0000
0000
0000
,  // measure 84
0100
0000
0000
0000
,  // measure 85
1000
0000
0000
0000
,  // measure 86
0000
0110
0000
0000
,  // measure 87
0010
0000
0000
0000
,  // measure 88
0000
0000
0110
0000
,  // measure 89
0000
0000
1001
0000
,  // measure 90
2000
0000
0000
0000
,  // measure 91
3000
0000
1000
0000
,  // measure 92
0020
0000
0000
0000
,  // measure 93
0030
0000
0010
0000
,  // measure 94
0200
0000
0000
0000
,  // measure 95
0300
0000
0100
0000
,  // measure 96
0002
0000
0003
0000
,  // measure 97
2000
0000
3000
1000
,  // measure 98
0000
0001
0000
0001
,  // measure 99
0000
0002
0003
0000
,  // measure 100
0000
1000
0000
1000
,  // measure 101
0000
2000
0000
3000
,  // measure 102
0000
0100
0000
0100
,  // measure 103
0000
0200
0300
0000
,  // measure 104
0020
0000
0030
0000
,  // measure 105
0200
0000
0300
0000
,  // measure 106
0220
0000
0000
0000
,  // measure 107
0000
0000
0000
0330
,  // measure 108
2002
0000
0000
0000
,  // measure 109
0000
0000
0000
3003
,  // measure 110
0220
0000
0000
0000
,  // measure 111
0000
0000
0000
0330
,  // measure 112
2002
0000
0000
0000
,  // measure 113
0000
0000
0000
3003
,  // measure 114
0001
0000
1000
0000
,  // measure 115
0100
0000
0010
0000
,  // measure 116
0220
0000
0000
0000
0000
0330
0000
0000
0000
0000
0000
0000
;

//---------------dance-single - ----------------
#NOTEDATA:;
#CHARTNAME:Level 05;
#STEPSTYPE:dance-single;
#DESCRIPTION:;
#CHARTSTYLE:;
#DIFFICULTY:Easy;
#METER:5;
#RADARVALUES:0.267563,0.354540,0.167499,0.289317,0.072329,246.000000,224.000000,22.000000,38.000000,0.000000,0.000000,0.000000,0.000000,0.000000,0.267563,0.354540,0.167499,0.289317,0.072329,246.000000,224.000000,22.000000,38.000000,0.000000,0.000000,0.000000,0.000000,0.000000;
#CREDIT:vincentw;
#NOTES:
0000
0000
0000
0000
,
0000
0000
0000
0000
,
0000
0000
0000
0000
,
0000
0000
0000
0000
,
0000
0000
0000
0000
,
0220
0000
0000
0000
,
0000
0000
0000
0330
,
2002
0000
0000
0000
,
0000
0000
0000
3003
,
0000
1000
1000
2000
,
3000
0000
0001
0000
0001
0000
0002
0003
,
0000
0000
0100
0000
,
0100
0000
0100
0000
,
0010
0000
0010
0000
,
1000
0000
1000
0000
,
0001
0000
0010
0000
,
0100
0000
1000
0000
,
0001
0000
0100
0000
,
0010
0000
1000
0000
,
0002
0000
0000
0000
,
2000
0000
3003
0000
,
1001
0000
0001
0000
,
0010
0000
0001
0000
,
1000
0000
0010
0000
,
1000
0000
0010
0000
,
1010
0000
0100
0000
,
0001
0000
0100
0000
,
0000
0000
0101
0000
,
0000
0000
1100
0000
,
0001
0000
0010
0000
,
0001
0000
0010
0000
,
0100
0000
1000
0000
,
0100
0000
1000
0000
,
0000
1100
0000
0000
,
1000
0000
0010
0000
,
0000
0000
1010
0000
,
0000
0000
0011
0000
,
0020
0000
0000
0030
,
0010
0000
0010
0000
,
0200
0000
0000
0300
,
0100
0000
0100
0100
,
2000
0000
0000
3000
,
1000
0000
1000
0000
,
0001
0000
0001
0000
,
1000
0000
1000
1000
,
0020
0000
0000
0030
,
0010
0000
0010
0000
,
0200
0000
0000
0300
,
0100
0000
0100
0100
,
0002
0000
0000
0003
,
0001
0000
0001
0000
,
1000
0000
1000
0000
,
0001
0000
0001
0001
,
0020
0000
2030
0000
,
3200
0000
0302
0000
,
0013
0010
0001
0000
,
0010
0000
0001
0000
,
1000
1000
0100
0000
,
1000
0000
0100
0000
,
1000
1000
0010
0000
,
1000
0000
0010
0000
,
0100
0100
0001
0000
,
0100
0000
0001
0000
,
2000
3000
1000
0200
,
0300
0100
0020
0030
,
0010
0002
0003
0001
,
1000
0000
1000
0000
,
0001
0000
1000
0000
,
0001
0000
0001
0000
,
1000
0000
0001
0001
,
0000
0100
0100
0000
,
0010
0000
0100
0000
,
0010
0000
0010
0000
,
0100
0000
0010
0010
,
1000
0000
0100
0000
,
2000
0000
0000
0000
0000
3100
0000
0000
0000
0000
0000
0000
,
0010
0000
0001
0000
,
0020
0000
0000
0000
0000
0031
0000
0000
0000
0000
0000
0000
,
1000
0000
0010
0000
,
0200
0000
0000
0000
0000
0301
0000
0000
0000
0000
0000
0101
,
0000
0000
0000
0000
0000
0000
0101
0000
0000
0000
0000
1010
,
0000
0000
1010
0000
,
1000
0000
0010
0000
,
2000
0000
0000
0000
0000
3010
0000
0000
0000
0000
0000
0000
,
0100
0000
0001
0000
,
0200
0000
0000
0000
0000
0301
0000
0000
0000
0000
0000
0000
,
0000
1000
0100
0000
,
0020
0000
0000
0000
0000
0031
0000
0000
0000
0000
0000
0011
,
0000
0000
0000
0000
0000
0000
0011
0000
0000
0000
0000
1100
,
0000
0000
1100
0000
,
1000
0000
1000
0000
,
0100
0010
0100
0000
,
1000
0000
1000
0000
,
0010
0100
0010
0100
,
0001
0000
0001
0000
,
0100
0000
0000
0010
0000
0000
0100
0000
0000
0000
0000
0001
,
0000
0000
0000
1000
0000
0000
0001
0000
0000
0000
0000
0010
,
0000
0100
0010
0100
,
1000
0000
0010
0000
,
0100
0001
0100
0000
,
0001
0000
0010
0000
,
0100
1000
0100
1000
,
0010
0000
1000
0000
,
0001
0000
0000
0100
0000
0000
0001
0000
0000
0000
0000
1000
,
0000
0000
0000
0100
0000
0000
1000
0000
0000
0000
0000
0001
,
0000
0010
0001
0010
,
0001
0000
0000
0000
0000
2002
0000
0000
0000
0000
0000
0000
,
0000
0000
0000
3003
,
1000
0000
0000
0000
0000
2002
0000
0000
0000
0000
0000
0000
,
0000
0000
0000
3003
,
0010
0000
0000
0000
0000
0220
0000
0000
0000
0000
0000
0000
,
0000
0000
0000
0330
,
0100
0000
0000
0000
0000
0220
0000
0000
0000
0000
0000
0000
,
0000
0000
0000
0330
,
0000
0000
0000
0001
0000
0000
0001
0000
0000
0000
0000
1000
,
0000
0010
0100
0000
,
0220
0000
0000
0000
0000
0330
0000
0000
0000
0000
0000
0000
;

//---------------dance-single - ----------------
#NOTEDATA:;
#CHARTNAME:Level 07;
#STEPSTYPE:dance-single;
#DESCRIPTION:;
#CHARTSTYLE:;
#DIFFICULTY:Medium;
#METER:7;
#RADARVALUES:0.435063,0.531810,0.197953,0.380680,0.270283,400.000000,374.000000,26.000000,50.000000,0.000000,0.000000,0.000000,0.000000,0.000000,0.435063,0.531810,0.197953,0.380680,0.270283,400.000000,374.000000,26.000000,50.000000,0.000000,0.000000,0.000000,0.000000,0.000000;
#CREDIT:vincentw;
#NOTES:
0000
0000
0000
0000
,
0000
0000
0000
0000
,
0000
0000
0000
0000
,
0000
0000
0000
0000
,
0000
0000
0000
0000
,
0110
0000
0000
0000
0000
0220
0000
0000
0000
0000
0000
0000
,
0000
0000
0000
0330
,
1001
0000
0000
0000
0000
2002
0000
0000
0000
0000
0000
0000
,
0000
0000
0000
3003
,
0000
1000
0000
1000
0000
0100
0000
0100
,
0000
0010
0000
0010
0000
0001
0000
0001
,
0000
1000
0000
1000
,
0000
0010
0000
0010
,
0000
0100
0000
0100
,
0000
0001
0000
0001
,
0001
1000
0100
1000
,
0000
0010
1000
0010
,
0000
0100
0001
0100
,
0000
0001
0010
0001
,
2000
0000
3000
2000
0000
3000
0200
0000
0300
0200
0000
0300
,
0020
0000
0030
0020
0000
0030
0001
0000
0100
0000
0010
0000
,
1000
0010
0000
0010
,
0000
1000
0000
1000
,
0000
0001
0000
0001
,
0000
0010
0000
0010
,
0110
0100
0000
0100
,
0000
0000
0000
1000
0000
0000
0000
0000
0000
1000
0000
0001
,
0000
0000
0000
0001
0000
0000
0001
0000
0000
0000
0000
0100
,
0000
0100
0100
0010
,
1001
0000
0000
1000
0000
0000
0100
0000
0000
2000
0000
3000
,
0000
0000
0000
0001
0000
0000
0100
0000
0000
0002
0000
0003
,
0000
0000
0000
1000
0000
0000
0010
0000
0000
2000
0000
3000
,
0000
0000
0000
0001
0000
0000
0010
0000
0000
0002
0000
0003
,
0000
0000
0000
1001
0000
0000
1000
0000
0000
0002
0000
0003
,
0000
0000
0000
0100
0000
0000
0010
0000
0000
0200
0000
0310
,
0000
0000
0000
1000
0000
0000
0001
0000
0000
0000
0000
0010
,
0000
0001
1000
0010
,
1000
0000
0000
0100
0000
0000
0001
0000
0000
0000
0000
0001
,
0000
0100
1000
0000
,
1000
0000
0000
0010
0000
0000
0001
0000
0000
0000
0000
0001
,
0000
0010
1000
1000
,
0001
0000
0000
0010
0000
0000
1000
0000
0000
0000
0000
1000
,
0000
0000
0000
0010
0000
0000
0001
0000
0000
0000
0000
1000
,
0000
0000
0000
0010
0000
0000
0001
0000
0000
0000
0000
1000
,
0000
0100
0001
0001
,
1020
0000
0000
0100
0000
0000
0001
0000
0000
0000
0000
0001
,
0000
0100
1030
0000
,
1200
0000
0000
0010
0000
0000
0001
0000
0000
0000
0000
0001
,
0000
0010
1300
1000
,
0201
0000
0000
0010
0000
0000
1000
0000
0000
0000
0000
1000
,
0000
0000
0000
0010
0000
0000
0301
0000
0000
0000
0000
2000
,
0000
0000
0000
0010
0000
0000
3001
0000
0000
0000
0000
2000
,
0000
0100
3001
0001
,
2000
0000
3000
2000
0000
3000
2000
0000
3000
2000
0000
3000
,
0020
0000
0030
0020
0000
0030
1000
0000
0001
0000
1000
0000
,
0100
0000
0000
0100
0000
0000
1000
0000
0000
0000
0000
0010
,
0000
0000
0010
0000
0000
0000
0010
0000
0000
0000
0000
0000
,
0100
0000
0000
0100
0000
0000
0001
0000
0000
0000
0000
0010
,
0000
0000
0010
0000
0000
0000
0010
0000
0000
0000
0000
0000
,
0001
0000
0000
0001
0000
0000
1000
0000
0000
0000
0000
0100
,
0000
0000
0100
0000
0000
0000
0100
0000
0000
0000
0000
0000
,
1000
0000
0000
1000
0000
0000
0001
0000
0000
0000
0000
0100
,
0000
0000
0100
0000
0000
0000
0010
0000
0000
1000
0000
0000
,
0001
0001
0011
0010
,
0010
1010
1000
1000
,
1100
0100
0100
0101
,
0001
0000
0000
0010
0000
0000
0020
0000
0000
0000
0000
0230
,
0000
1300
2000
0000
,
3001
0000
0000
0100
0000
0000
0200
0000
0000
0000
0000
0320
,
0000
1030
0001
0001
,
1000
0000
0000
0100
0000
0000
0200
0000
0000
0000
0000
0320
,
0000
0031
0002
0000
,
1003
0000
0000
0010
0000
0000
0020
0000
0000
0000
0000
0230
,
0000
0301
0010
0100
,
1000
0010
1000
0001
,
1000
0000
0100
0000
0000
2000
0000
0000
0000
0000
0000
0000
,
3001
0010
0001
1000
,
0001
0000
0100
0000
0000
0002
0000
0000
0013
0000
0000
0000
,
0011
0000
0000
0002
0000
0003
0100
0000
0000
1000
0000
0000
,
0100
0000
0001
0000
0000
0020
0000
0000
0000
0030
0000
0100
,
0000
0000
0000
1000
0000
0000
1100
0000
0000
0000
0000
0010
,
0000
0001
0011
0000
,
1100
0100
0010
0100
,
0001
0000
0100
0000
0000
2000
0000
0000
0000
0000
0000
0000
,
3001
0010
0100
0010
,
1000
0000
0010
0000
0000
0002
0000
0000
0013
0000
0000
0000
,
0100
0110
0010
0001
,
1000
0000
0010
0000
0000
0200
0000
0000
0000
0300
0000
0010
,
0000
0000
0000
1000
0000
0000
1010
0000
0000
0000
0000
0100
,
0000
0001
0101
0000
,
1000
0000
0000
0001
0000
0000
0001
0000
0000
0010
0000
0001
,
0000
0010
0100
0000
,
0100
0000
0000
0010
0000
0000
0010
0000
0000
0001
0000
0010
,
0000
0001
1000
0001
,
0010
0000
0000
0100
0000
0000
0100
0000
0000
1000
0000
0100
,
0000
0000
0000
1000
0000
0000
0001
0000
0000
0000
0000
0001
,
0000
0000
0000
1000
0000
0000
0100
0000
0000
0000
0000
1000
,
0000
0001
0100
0010
,
1000
0000
0000
0001
0000
0000
0001
0000
0000
0100
0000
0001
,
0000
0000
0001
0100
0000
0000
0010
0000
0000
0000
0000
0000
,
0100
0000
0000
0010
0000
0000
0010
0000
0000
1000
0000
0010
,
0000
0000
0010
1000
0000
0000
0001
0000
0000
1000
0000
0000
,
0010
0000
0000
0100
0000
0000
0100
0000
0000
0001
0000
0100
,
0000
0000
0100
0001
0000
0000
1000
0000
0000
0000
0000
0001
,
0000
0000
0001
1000
0000
0000
0100
0000
0000
0000
0000
1000
,
0000
0000
1000
0001
0000
0000
0100
0000
0000
0010
0000
0000
,
0100
0000
0000
0001
0000
0102
0000
0000
0000
0010
0000
0000
,
1000
0010
0100
0103
,
0010
0000
0000
1000
0000
2010
0000
0000
0000
0100
0000
0000
,
0001
0100
0010
3010
,
1000
0000
0000
0100
0000
1200
0000
0000
0000
0010
0000
0000
,
0001
0010
1000
1300
,
0001
0000
0000
0010
0000
0021
0000
0000
0000
0100
0000
0000
,
1000
0100
0001
0031
,
1000
0000
0000
0010
0000
0000
0010
0000
0000
1000
0000
0001
,
0000
0000
0001
1000
0000
0000
0100
0000
0000
0010
0000
0000
,
0220
0000
0000
0000
0000
0330
0000
0000
0000
0000
0000
0000
;

//---------------dance-single - ----------------
#NOTEDATA:;
#CHARTNAME:Level 10;
#STEPSTYPE:dance-single;
#DESCRIPTION:;
#CHARTSTYLE:;
#DIFFICULTY:Hard;
#METER:10;
#RADARVALUES:0.737431,1.019302,0.342612,0.373066,1.058290,678.000000,633.000000,45.000000,49.000000,0.000000,0.000000,0.000000,0.000000,0.000000,0.737431,1.019302,0.342612,0.373066,1.058290,678.000000,633.000000,45.000000,49.000000,0.000000,0.000000,0.000000,0.000000,0.000000;
#CREDIT:vincentw;
#NOTES:
0000
0000
0000
0000
,
0000
0000
0000
0000
,
0000
0000
0000
0000
,
0000
0000
0000
0000
,
0000
0000
0000
0000
,
1010
0000
0000
1000
0000
2020
0000
0000
0000
0000
0000
0000
,
0000
0000
3030
0000
,
0101
0000
0000
0001
0000
0202
0000
0000
0000
0000
0000
0000
,
0000
0000
0303
0000
,
0000
0000
1000
0100
0000
0000
0200
0000
0000
0000
0000
0320
0000
0000
0000
0031
0000
0000
2000
0000
0000
0000
0000
0000
,
3000
0000
1000
0010
0000
0000
0020
0000
0000
0000
0000
0230
0000
0000
0000
0301
0000
0000
1000
0000
0000
0001
0010
0100
,
1000
0000
1000
0010
0000
0000
0020
0000
0000
0000
0000
2030
,
0000
0000
0000
3002
0000
0000
0023
0000
0000
0000
0000
0032
,
0000
0000
0000
2003
0000
0000
3020
0000
0000
0000
0000
2030
,
0000
0000
0000
3002
0000
0000
0103
0000
0000
0001
0100
0010
,
1000
0000
1000
0100
0000
0000
0200
0000
0000
0010
0000
2300
,
0000
0000
0000
3002
0000
0000
0203
0000
0000
0010
0000
0302
,
0000
0000
0000
2003
0000
0000
3200
0000
0000
0010
0000
2300
,
0000
0000
0000
3002
0000
0000
0013
0000
0010
0001
0000
0000
,
0100
0000
0100
0001
0000
0001
0010
0000
0010
1000
0000
1000
,
0010
0000
0010
0001
0000
0001
0100
0000
0010
0000
1000
0000
,
1010
0000
0000
0100
0000
0100
0001
0000
0000
1000
0000
0000
,
0001
0000
0010
0000
0000
0002
0000
0000
0000
0010
0000
0000
,
1003
0000
0000
0100
0000
0100
1000
0000
0000
0001
0000
0000
,
1000
0000
0010
0000
0000
2000
0000
0000
3100
0000
0000
0000
,
1100
0000
0000
2000
0000
3000
0010
0000
0010
0001
0000
0000
,
0010
0000
1000
0000
0000
0200
0000
0000
0000
0300
0000
1100
,
0000
0000
0010
0001
0000
0000
0011
0000
0000
0000
0000
0101
,
0000
0000
0010
1000
0000
0000
1010
0000
0000
1001
0000
0000
,
0011
0000
0000
0010
0000
0010
0100
0000
0000
0010
0000
0000
,
1000
0000
0010
0000
0000
0002
0000
0000
0000
0010
0000
0000
,
2003
0000
0000
3001
0000
0001
0010
0000
0000
0100
0000
0000
,
0001
0000
0100
0000
0000
2000
0000
0000
3100
0000
0000
0000
,
1000
0000
0000
1010
0000
0010
0100
0000
0000
0001
0000
0000
,
0010
0000
0100
0000
0000
0020
0000
0000
0000
0030
0000
0110
,
0000
0000
1000
0001
0000
0000
0110
0000
0000
0000
0000
1001
,
0000
0000
0001
0100
0000
0000
0101
0000
0000
1001
0000
0000
,
1100
0000
0000
1000
0000
0000
0001
0000
0100
0010
0000
1000
,
0000
0000
0100
0010
0000
0000
0001
0000
0000
0001
0000
0000
,
1000
0000
0000
1000
0000
0000
0010
0000
1000
0001
0000
0200
,
0000
0000
1300
0002
0000
0000
0013
0000
0000
1000
0000
0000
,
1010
0000
0000
0010
0000
0000
1000
0000
0100
0010
0000
0001
,
0000
0000
0100
0010
0000
0000
1000
0000
0000
0001
0000
1000
,
0000
0000
0010
0100
0000
0000
0001
0000
0000
0100
0000
0010
,
0000
0000
1000
0100
0000
0000
0001
0000
0000
0100
0010
0001
,
0100
0000
0000
0001
0000
0000
1000
0000
0010
0100
0000
0001
,
0000
0000
0010
0100
0000
0000
1000
0000
0000
1000
0000
0000
,
0001
0000
0000
0001
0000
0000
0100
0000
0001
1000
0000
0020
,
0000
0000
0031
2000
0000
0000
3100
0000
0000
0001
0000
0000
,
0101
0000
0000
0100
0000
0000
0001
0000
0010
0100
0000
1000
,
0000
0000
0010
0100
0000
0000
0001
0000
0000
1000
0000
0001
,
0000
0000
0100
0010
0000
0000
1000
0000
0000
0010
0000
0100
,
0000
0000
0001
0010
0000
0000
1000
0000
0000
0010
0000
0000
,
0001
0000
0001
0010
0000
0010
0100
0000
0100
1000
0000
1000
,
0001
0100
0001
0100
0001
0100
0001
0000
1000
0000
0010
0000
,
1010
0000
0000
1000
0000
0000
0001
0000
0000
1000
0000
0010
,
0000
0000
0010
0000
0000
0010
0100
0000
0000
0001
0000
0010
,
0000
0000
0010
0001
0000
0000
1000
0000
0000
0010
0000
0100
,
0000
0000
0100
0000
0000
0100
0001
0000
0000
1000
0000
0100
,
0001
0000
0100
1000
0000
0000
0010
0000
0000
1000
0000
0001
,
0000
0000
0001
0000
0000
0001
1000
0000
0000
0100
0000
1000
,
0000
0000
1000
0100
0000
0000
0010
0000
0000
0001
0000
1000
,
0000
0000
1000
0000
0000
1000
0001
0000
0000
1001
0000
0000
,
1000
0100
0010
0100
1000
0100
0010
0000
0000
0001
0100
0010
,
0100
0001
0100
0010
0000
0000
1000
0010
0100
0010
1000
0010
,
0100
0010
1000
0001
0010
0100
0010
0001
0010
0100
0010
0001
,
1000
0000
1000
0010
0000
0000
0001
0000
0001
0010
0000
1000
,
0100
0000
0001
0100
0000
0000
2000
0000
0000
3001
0000
0000
,
0001
0000
0001
0010
0000
0000
1000
0000
1000
0010
0000
0001
,
0100
0000
1000
0100
0000
0000
0002
0000
0000
0023
0000
0000
,
0031
0000
0001
0100
0000
0000
1000
0000
1000
0100
0000
0001
,
0010
0000
1000
0010
0000
0000
0002
0000
0000
1003
0000
0000
,
1000
0000
1000
0100
0000
0000
0001
0000
0001
0100
0000
1000
,
0001
0010
0001
1000
0010
1000
0001
0100
0001
1000
0100
1000
,
0001
0000
0000
0001
0000
0000
1000
0000
0100
1000
0000
0010
,
0000
0000
0100
0010
0000
0000
1000
0000
0010
0001
0000
0010
,
1000
0000
0000
1000
0000
0000
0001
0000
0010
0001
0000
0100
,
0000
0000
0010
0100
0000
0000
0001
0000
0010
0100
0000
0000
,
0110
0000
0000
1000
0000
1000
0010
0000
0100
0010
0000
0001
,
0000
0000
1000
0100
0000
0010
0100
0000
0001
0100
0000
0101
,
0000
0000
0001
1000
0000
0000
1010
0000
0000
0001
0000
1100
,
0000
0000
0100
0010
0000
0000
0011
0000
0001
0010
0100
1000
,
0100
0000
0000
0200
0000
0000
0310
0000
1000
0010
0000
0001
,
0000
0000
1000
0010
0000
0000
1000
0000
0001
0100
0000
0001
,
0010
0000
0000
0020
0000
0000
0130
0000
0001
0100
0000
1000
,
0000
0000
0010
1000
0000
0000
0001
0000
0100
0010
0000
1000
,
0010
0000
0000
1010
0000
0000
0010
0000
1000
0100
0000
1000
,
0000
0000
0001
0010
0000
1000
0001
0000
0100
1000
0000
1100
,
0000
0000
0100
0010
0000
0000
0011
0000
0000
1000
0000
1010
,
0000
0000
0001
1000
0000
0000
0101
0000
0100
0001
1000
0010
,
1000
0000
0000
0001
0000
0000
1000
0000
1000
0001
0000
0100
,
0000
0000
0100
0010
0000
0000
1000
0000
0001
1000
0000
0000
,
0100
0000
0000
1000
0000
0000
0100
0000
0100
1000
0000
0001
,
0000
0000
0001
0010
0000
0000
0100
0000
1000
0010
0000
0000
,
1010
0000
0000
0010
0000
0000
1000
0000
1000
0010
0000
0100
,
0000
0000
0100
0001
0000
0000
1000
0000
0010
1000
0000
0001
,
0000
0000
0001
0010
0000
0000
0100
0000
1000
0100
0000
1000
,
0000
0000
1000
0010
0000
0010
0100
0000
0000
0001
0010
0100
,
1000
0000
0000
0010
0000
0000
0001
0000
0010
1000
0000
0001
,
0000
0000
0100
1000
0000
0000
0100
0000
0100
0001
0000
0000
,
1000
0000
0000
0100
0000
0000
0001
0000
0100
1000
0000
0001
,
0000
0000
0010
1000
0000
1000
0010
0000
0010
0001
0000
0000
,
0011
0000
0000
0010
0000
0000
1000
0000
0010
0001
0000
1000
,
0000
0000
0010
0001
0000
0000
0010
0000
0010
0002
0000
1003
,
0000
0000
0100
0001
0000
0000
1000
0000
0100
0002
0000
1003
,
0000
0000
0010
0001
0000
0000
0011
0000
0000
1100
0000
0000
,
1001
0000
0000
0100
0000
1001
0000
0000
1000
0010
0000
0010
,
0100
0000
0101
0000
0001
0000
1000
0000
1010
0000
0010
0000
,
0110
0000
0000
0100
0000
0110
0000
0000
0001
0010
0000
0010
,
0001
0000
1000
0100
0000
0100
1000
0000
1000
0010
0000
0100
,
0001
0000
0000
1000
0000
1010
0000
0000
0010
1000
0010
1000
,
0001
0000
0010
0001
0010
0001
1000
0000
0100
1000
0001
0100
,
0001
0000
0100
0010
1000
0100
0010
0000
0100
0010
0001
0100
,
0010
1000
0010
1000
0001
0010
1000
0001
0100
1000
0001
0100
,
0001
0000
0001
1000
0000
0000
1000
0000
0000
0001
0000
0010
,
0000
0000
0010
0100
0000
0000
1000
0000
0010
0100
0000
0000
,
0220
0000
0000
0000
0000
0330
0000
0000
0000
0000
0000
0000
;
