#TITLE:The 4th KAC DJ TOTTO's SELECTION;
#SUBTITLE:;
#ARTIST:remixed by DJ TOTTO;
#TITLETRANSLIT:;
#SUBTITLETRANSLIT:;
#ARTISTTRANSLIT:;
#GENRE:;
#CREDIT:Silverhawke;
#MENUCOLOR:;
#METERTYPE:DDR;
#BANNER:[Punctuations] - The 4th KAC DJ TOTTO's SELECTION.png;
#BACKGROUND:[Punctuations] - The 4th KAC DJ TOTTO's SELECTION-bg.png;
#LYRICSPATH:;
#CDTITLE:cdtitle.png;
#MUSIC:[Punctuations] - The 4th KAC DJ TOTTO's SELECTION.mp3;
#OFFSET:-0.029;
#SAMPLESTART:41.736;
#SAMPLELENGTH:15.000;
#SELECTABLE:YES;
#LISTSORT:;
#BPMS:0.000=188.000,67.000=180.000,110.000=90.000,113.000=180.000,189.000=196.000,301.000=182.000;
#STOPS:304.000=0.165
,307.500=0.165
,311.000=0.165
,318.500=0.165
,322.000=0.165
;
#BGCHANGES:;
#ATTACKS:;

//---------------dance-single - ----------------
#NOTES:
     dance-single:
     :
     Easy:
     5:
     0.336,0.378,0.061,0.052,0.000: // measure 1
0000
0000
0000
0000
,  // measure 2
0000
0000
0000
0000
,  // measure 3
0000
0000
0000
0000
,  // measure 4
0000
0000
0000
0000
,  // measure 5
0000
0000
0000
0000
,  // measure 6
0001
0000
0000
0100
0000
0000
0000
0010
,  // measure 7
0000
1000
0000
0000
0001
0000
0010
0000
,  // measure 8
0100
0000
1000
0000
,  // measure 9
0000
0001
0000
0001
0000
0001
0000
0000
,  // measure 10
0100
0000
0010
0000
0100
0000
0001
1000
,  // measure 11
0000
1000
0000
1000
0000
1000
0000
1000
,  // measure 12
0100
0000
0010
0000
0001
0000
1000
0010
,  // measure 13
0000
0010
0000
0010
0000
0010
0000
0010
,  // measure 14
0100
0000
0001
0000
1000
0000
0100
0010
,  // measure 15
0000
0010
0000
0010
0000
0010
0000
0000
,  // measure 16
0001
0000
0000
1000
0000
0000
0000
1001
,  // measure 17
0000
0000
0000
0002
,  // measure 18
0103
0010
0100
0100
,  // measure 19
0000
0001
1000
0100
,  // measure 20
0010
0010
0000
0100
,  // measure 21
1000
0001
1000
0000
0100
0000
1000
0001
,  // measure 22
1000
0000
0010
0000
0100
0000
0000
0001
,  // measure 23
0000
1000
0001
0100
,  // measure 24
0010
1000
0100
0010
,  // measure 25
0000
0010
0001
1000
,  // measure 26
0010
0100
0100
0100
,  // measure 27
0001
0000
1000
0001
,  // measure 28
1000
0100
0020
0000
,  // measure 29
0000
0030
0001
0000
1000
0000
0001
0000
,  // measure 30
1000
0000
0100
0010
,  // measure 31
0000
0001
0000
0000
1000
0000
0010
0000
,  // measure 32
0100
0001
0000
0010
,  // measure 33
0000
1000
0000
0100
,  // measure 34
0000
0001
0000
0100
,  // measure 35
0000
1000
0000
0010
,  // measure 36
0000
0001
0100
0010
,  // measure 37
0010
1000
0100
0010
,  // measure 38
0010
0100
1000
0001
,  // measure 39
1000
0010
0010
0010
,  // measure 40
0100
0001
0000
1000
,  // measure 41
0000
0000
0100
0010
0100
0000
1000
0000
,  // measure 42
0000
0001
0000
0100
,  // measure 43
0010
1000
0001
0010
,  // measure 44
0000
0100
0000
1000
,  // measure 45
0000
0000
0001
0100
0001
0000
0010
0000
,  // measure 46
0000
0100
0100
1000
,  // measure 47
1000
0000
0001
0000
0100
0000
0010
1000
,  // measure 48
0001
1001
0000
0000
,  // measure 49
0000
0110
0000
0000
,  // measure 50
0000
1001
0000
0000
,  // measure 51
0000
0110
0000
0001
,  // measure 52
1000
0000
0010
0000
0010
0000
0000
0100
,  // measure 53
0000
0100
0000
0000
0000
0000
0001
1000
,  // measure 54
0001
0000
0100
0000
0100
0000
0000
0010
,  // measure 55
0000
0010
0000
0000
1000
0000
0001
0000
,  // measure 56
0000
0000
1000
0000
1000
0000
0000
0001
,  // measure 57
0000
0001
0000
0000
0000
0000
0010
0100
,  // measure 58
0010
0000
0001
0000
0001
0000
0000
1000
,  // measure 59
0000
1000
0000
1000
0000
1000
0100
0000
,  // measure 60
0010
0001
0001
0100
,  // measure 61
0100
0010
1000
0001
,  // measure 62
0000
1000
1000
0100
,  // measure 63
0100
0010
0001
1000
,  // measure 64
0000
0010
0010
0100
,  // measure 65
0100
0001
1000
0001
,  // measure 66
1000
0100
0010
0001
,  // measure 67
1000
0100
0010
0002
,  // measure 68
0003
1000
1000
0010
,  // measure 69
0010
0100
0001
1000
,  // measure 70
0000
0001
0001
0010
,  // measure 71
0010
0100
1000
0001
,  // measure 72
0000
1000
1000
0010
,  // measure 73
0010
0100
0100
0001
,  // measure 74
0001
2000
0000
0000
,  // measure 75
3000
0002
0000
0000
,  // measure 76
0003
0000
0100
0000
0000
0100
0000
0000
,  // measure 77
0100
0010
0000
0000
0010
0000
0000
0010
,  // measure 78
1000
0000
0000
1000
0000
0000
1000
0001
,  // measure 79
0000
0010
0000
0100
0000
1000
0000
0001
,  // measure 80
0000
0000
1000
0000
0000
1001
0010
0000
,  // measure 81
0000
0100
0000
0000
0110
0001
0000
0000
,  // measure 82
1000
0000
0000
0100
0000
0010
0000
0010
,  // measure 83
0000
0001
0100
0010
0000
2000
0000
0000
,  // measure 84
0000
0000
0000
0000
,  // measure 85
0000
0000
0000
0000
,  // measure 86
0000
0000
0000
0000
,  // measure 87
0000
0000
0000
0000
0000
3000
0000
0000
;

//---------------dance-single - ----------------
#NOTES:
     dance-single:
     :
     Medium:
     7:
     0.609,0.680,0.236,0.157,0.026: // measure 1
0000
0000
0000
0000
,  // measure 2
0000
0000
0000
0000
,  // measure 3
0000
0000
0000
0000
,  // measure 4
0000
0000
0000
0000
,  // measure 5
0000
0000
0000
0000
,  // measure 6
1000
0100
0010
0100
0000
1000
0001
1000
,  // measure 7
0000
0010
0100
0001
1000
0100
0010
0001
,  // measure 8
0100
0000
0110
0000
,  // measure 9
0000
0001
0000
1000
0000
1001
0000
0000
,  // measure 10
0001
0010
0100
0000
1000
0000
0010
0100
,  // measure 11
0000
0001
0000
0010
0000
0100
0000
1000
,  // measure 12
0001
0100
0010
0000
0100
0000
0001
1000
,  // measure 13
0000
0100
0000
0010
0000
0100
0000
1000
,  // measure 14
0001
0100
0010
0000
1000
0000
0100
0010
,  // measure 15
0000
0001
0000
1000
0000
0010
0000
0000
,  // measure 16
0101
0000
0000
1100
0000
0000
0000
1001
,  // measure 17
0000
0000
0000
0000
0000
0000
0000
0000
0000
0000
0000
0000
0001
0100
0001
0000
,  // measure 18
1000
0000
0100
0010
0001
0010
0100
0000
,  // measure 19
2000
3000
0010
0100
0001
0000
1000
0100
,  // measure 20
0010
0100
1000
0000
0001
0100
0010
1000
,  // measure 21
0001
0001
0010
0100
1000
0010
0100
0100
,  // measure 22
0001
1000
0100
0010
0001
0000
0001
0010
,  // measure 23
0100
0000
1000
0000
1000
0010
0100
0001
,  // measure 24
1000
0000
0001
0010
0100
0010
0001
0000
,  // measure 25
1000
0000
0010
0100
0001
0000
1000
0100
,  // measure 26
0001
0100
1000
0000
0010
0000
0100
0100
,  // measure 27
0001
0000
0010
0100
1000
0001
0100
0000
,  // measure 28
0010
0000
1000
0000
0001
0000
0001
0000
0010
0100
1000
0010
0100
0001
1000
0000
,  // measure 29
0001
0100
0010
0100
0001
0000
0001
0000
1000
0000
0100
0000
0010
0000
0001
0000
,  // measure 30
0100
0000
0010
1000
0001
0010
0110
0000
,  // measure 31
0000
1001
0000
0000
1000
1000
0100
0010
,  // measure 32
0001
1001
0000
0001
,  // measure 33
0000
0100
0000
0010
,  // measure 34
1000
0000
1001
1001
0000
0000
0001
0000
,  // measure 35
0000
0010
0000
0100
,  // measure 36
1000
0000
0001
0100
0010
0000
0100
0001
,  // measure 37
1000
0100
1000
0010
0100
0000
0001
0010
,  // measure 38
0001
0100
0010
1000
0100
0010
0100
1000
,  // measure 39
0001
0000
0100
0010
0010
0010
1000
0001
,  // measure 40
0010
0100
2000
0000
3001
0100
1000
0000
,  // measure 41
0100
0001
1000
0100
0010
0001
0200
0000
,  // measure 42
0310
1000
0001
0000
0010
0100
1000
0100
,  // measure 43
0001
0100
1000
0010
0100
0001
0000
0001
,  // measure 44
1000
0100
0020
0000
0031
0100
1000
0000
,  // measure 45
0100
0001
1000
0010
0100
0001
0020
0000
,  // measure 46
0130
1000
0001
0001
0100
0100
0010
1000
,  // measure 47
0100
0010
0001
0000
1000
0010
0100
0001
,  // measure 48
0010
0100
1000
0000
0000
0000
0000
0000
,  // measure 49
0000
0101
0000
0000
,  // measure 50
0000
0001
0000
0000
,  // measure 51
0000
1100
0000
0002
,  // measure 52
0203
0000
0310
0000
0110
0000
0000
1000
,  // measure 53
0000
1001
0000
0001
0010
0100
1000
0010
,  // measure 54
0100
0000
0001
0000
1001
0000
0000
0100
,  // measure 55
0000
0110
0000
0010
1000
0001
0010
0000
,  // measure 56
0000
0000
0001
0000
0101
0000
0000
1000
,  // measure 57
0000
1100
0000
0010
0001
0100
0010
1000
,  // measure 58
0001
0000
1000
0000
1010
0000
0000
0001
,  // measure 59
0000
0011
0000
0110
0000
0110
2000
0000
,  // measure 60
3001
0100
0010
1000
0100
0000
0010
1000
,  // measure 61
0100
0000
0010
1000
0100
1000
0002
0000
,  // measure 62
0013
0100
1000
0001
0100
0000
1000
0001
,  // measure 63
0100
0000
1000
0001
0100
0001
0020
0000
,  // measure 64
0130
1000
0010
0100
0001
0000
0010
0100
,  // measure 65
0001
0000
0010
0100
0001
0010
0100
1000
,  // measure 66
0001
0100
0000
0010
0100
0010
0100
0010
,  // measure 67
0100
0010
1000
0100
0001
0100
2000
0000
,  // measure 68
3001
0100
0010
1000
0100
0000
0010
1000
,  // measure 69
0100
0000
0010
1000
0100
1000
0001
0000
,  // measure 70
0010
0001
0100
0010
1000
0000
0100
0010
,  // measure 71
1000
0000
0100
0010
1000
0001
0020
0000
,  // measure 72
0130
1000
0001
0100
0100
0010
1000
0100
,  // measure 73
0100
0010
0001
1000
0010
0100
0001
1000
,  // measure 74
0100
2002
0000
0000
,  // measure 75
3003
0220
0000
0000
,  // measure 76
0330
0000
1000
0100
1000
0001
0100
0001
,  // measure 77
0010
0001
0100
0001
1000
0100
1000
0010
,  // measure 78
1000
0010
0100
0001
0010
0100
1000
0001
,  // measure 79
0100
0010
1000
0100
0010
0002
0003
1000
,  // measure 80
0010
0010
0100
0001
0001
1001
0001
0010
,  // measure 81
0010
0100
1000
1000
1001
1000
0100
0100
,  // measure 82
0010
0001
0001
0100
0100
0010
1000
1001
,  // measure 83
0000
0001
0010
1000
0100
0002
0000
0000
,  // measure 84
0000
0000
0000
0000
,  // measure 85
0000
0000
0000
0000
,  // measure 86
0000
0000
0000
0000
,  // measure 87
0000
0000
0000
0000
0000
0003
0000
0000
;

//---------------dance-single - ----------------
#NOTES:
     dance-single:
     :
     Hard:
     10:
     0.810,1.000,0.419,0.253,0.388: // measure 1
0000
0000
0000
0000
,  // measure 2
0000
0000
0000
0000
,  // measure 3
0000
0000
0000
0000
,  // measure 4
0000
0000
0000
0000
,  // measure 5
0000
0000
0000
0000
,  // measure 6
0010
0001
0100
0010
0000
1000
0100
0010
,  // measure 7
0000
0000
0001
0100
0001
0000
1000
0000
0100
0000
0010
0000
0001
0000
1000
0000
,  // measure 8
1100
0000
0101
0000
,  // measure 9
0000
1010
0000
0011
0000
1001
0000
0000
,  // measure 10
0001
0100
0010
0100
0001
0010
0100
1000
,  // measure 11
0010
0100
0001
0010
0000
1100
0000
0011
,  // measure 12
0001
1000
0010
0100
0010
1000
0100
0110
,  // measure 13
0000
0011
0000
1001
0000
1010
0000
0110
,  // measure 14
0100
0001
1000
0100
0010
0100
1000
0010
,  // measure 15
0100
0001
0010
0100
1000
0001
0100
0000
,  // measure 16
1010
0000
0000
0011
0000
0000
0000
1001
,  // measure 17
0000
0000
0000
0000
0000
0000
0000
0000
0000
0000
0000
0000
0001
1000
0001
1000
,  // measure 18
0002
0000
0000
0000
0013
0000
0100
1000
0001
0000
0100
0000
0020
0000
0000
0000
,  // measure 19
1030
0000
0010
0000
0001
0000
0010
0000
0200
0000
0000
0000
0301
0000
0010
0100
,  // measure 20
1000
0001
0200
0000
0310
1000
0001
0010
,  // measure 21
0100
1000
0001
1000
0100
0000
0010
0000
0001
0000
0100
0000
0010
1000
0001
1000
,  // measure 22
0010
0100
0001
0010
0110
0000
1000
0001
,  // measure 23
0100
0000
0110
0000
0010
1000
0001
0010
,  // measure 24
0210
0000
0000
0000
1300
0000
0001
0100
0010
0000
1000
0000
0002
0000
0000
0000
,  // measure 25
0010
0000
0000
0000
0103
0000
0010
0000
2000
0000
0000
0000
3001
0000
0100
0010
,  // measure 26
1000
0001
0011
0000
0110
0000
0100
1000
,  // measure 27
1002
0000
0000
0000
0103
0000
0010
1000
0001
0000
0010
0000
0200
0000
0000
0000
,  // measure 28
1300
0000
0000
0000
1000
0000
0000
0000
0001
0000
0100
0000
0001
0000
0100
0000
0010
0000
1000
0100
1000
0000
0001
0100
0001
0000
0010
0000
0200
0000
0000
0000
,  // measure 29
1300
0010
0001
0010
0100
0001
0100
0001
0100
0000
0010
0000
1000
0000
0010
0000
,  // measure 30
0100
0000
0000
0000
0000
0000
0001
0000
0000
0000
0000
0000
0010
0000
0000
0000
0000
0000
0100
0000
0000
0000
0000
0000
1000
0000
0000
0001
0000
0000
1000
0000
0000
0000
0000
0000
0001
0000
0000
0000
0010
0000
0000
0000
0001
0000
0000
0000
,  // measure 31
1000
0000
0000
0000
0010
0000
0000
0000
1000
0000
0000
0000
0001
0000
0000
0000
0100
0000
0000
0000
0100
0000
0000
0000
1000
0000
0000
0000
0000
0000
0010
0000
0000
0000
0000
0000
0100
0000
0000
0001
0000
0000
0100
0000
0000
0001
0000
0000
,  // measure 32
1000
0100
0110
0010
0000
0000
0001
0001
,  // measure 33
0000
0000
0100
0100
0000
0000
0010
0000
,  // measure 34
1000
0000
1001
1001
0000
0000
0010
0010
,  // measure 35
0000
0000
1000
1000
0000
0000
0100
0000
,  // measure 36
0010
0000
0000
0000
0001
0000
1000
0000
0001
0000
0010
0100
0010
0000
0001
0000
,  // measure 37
1000
0000
0010
0000
0100
0000
0001
0000
1000
0000
0100
0010
0100
0000
1000
0000
,  // measure 38
0010
0000
0100
0000
0001
0000
1000
0100
0010
0000
0100
0010
0001
0000
1000
0000
,  // measure 39
0010
0000
1000
0000
0001
0000
0100
0000
0100
0000
0100
0000
0010
1000
0001
0010
,  // measure 40
0100
0000
1000
0000
0002
0000
0000
0000
0103
0010
0100
0010
2000
0000
0000
0000
,  // measure 41
3100
0010
0100
0010
0001
0000
0100
0000
1000
0000
0100
0000
0002
0000
0000
0000
,  // measure 42
1003
0000
0100
0000
0020
0000
0000
0000
0031
0000
1000
0100
1000
0000
0010
0000
,  // measure 43
0100
0000
0001
0000
0010
0000
1000
0000
0010
0000
0002
0000
0000
0000
1003
0100
,  // measure 44
1000
0000
0010
0000
0200
0000
0000
0000
0310
1000
0010
1000
0002
0000
0000
0000
,  // measure 45
0013
0001
0010
0001
1000
0000
0010
0000
0001
0000
0010
0000
2000
0000
0000
0000
,  // measure 46
3100
0000
0010
0000
0001
0000
0001
0000
1000
0000
1000
0000
0010
0100
0010
0100
,  // measure 47
0001
1000
0001
1000
0200
0000
0000
0000
0310
0100
1000
0000
0001
0000
0100
0000
,  // measure 48
0010
1000
1100
0000
0000
0000
0000
0000
,  // measure 49
0000
0101
0000
0000
,  // measure 50
0000
0011
0000
0000
,  // measure 51
0000
0000
0000
1010
0000
0000
0000
0000
0000
0001
0010
0001
,  // measure 52
1000
0000
0010
0000
1000
0000
0100
0000
0000
0000
0000
0000
0110
0000
0000
0000
0000
0000
0000
0000
0000
1001
0000
0000
,  // measure 53
0000
0000
1001
0000
0000
0000
0001
0100
0001
0000
0010
0000
0100
0000
0100
0000
,  // measure 54
1000
0000
0110
0000
0110
0000
0000
1001
,  // measure 55
0000
0000
1001
0000
0000
0000
1000
0010
1000
0000
0100
0000
0110
0000
0000
0000
,  // measure 56
0000
0000
1100
0000
0101
0000
0000
1010
,  // measure 57
0000
0000
0011
0000
0000
0000
1000
0010
1000
0000
0100
0000
0010
0000
0010
0000
,  // measure 58
0001
0000
0101
0000
1100
0000
0000
0011
,  // measure 59
0000
1010
0000
1001
0000
1001
0200
0000
,  // measure 60
0310
1000
0001
0010
0010
0100
1000
0010
,  // measure 61
0010
0100
0001
0010
0100
1000
0002
0000
,  // measure 62
1003
0010
0100
0001
0001
0010
0100
1000
,  // measure 63
1000
0010
0100
0001
0010
0100
2000
0000
,  // measure 64
3001
0100
0010
1000
1000
0100
0010
0001
,  // measure 65
0001
0010
0100
0001
0100
1000
0010
0100
,  // measure 66
0001
1000
0000
0100
0100
0100
0100
0100
,  // measure 67
0100
0100
0010
0001
0010
0001
1000
1000
,  // measure 68
0001
0100
0001
0100
0010
0000
1000
0000
1000
0000
0100
0000
0010
0000
0001
0000
,  // measure 69
0001
0100
0010
1000
0001
1000
0200
0000
,  // measure 70
0310
0001
0100
0010
0010
0100
1000
0100
,  // measure 71
0100
0001
0010
0100
1000
0100
0020
0000
,  // measure 72
0031
0100
0010
0001
0001
0010
1000
0100
,  // measure 73
0100
0001
0100
1000
1000
0010
0100
0001
,  // measure 74
1000
0000
0200
0010
0010
0010
0010
0010
,  // measure 75
0010
0310
0001
0100
0010
1000
0200
0000
,  // measure 76
0300
0000
0000
0000
1000
0100
1000
0000
0001
0000
1000
0100
1000
0000
0001
0000
,  // measure 77
0010
0000
0001
0100
0001
0000
1000
0000
0001
0100
0001
0000
1000
0000
0010
0000
,  // measure 78
1000
0100
1000
0000
0010
0000
1000
0100
1000
0000
0010
0000
0100
0000
0001
0010
,  // measure 79
0001
0000
0100
0000
0010
0000
1000
0100
0010
0001
2000
0000
3000
0000
0001
0100
,  // measure 80
0001
0100
0001
0000
0100
0001
0100
0001
0100
0000
0101
0000
1000
0100
1000
0100
,  // measure 81
1000
0000
0100
1000
0100
1000
0100
0000
1100
0000
0001
1000
0001
1000
0001
0000
,  // measure 82
1000
0001
1000
0001
1000
0000
0010
0100
0010
0100
0001
0000
0010
0000
0200
0000
,  // measure 83
0000
0000
1300
0010
0100
0010
1000
0100
0010
0001
0200
0000
0000
0000
0000
0000
,  // measure 84
0000
0000
0000
0000
,  // measure 85
0000
0000
0000
0000
,  // measure 86
0000
0000
0000
0000
,  // measure 87
0000
0000
0000
0000
0000
0300
0000
0000
;
