#TITLE:Planetary (GO!);
#SUBTITLE:;
#ARTIST:My Chemical Romance;
#TITLETRANSLIT:;
#SUBTITLETRANSLIT:;
#ARTISTTRANSLIT:;
#GENRE:;
#CREDIT:;
#BANNER:Folder.jpg;
#BACKGROUND:Planetary (Go!)-bg.png;
#LYRICSPATH:;
#CDTITLE:;
#MUSIC:Planetary (GO!).mp3;
#OFFSET:0.432738;
#SAMPLESTART:55.870396;
#SAMPLELENGTH:12.000000;
#SELECTABLE:YES;
#BPMS:0.000000=132.125000
;
#STOPS:
;
#BGCHANGES:;
#KEYSOUNDS:;
#ATTACKS:;

//---------------dance-single - ----------------
#NOTES:
     dance-single:
     :
     Easy:
     4:
     0.335552,0.472272,0.766296,0.099952,0.000000,282.000000,190.000000,92.000000,12.000000,0.000000,0.000000,0.335552,0.472272,0.766296,0.099952,0.000000,282.000000,190.000000,92.000000,12.000000,0.000000,0.000000:
0000
0000
0000
0000
,
0000
0000
0000
0000
,
0000
0000
0000
0000
,
1000
1000
0001
0001
,
0100
0100
0010
0010
,
1000
0010
0100
0001
,
0100
0010
1000
0001
,
1000
0100
0010
0100
,
1000
1000
0001
0100
,
0110
0000
0000
0000
,
1001
0000
0000
0000
,
0001
0010
0100
0010
,
0001
0001
0100
0010
,
1001
0000
0000
0000
,
0110
0000
0000
0000
,
0002
0000
0000
0000
,
0023
0000
0000
0000
,
0230
0000
0000
0000
,
2300
0000
0000
0000
,
3020
0000
0000
0000
,
0230
0000
0000
0000
,
0301
0001
1000
1000
,
0010
0010
0100
0010
,
1001
1001
1001
1001
,
0110
0110
0110
0110
,
1010
1010
1010
1010
,
0101
0101
0011
1100
,
0110
0110
0110
0110
,
1001
1001
1001
1001
,
0011
0011
0011
0011
,
1100
1100
1010
0101
,
0001
0001
1000
1000
,
0110
1000
0010
0100
,
0101
0010
1000
0100
,
0110
0110
1001
1001
,
0001
0001
1000
1000
,
0110
1000
0100
0010
,
0011
0100
1000
0001
,
1001
0100
0110
0110
,
0000
1010
0000
0110
0000
0101
0000
0011
,
0000
0001
0001
0001
,
0000
0101
0000
0110
0000
1010
0000
1100
,
0000
1000
0100
0100
,
1000
0010
0100
0100
,
0001
0010
0100
0100
,
0000
1100
0000
0110
0000
0011
0000
0101
,
0000
0010
0100
0100
,
0002
0000
0000
0000
,
2003
0000
0000
0000
,
3200
0000
0000
0000
,
0320
0000
0000
0000
,
0032
0000
0000
0000
,
0203
0000
0000
0000
,
0310
0010
1000
1000
,
0001
0001
0100
0010
,
0110
0110
0110
0110
,
1001
1001
1001
1001
,
0011
0011
0011
0011
,
1100
1100
1010
0101
,
1001
1001
1001
1001
,
0110
0110
0110
0110
,
1010
1010
1010
1010
,
0101
0101
0011
1100
,
1001
0000
0000
0000
;

//---------------dance-single - ----------------
#NOTES:
     dance-single:
     :
     Hard:
     9:
     0.606850,0.787120,0.516417,0.049976,0.283196,510.000000,448.000000,62.000000,6.000000,0.000000,0.000000,0.606850,0.787120,0.516417,0.049976,0.283196,510.000000,448.000000,62.000000,6.000000,0.000000,0.000000:
0000
0000
0000
0000
,
0000
0000
0000
0000
,
0000
0000
0000
0000
,
0010
0010
0010
0010
,
0010
0010
0010
0010
,
0010
0100
0010
0000
0010
0100
0010
0100
0001
0010
0100
0000
1000
0100
1000
0100
,
0010
0001
1000
0000
0001
1000
0001
1000
0010
0100
0010
0100
0001
1000
0001
1000
,
0001
0010
1000
0010
0001
0100
0010
0100
,
0001
0000
0010
0000
0100
1000
0000
0100
1000
0000
0010
0000
0001
0000
0010
0000
,
1000
0000
0100
0000
0010
0100
0000
0010
0100
0000
1000
0000
0001
0000
1000
0000
,
0001
0000
0100
0000
0010
0100
0000
0010
0100
0000
0001
0000
1001
0000
1001
0000
,
1000
0000
0100
0000
0001
0000
0100
0000
1000
0000
0010
0000
0100
0000
0010
1000
,
0000
0000
1000
0001
0000
0000
0001
0010
0000
0000
0010
0100
0010
0000
0100
0000
,
0010
0000
0001
0000
1000
0001
0000
1000
0001
0000
0100
0000
0010
0000
0100
0000
,
0010
0000
1000
0000
0001
1000
0000
0001
1000
0000
0100
0000
0110
0000
0110
0000
,
0001
0000
0100
0000
1000
0000
0000
0000
1000
0000
0100
0000
0001
0000
1000
0100
,
0000
0000
0100
0010
0000
0000
0010
0001
0000
0000
0001
0000
1000
0000
0000
0000
,
2002
0000
0003
0010
,
0020
0000
0000
3030
,
1000
0000
0100
0000
0001
0000
0000
0000
0001
0000
0100
0000
1000
0000
0001
0100
,
0000
0000
0100
0010
0000
0000
0010
1000
0000
0000
0001
0000
0100
0000
1000
0000
,
0001
1000
0100
0001
1000
0001
0010
1000
,
0001
0100
0001
0100
0010
0100
0010
0100
0010
0001
0010
0001
1000
0000
0001
1000
,
0001
0100
0010
0100
1000
0100
0110
0110
,
0001
0010
0100
0010
1000
0010
0110
0110
,
0001
0100
0010
0100
1000
0100
0110
0110
,
0001
0010
0100
0010
0011
0001
1001
0000
,
1000
0010
0100
0010
0001
0010
0110
0110
,
1000
0100
0010
0100
0001
0100
0110
0110
,
1000
0010
0100
0010
0001
0010
0110
0110
,
1000
0100
0010
0100
1100
1000
1001
0000
,
0001
0100
1000
0100
0010
1000
0001
0011
,
0001
0010
1000
0010
0100
1000
0001
0101
,
0001
0100
1000
0100
0010
1000
0001
0011
,
0000
0101
0000
1010
1100
0000
1001
0000
,
1000
0100
0001
0100
0010
0001
1000
1010
,
1000
0010
0001
0010
0100
0001
1000
1100
,
1000
0100
0001
0100
0010
0001
1000
1010
,
1000
0010
0001
0010
0110
0000
1001
0000
,
0000
0000
1000
0100
0000
0000
0001
0100
0000
0000
1000
0100
0000
0000
0001
0100
,
1000
0001
0100
1000
0100
0010
1000
1001
,
0000
0000
0001
0010
0000
0000
1000
0010
0000
0000
0001
0010
0000
0000
1000
0010
,
0001
1000
0010
0100
0110
0000
1001
0000
,
0000
1100
0010
0001
0101
0110
0101
0110
,
0000
0011
0100
1000
1010
0110
1010
0110
,
0000
0000
1000
0100
0010
0000
0001
0010
0100
0000
1000
0100
0010
0000
0001
0010
,
0100
0000
1000
0010
0100
0000
0010
0000
0110
0000
0000
0000
1001
0000
0000
0000
,
0001
0000
0010
0000
1000
0000
0000
0000
1000
0000
0010
0000
0001
0000
1000
0010
,
0000
0000
0010
0100
0000
0000
0100
0001
0000
0000
0001
0000
1000
0000
0000
0000
,
2002
0000
0003
0010
,
0020
0000
0000
3030
,
1000
0100
0001
0000
0001
0100
1000
0001
,
0100
0010
0000
1010
0000
1000
0010
0001
,
1000
0001
0010
1000
0001
1000
0100
0001
,
1000
0010
1000
0010
0100
0010
0100
0010
0001
0000
0000
0000
1001
0000
0000
0000
,
0000
0000
0001
0100
0000
0000
1000
0100
0001
0000
1000
0000
0100
0000
0110
0000
,
0000
0000
1000
0010
0000
0000
0001
0010
1000
0000
0001
0000
0010
0000
0110
0000
,
0000
1001
0000
0001
0100
1000
0100
0001
,
0000
1000
0100
0010
0101
0000
1010
0000
,
0000
0000
1000
0100
0000
0000
0001
0100
1000
0000
0001
0000
0100
0000
0110
0000
,
0000
0000
0001
0010
0000
0000
1000
0010
0001
0000
1000
0000
0010
0000
0110
0000
,
0000
1000
0100
0001
0100
1000
0001
1001
,
0000
0001
0100
0010
1100
0000
0011
0000
,
1001
0000
0000
0000
;

//---------------dance-single - ----------------
#NOTES:
     dance-single:
     :
     Medium:
     7:
     0.455732,0.498509,0.649686,0.183245,0.000000,383.000000,305.000000,78.000000,22.000000,0.000000,0.000000,0.455732,0.498509,0.649686,0.183245,0.000000,383.000000,305.000000,78.000000,22.000000,0.000000,0.000000:
0000
0000
0000
0000
,
0000
0000
0000
0000
,
0000
0000
0000
0000
,
0100
0100
0100
0100
,
0100
0100
0100
0100
,
0100
0010
0100
0001
1000
0100
1000
0001
,
0010
0100
0010
0001
1000
0010
0100
0100
,
0001
0100
0010
0000
0110
0000
0100
0001
,
0000
0011
0000
0000
0000
0001
0010
0100
,
2000
0000
0000
0000
,
3002
0000
0000
0000
0000
0000
1000
1000
,
1003
0010
0100
0000
0110
0000
0010
1000
,
0000
1100
0000
0110
0000
0001
0100
0010
,
2000
0000
0000
0000
,
3002
0000
0000
0000
0000
0000
1000
1000
,
1003
0100
0010
0000
0110
0000
0100
1000
,
0000
1100
0000
0101
0000
0001
0100
0000
,
0220
0000
0330
1000
,
2002
0000
0000
3003
,
0001
0010
0100
0000
0110
0000
0010
0001
,
0000
0011
0000
1010
0000
1000
0010
0100
,
0000
0001
0010
0100
0000
1000
0010
0100
,
0000
0001
0010
0100
1000
0010
0100
0001
,
0000
1001
0000
1001
0000
1001
0100
0010
,
0000
0110
0000
0110
0000
0110
1000
0001
,
0000
1001
0000
1001
0000
1001
0010
0100
,
0000
0110
0000
0110
0002
0000
2003
0000
,
3000
1010
0000
1010
0000
1010
0100
0001
,
0000
0101
0000
0101
0000
0101
0001
0010
,
0000
0011
0000
0011
0000
0011
0100
1000
,
0000
1100
0000
1100
0020
0000
0230
0000
,
0300
0001
0001
0100
0010
0100
0001
0020
,
0000
0100
0100
0000
0001
0001
0031
0200
,
0000
0010
0010
0000
1000
1000
1300
1100
,
0000
0110
0000
0001
1000
0000
1001
0000
,
0000
1000
1000
0100
0010
0100
1000
0020
,
0000
0100
0100
0000
1000
1000
1030
0200
,
0000
0010
0010
0000
0001
0001
0301
0101
,
0000
0100
0010
0001
1001
0000
0110
0000
,
0000
1010
0000
0101
0000
1010
0000
0101
,
0000
0001
0010
1000
0010
0001
0010
0001
,
0000
0011
0000
1100
0000
0011
0000
1100
,
0000
1000
0010
0100
0110
0000
1001
0000
,
0000
1001
0001
1000
0100
0010
0100
0110
,
0000
0110
0100
0010
0001
1000
0001
1001
,
0000
0001
0100
1000
0100
0001
0100
1000
,
0100
0010
1000
0001
1001
0000
1001
0000
,
0001
0010
0100
0000
0110
0000
0010
0001
,
0000
0011
0000
1010
0000
1000
0010
0000
,
0220
0000
0330
1000
,
2002
0000
0000
3003
,
1000
0100
0010
0000
0110
0000
0100
1000
,
0010
0100
0000
0110
0000
0001
0100
0010
,
0000
1000
0100
0010
0000
0001
0100
0010
,
0000
1000
0100
0010
0001
0000
1001
0000
,
0000
0110
0000
0110
1000
0100
0010
0001
,
0000
0011
0000
0011
0100
1000
0001
0100
,
0000
0101
0000
0001
0100
0010
1000
0001
,
0000
0001
0100
0010
0110
0000
1001
0000
,
0000
0110
0000
0110
0001
0010
0100
1000
,
0000
1100
0000
1100
0010
0001
1000
0010
,
0000
0010
0100
0001
0010
0100
1000
0001
,
0000
0001
0100
0010
0110
0000
2002
0000
,
3003
0000
0000
0000
;

//---------------dance-single - ----------------
#NOTES:
     dance-single:
     :
     Beginner:
     1:
     0.000000,0.000000,0.000000,0.000000,0.000000,0.000000,0.000000,0.000000,0.000000,0.000000,0.000000,0.000000,0.000000,0.000000,0.000000,0.000000,0.000000,0.000000,0.000000,0.000000,0.000000,0.000000:
// measure 0
0000
0000
0000
0000
;
