#TITLE:Nude Beach a Go-Go;
#SUBTITLE:;
#ARTIST:Azealia Banks;
#TITLETRANSLIT:;
#SUBTITLETRANSLIT:;
#ARTISTTRANSLIT:;
#GENRE:;
#CREDIT:;
#BANNER:[Punctuations] - Nude Beach A Go-Go.png;
#BACKGROUND:[Punctuations] - Nude Beach A Go-Go-bg.png;
#LYRICSPATH:;
#CDTITLE:;
#MUSIC:[Punctuations] - Nude Beach A Go-Go.mp3;
#OFFSET:-0.394;
#SAMPLESTART:34.953;
#SAMPLELENGTH:17.289;
#SELECTABLE:YES;
#BPMS:0.000=166.000
,268.000=83.000
,270.000=41.500
,272.000=166.000
;
#STOPS:
;
#BGCHANGES:;
#KEYSOUNDS:;
#ATTACKS:;

//---------------dance-single - ----------------
#NOTES:
     dance-single:
     :
     Hard:
     8:
     0.547,0.552,0.202,0.369,0.053,371.000,23.000,42.000,0.000,0.000,0.000,0.547,0.552,0.202,0.369,0.053,371.000,23.000,42.000,0.000,0.000,0.000: // measure 0
0000
0000
0000
0000
,  // measure 1
0000
0000
0000
0000
,  // measure 2
0000
0000
0000
0000
,  // measure 3
0000
0000
0000
0000
,  // measure 4
0001
0010
0100
1000
0001
0000
1001
0000
,  // measure 5
0001
0100
0010
1000
0001
0000
1001
0000
,  // measure 6
0001
0010
1000
0010
0001
0010
1000
0010
,  // measure 7
0001
0010
0100
1000
0001
0000
1001
0000
,  // measure 8
1000
0010
0001
0010
1000
0000
1010
0000
,  // measure 9
1000
0100
0001
0100
1000
0000
1100
0000
,  // measure 10
0100
0000
0010
0010
0001
0000
1000
0000
,  // measure 11
0010
0000
0100
0100
0001
0000
1000
0000
,  // measure 12
0001
0010
0001
0010
0001
0001
0000
0000
,  // measure 13
1000
0010
1000
0010
1000
1000
0000
0000
,  // measure 14
0010
0000
0110
0100
0001
0000
0101
0000
,  // measure 15
0001
0000
0000
0000
1001
0000
1000
0000
0001
0000
0000
0000
1000
0001
1000
0001
,  // measure 16
1000
0000
1000
0100
0000
0100
1000
0000
,  // measure 17
0001
0000
0001
0100
0000
0100
0001
1000
,  // measure 18
0001
0000
0001
0010
0000
0010
0100
1000
,  // measure 19
0002
0203
2300
3020
,  // measure 20
0031
0000
1000
0010
0001
0010
1000
0001
,  // measure 21
0100
0000
0100
0010
0000
0010
1000
0001
,  // measure 22
1000
0000
1000
0100
0000
0100
0010
0100
,  // measure 23
0010
0000
0010
0001
1000
0001
1001
1000
,  // measure 24
0001
0100
1000
0001
0010
0000
1000
0000
,  // measure 25
0001
0010
1000
0001
0100
0000
1000
0000
,  // measure 26
0001
0010
1000
0010
0001
0000
0011
0000
,  // measure 27
0001
0100
1000
0100
0001
0000
0101
0000
,  // measure 28
0100
0000
0010
0100
0010
0000
1000
0010
,  // measure 29
1000
0000
0001
1000
0001
0010
0100
1000
,  // measure 30
0001
0000
0100
0001
0100
0000
0010
1000
,  // measure 31
0010
0000
1000
0001
1000
0100
0010
0001
,  // measure 32
0100
0000
0010
0100
0010
0000
1000
0001
,  // measure 33
1000
0000
0100
0010
0100
0010
0001
1000
,  // measure 34
0010
0000
0100
0010
0100
0000
0001
0100
,  // measure 35
0001
0000
1000
0001
1000
0010
0100
0001
,  // measure 36
1000
0000
0100
0100
0010
0000
0100
0000
,  // measure 37
0010
0000
0001
0001
0010
0000
0001
1000
,  // measure 38
0001
0000
1000
1000
0010
0000
0100
0000
,  // measure 39
0010
0000
0100
0100
0001
0000
1000
0001
,  // measure 40
2000
3200
0320
0230
,  // measure 41
0302
0203
0320
0230
,  // measure 42
2300
3020
0032
0023
,  // measure 43
2030
3000
2002
3003
,  // measure 44
0022
0000
0033
0000
,  // measure 45
2020
0000
3030
0000
,  // measure 46
2002
0000
3003
0000
,  // measure 47
0220
0000
0330
0000
,  // measure 48
0001
0000
0010
0100
1000
0000
1001
0000
,  // measure 49
0001
0000
0100
0010
1000
0000
1010
0000
,  // measure 50
1000
0010
0001
0010
1000
0010
0001
0010
,  // measure 51
1000
0000
0000
0000
0010
0000
1000
0000
0001
0000
0000
0000
0010
0100
1000
0001
,  // measure 52
0100
0100
0010
0010
1000
1000
0001
1000
,  // measure 53
0001
0000
0001
0000
1000
0000
1000
0000
0100
0000
0010
0000
0001
1000
0001
1000
,  // measure 54
0001
0000
0010
0100
1000
1000
1100
0000
,  // measure 55
0100
1000
0001
0001
0100
0000
0110
0000
,  // measure 56
0010
1000
0010
1000
0010
0010
0000
1000
,  // measure 57
0001
0000
0010
0000
0001
0000
0020
0000
0000
0000
0130
1000
0001
1000
0001
0100
,  // measure 58
0010
0000
1010
1000
0001
0000
1001
0000
,  // measure 59
1000
0000
0000
1000
0100
0000
0100
0000
0010
0100
0010
0000
0001
0000
1000
0000
,  // measure 60
0010
0000
0100
0100
0001
0000
1000
0000
,  // measure 61
0001
0000
0010
0010
0100
0000
1000
0001
,  // measure 62
1000
0000
0010
0010
0100
0000
0001
0000
,  // measure 63
1000
0000
0100
0100
1000
0000
0001
1000
,  // measure 64
0002
0203
0320
0230
,  // measure 65
2300
3200
0320
0230
,  // measure 66
0302
0023
2030
3020
,  // measure 67
0032
0000
0000
0000
0000
0000
0000
0000
2000
0000
0000
0000
0000
0000
3003
1000
,  // measure 68
0001
0000
0001
1000
0000
1000
0100
0000
,  // measure 69
0010
0000
0001
0010
0001
0000
1000
1001
;

//---------------dance-single - ----------------
#NOTES:
     dance-single:
     :
     Medium:
     6:
     0.415,0.430,0.281,0.149,0.004,282.000,32.000,17.000,0.000,0.000,0.000,0.415,0.430,0.281,0.149,0.004,282.000,32.000,17.000,0.000,0.000,0.000:
0000
0000
0000
0000
,
0000
0000
0000
0000
,
0000
0000
0000
0000
,
0000
0000
0000
0000
,
1000
0000
0010
0100
0002
0000
0103
0000
,
0001
0000
0010
0100
2000
0000
3100
0000
,
1001
1001
1001
1001
,
1000
0000
0100
0010
0002
0000
1003
0000
,
0001
0100
0001
0000
0101
0000
0101
0000
,
1000
0100
1000
0000
1100
0000
1100
0000
,
0100
0000
0010
0001
0020
0000
0031
0000
,
1000
0000
0010
1000
0020
0000
0130
0000
,
0001
0100
0001
1000
0001
0000
0000
0000
,
1000
0100
1000
0001
1000
0000
0000
0000
,
0001
0000
0100
0010
2000
0000
3010
0000
,
1000
0000
0001
1000
0002
0000
0013
0000
,
0001
0000
0000
0011
0000
0000
0001
0000
,
1000
0000
0000
1001
0000
0000
0001
0000
,
1000
0000
0000
1010
0000
0000
0010
0000
,
1000
0010
0001
0010
,
1000
0010
1000
0001
,
0010
0000
0010
0001
0000
0000
0010
0000
,
0100
0000
0100
1000
0000
0000
0001
0000
,
1000
0000
1000
0001
1000
0000
1001
0000
,
0001
0000
0100
0001
0100
0000
0001
0000
,
1000
0000
0100
1000
0100
0000
0010
0000
,
0100
0010
0100
0000
0110
0000
0110
0000
,
0001
1000
0001
0000
1001
0000
1001
0000
,
1000
0010
0100
0001
,
1000
0000
0001
1000
0000
0001
1000
0000
,
0001
0010
0100
1000
,
0001
0000
1000
0001
0000
1000
0001
0000
,
1000
0100
0001
0100
,
1000
0000
0100
1000
0000
0100
1000
0000
,
0001
0100
1000
0100
,
0001
0000
0100
0001
0000
0100
0001
0100
,
0001
0000
1000
0001
0000
1000
0001
0000
,
1000
0000
0100
0010
0000
0100
0010
0000
,
0001
0000
0100
0010
0000
0100
0010
0000
,
1000
0000
0001
1000
0000
0001
1000
0000
,
2001
0001
0100
0010
,
0100
0100
0001
0001
,
0100
0010
0100
0010
,
0001
0000
3001
0000
,
0002
0000
0003
0000
,
2002
0000
3003
0000
,
2000
0000
3000
0000
,
2002
0000
3003
0000
,
0001
0010
0011
0011
,
1000
0100
1100
1100
,
0001
1000
0001
1000
0001
1000
0001
1000
,
0001
0100
0101
0101
,
0100
0000
0010
1000
0010
0000
0000
0000
,
1000
0000
0001
1000
0001
0000
1000
0000
,
0100
0000
0010
0001
0010
0000
0001
0000
,
1000
0000
0010
0100
0001
0000
1000
0000
,
1001
0000
1001
0000
0001
1000
0000
0000
,
0110
0000
0110
0000
0100
0010
0000
0000
,
0001
0000
0010
0001
0010
0000
0001
0000
,
1000
0000
0001
1000
0001
0000
1000
0000
,
0001
0000
0100
1000
0100
0000
0001
0000
,
1000
0000
0100
0001
0100
0000
1000
0000
,
0001
0000
0010
1000
0010
0000
0001
0000
,
1000
0000
0010
0001
0010
0000
1000
0000
,
1002
1000
0010
0100
,
0010
0010
1000
1000
,
0100
0010
0100
0010
,
2000
0000
0000
0000
0000
0000
3000
0000
2000
0000
0000
0000
0000
0000
3003
0001
,
1000
0000
0000
1010
0000
0000
0001
0000
,
1000
0000
0000
0000
0001
0000
0000
1001
;

//---------------dance-single - ----------------
#NOTES:
     dance-single:
     :
     Easy:
     4:
     0.258,0.307,0.088,0.105,0.000,184.000,10.000,12.000,0.000,0.000,0.000,0.258,0.307,0.088,0.105,0.000,184.000,10.000,12.000,0.000,0.000,0.000:
0000
0000
0000
0000
,
0000
0000
0000
0000
,
0000
0000
0000
0000
,
0000
0000
0000
0000
,
0001
1000
0010
0010
,
1000
0001
0010
0010
,
0100
0100
0100
0100
,
1000
0001
0100
0100
,
0010
0100
0010
0000
,
1000
0001
1000
0000
,
0001
0010
0100
0100
,
0010
0100
1000
1000
,
0001
1000
1001
0000
,
0010
0100
0110
0000
,
1000
0010
0100
0100
,
0010
0100
0001
0001
,
1000
0000
1000
0010
,
0100
0000
0010
0100
,
0001
0000
0100
0001
,
0010
0000
0010
0000
,
0010
0100
1000
0000
,
1100
0000
1100
0000
,
1000
0001
0100
0000
,
0101
0000
0101
0000
,
0100
0100
0100
0000
,
0010
0010
0010
0000
,
1000
1000
1000
0000
,
0001
0001
0001
0000
,
1000
0000
1000
0000
,
0010
0000
0010
0100
,
0001
0000
0001
0000
,
1000
0000
1000
0001
,
0010
0000
0010
0000
,
0100
0000
0100
1000
,
0010
0000
0010
0000
,
0100
0000
0100
0001
,
1000
0000
1000
0000
,
1000
0000
0000
0000
,
0001
0000
0001
0000
,
0001
0000
0000
0000
,
0200
0300
0010
1000
,
0002
0003
1000
0001
,
0020
0030
0100
0100
,
2000
3000
2002
3003
,
0001
0000
0000
0000
,
1001
0000
0000
0000
,
1000
0000
0000
0000
,
1001
0000
0000
0000
,
0001
0001
0010
0010
,
0001
0001
1000
1000
,
0010
1000
0010
1000
,
0010
0100
0001
0001
,
1000
1000
1000
0000
,
0001
0001
0001
0000
,
1000
0100
0010
0010
,
0100
0010
0001
0001
,
0010
0001
0010
0000
,
0001
1000
0010
0000
,
1000
0010
0100
0100
,
0010
0100
0001
0001
,
1000
0000
1000
0000
,
1000
0000
0000
0000
,
0001
0000
0001
0000
,
0001
0000
0000
0000
,
0020
0030
0100
1000
,
0002
0003
1000
0010
,
0200
0300
0001
0001
,
2000
3000
2002
3003
,
0001
0000
0001
0000
,
1000
0000
0000
0000
1000
0000
0000
0001
;

//---------------dance-single - ----------------
#NOTES:
     dance-single:
     :
     Beginner:
     2:
     0.129,0.183,0.026,0.000,0.000,100.000,3.000,0.000,0.000,0.000,0.000,0.129,0.183,0.026,0.000,0.000,100.000,3.000,0.000,0.000,0.000,0.000:
0000
0000
0000
0000
,
0000
0000
0000
0000
,
0000
0000
0000
0000
,
0000
0000
0000
0000
,
1000
0000
1000
0000
,
0001
0000
0001
0000
,
1001
0000
0000
0000
,
0010
0000
0010
0000
,
0100
0000
0100
0000
,
0110
0000
0110
0000
,
1000
0000
0000
0000
,
0001
0000
0000
0000
,
0100
0000
0100
0000
,
0010
0000
0010
0000
,
1000
0000
0000
0000
,
0001
0000
0000
0000
,
0010
0000
0000
0000
,
0010
0000
0000
0000
,
0100
0000
0000
0000
,
0100
0000
0100
0000
,
1000
0000
0000
0000
,
1000
0000
0000
0000
,
0001
0000
0000
0000
,
0001
0000
0001
0000
,
0100
0000
0000
0000
,
0100
0000
0000
0000
,
0010
0010
0010
0000
,
1000
1000
1000
0000
,
0001
0000
0001
0000
,
0001
0000
0000
0000
,
1000
0000
1000
0000
,
1000
0000
0000
0000
,
0100
0000
0100
0000
,
0100
0000
0000
0000
,
0010
0000
0010
0000
,
0010
0000
0000
0000
,
0001
0000
0000
0000
,
0001
0000
0000
0000
,
1000
0000
0000
0000
,
1000
0000
0000
0000
,
0010
0000
0010
0000
,
0010
0000
0010
0000
,
0100
0000
0100
0000
,
0100
0000
0100
0000
,
0001
0000
0000
0000
,
0001
0000
0000
0000
,
1000
0000
0000
0000
,
1000
0000
0000
0000
,
0100
0000
0100
0000
,
0010
0000
0010
0000
,
0001
0000
0000
0000
,
1000
0000
1000
0000
,
0010
0000
0000
0000
,
0100
0000
0000
0000
,
0001
0000
0001
0000
,
0100
0000
0100
0000
,
0001
0000
0000
0000
,
1000
0000
0000
0000
,
0100
0000
0100
0000
,
1000
0000
1000
0000
,
0010
0000
0000
0000
,
0100
0000
0000
0000
,
0001
0000
0000
0000
,
1000
0000
0000
0000
,
0100
0000
0100
0000
,
0100
0000
0100
0000
,
0010
0000
0010
0000
,
0010
0000
0010
0000
,
0001
0000
0001
0000
,
1000
0000
1000
0000
;
