#TITLE:LegenD.;
#SUBTITLE:;
#ARTIST:Yooh;
#TITLETRANSLIT:;
#SUBTITLETRANSLIT:;
#ARTISTTRANSLIT:;
#GENRE:;
#CREDIT:Silverhawke;
#MENUCOLOR:;
#METERTYPE:DDR;
#BANNER:[Punctuations] - LegenD..png;
#BACKGROUND:[Punctuations] - LegenD.-bg.png;
#LYRICSPATH:;
#CDTITLE:cdtitle.png;
#MUSIC:[Punctuations] - LegenD..mp3;
#OFFSET:-0.028;
#SAMPLESTART:62.056;
#SAMPLELENGTH:15.000;
#SELECTABLE:YES;
#LISTSORT:;
#BPMS:0.000=205.000,208.000=206.000;
#STOPS:;
#BGCHANGES:;
#ATTACKS:;

//---------------dance-single - ----------------
#NOTES:
     dance-single:
     :
     Hard:
     10:
     0.922,1.000,0.594,0.098,0.508: // measure 1
0000
0000
0000
0000
,  // measure 2
0000
0000
0000
0000
,  // measure 3
0000
0000
0000
0000
,  // measure 4
0000
0000
0000
0000
,  // measure 5
0000
0000
0000
0000
0000
0000
0010
1000
,  // measure 6
0001
0000
0000
0001
0000
0000
0001
0000
,  // measure 7
0100
0000
0000
0100
0000
0000
0100
0000
,  // measure 8
0010
0000
0000
0010
0000
0000
0010
0000
,  // measure 9
1000
0000
0100
0000
1000
0000
0010
0000
0100
0001
0100
0000
0010
0000
1000
0100
,  // measure 10
1000
0100
0001
0100
1000
0100
0001
0000
,  // measure 11
1000
0000
0010
0000
0001
0000
0010
0000
1000
0000
0010
0000
0001
0000
0000
1000
,  // measure 12
0001
0100
1000
0100
0001
0100
1000
0000
,  // measure 13
0001
0000
0010
0000
1000
0000
0010
0000
0001
0000
0010
0000
1000
0000
0100
0010
,  // measure 14
0100
0000
0100
0000
0010
0000
0001
0100
0001
0000
0001
0000
0010
0000
0100
1000
,  // measure 15
0100
0000
0010
0000
0001
0000
0100
0000
0010
1000
0010
1000
0001
0100
0001
0100
,  // measure 16
0020
0000
0000
0000
,  // measure 17
0200
0000
0000
0000
0000
0000
0000
0330
,  // measure 18
1001
0001
0010
0001
0100
0010
0100
0010
,  // measure 19
1000
1000
0100
1000
0100
0010
0100
0010
,  // measure 20
0001
0001
1000
0001
0010
0100
0010
0100
,  // measure 21
1000
1000
0001
1000
0010
0100
0010
1000
,  // measure 22
0001
0001
0100
0100
0010
0010
1000
1000
,  // measure 23
0100
0100
0010
0001
1000
0010
1000
0100
,  // measure 24
0010
0001
1001
0000
0010
1000
1001
0000
,  // measure 25
0001
0000
0000
0000
1000
0000
0010
0000
0000
0000
1000
0000
0100
0000
0010
0000
0001
0000
2000
0000
0000
3000
0000
0000
,  // measure 26
0101
0101
1100
1100
,  // measure 27
0110
0000
0110
0000
1000
0010
0100
0001
,  // measure 28
0011
0011
1010
1010
,  // measure 29
1001
0000
1001
0000
0001
0100
0010
1000
,  // measure 30
1100
1100
0101
0101
,  // measure 31
1001
0000
1001
0000
0001
0010
1000
0010
,  // measure 32
0001
0100
0101
0000
1000
0100
1100
0000
,  // measure 33
0001
0001
0100
0100
1000
1000
0100
0100
,  // measure 34
0001
0000
0000
0000
1000
0000
0100
0000
0010
0000
0000
0001
0100
0000
0010
0000
,  // measure 35
1000
0000
0001
0000
0010
0100
0010
0100
0010
0000
0001
0000
0000
0000
0000
0000
,  // measure 36
1001
0000
0000
0000
1000
0000
0010
0000
0100
0000
0000
0001
1000
0000
0100
0000
,  // measure 37
0120
0000
0000
0000
0031
1000
0001
1000
0002
0000
0000
0000
0000
0000
0003
0000
,  // measure 38
0110
0000
0100
0000
1000
0000
0001
0000
0100
0000
0000
0010
1000
0000
0001
0000
,  // measure 39
0010
0000
0010
0000
0100
1000
0100
1000
0002
0000
0203
0000
0320
0000
2030
0000
,  // measure 40
3001
0000
0010
0000
0001
0000
0100
0000
0010
0000
0000
1000
0100
0000
0010
0000
,  // measure 41
0011
0000
0000
1100
0000
0000
1010
0000
0000
0101
0000
0000
1001
0000
0110
0000
,  // measure 42
0001
0000
0010
0000
0001
0000
0100
0000
0010
0000
0000
1000
0100
0000
0010
0000
,  // measure 43
0001
0000
0100
0000
0010
1000
0010
1000
0001
0000
0010
0000
0100
0000
1000
0000
,  // measure 44
0001
0000
0100
0000
0010
0000
0100
0000
0001
0000
0000
0010
0100
0000
1000
0000
,  // measure 45
0110
0001
0110
1000
0110
0001
0100
0010
,  // measure 46
0000
0000
0000
0000
1001
0000
0100
0000
0010
0000
0000
1000
0001
0000
0010
0000
,  // measure 47
0100
0000
0100
0000
1000
0001
1000
0001
0100
0000
0010
0000
1000
0000
0001
0000
,  // measure 48
0011
0011
1010
1010
,  // measure 49
1100
0000
1100
0000
0101
0000
0010
0100
,  // measure 50
1001
0000
0000
0000
,  // measure 51
0000
0000
0000
0000
,  // measure 52
1000
0100
0010
0001
1000
0100
0010
0001
,  // measure 53
1000
0010
0100
0001
1000
0010
0100
0001
1000
0010
0100
0001
1000
0000
0000
0000
,  // measure 54
0001
0000
0100
0000
0010
0000
0100
0000
0001
0000
0010
0100
0010
0000
0001
0000
,  // measure 55
0100
0000
0010
0000
1000
0000
0010
0000
0100
0001
0100
0001
1000
0000
0100
0000
,  // measure 56
0010
0000
0001
0000
1000
0000
0010
0000
0100
0001
1000
0001
0010
0001
1000
0001
,  // measure 57
0100
0010
1000
0010
0001
0010
0100
0010
,  // measure 58
1000
0001
1000
0001
1000
0000
0100
0000
1000
0000
0010
0000
0010
0000
0100
0000
,  // measure 59
0001
1000
0001
1000
0001
0000
0100
0000
0001
0000
0010
0000
0010
0000
0100
0000
,  // measure 60
1000
0000
0000
0100
0000
0000
0010
0000
0001
0000
0000
0100
0000
0000
0010
0000
,  // measure 61
1000
0000
0000
0001
0000
0000
0100
0000
1000
0000
0100
0000
0001
0000
0010
0000
,  // measure 62
0110
0000
0100
0000
0010
0000
0100
0000
1000
0000
0010
0100
0010
0000
1000
0000
,  // measure 63
0100
0000
0010
0000
0001
0000
0010
0000
0100
1000
0100
1000
0001
0000
0100
0000
,  // measure 64
0010
0000
1000
0000
0001
0000
0010
0000
0100
1000
0001
1000
0010
1000
0001
1000
,  // measure 65
0100
0010
0001
0010
1000
0010
0100
0010
,  // measure 66
0001
1000
0001
1000
0001
0000
0100
0000
0001
0000
0010
0000
0010
0000
0100
0000
,  // measure 67
1000
0001
1000
0001
1000
0000
0100
0000
1000
0000
0010
0000
0010
0000
0100
0000
,  // measure 68
0001
0000
0000
0100
0000
0000
0010
0000
1000
0000
0000
0100
0000
0000
0010
0000
,  // measure 69
0011
1100
1010
0101
,  // measure 70
1000
0100
0010
0001
1000
0001
0010
0100
1000
0000
0000
0010
0000
0000
0100
0000
,  // measure 71
1000
0000
0000
0100
0000
0000
0001
0000
0010
0000
1000
0000
0010
0000
0001
0000
,  // measure 72
0100
0010
1000
0001
0010
0001
1000
0010
0100
0000
0000
0001
0000
0000
0010
0000
,  // measure 73
0110
1100
0101
1001
,  // measure 74
0001
0100
0010
1000
0001
1000
0010
0100
0001
0000
0000
0010
0000
0000
0100
0000
,  // measure 75
0001
0000
0000
0100
0000
0000
1000
0000
0010
0000
0000
0100
0000
0000
0001
0000
,  // measure 76
1000
0000
0000
0100
0000
0000
0001
0000
1000
0000
0000
0010
0000
0000
0001
0000
,  // measure 77
1000
0010
0100
0010
1000
0000
0001
0000
0010
0000
0100
0000
1000
0000
0001
0000
,  // measure 78
0101
0000
0000
1100
0000
0000
0011
0000
,  // measure 79
0000
1010
0000
0000
0001
0010
0100
1000
,  // measure 80
1010
0000
0000
0101
0000
0000
0011
0000
,  // measure 81
0000
1100
0000
0000
0001
0010
0100
1000
,  // measure 82
0010
0000
0000
0010
0100
0000
0001
0000
0010
0000
0000
0010
0100
0000
1000
0000
,  // measure 83
0001
0000
0000
0001
0100
0000
1000
0000
0001
0000
0000
0001
0010
0000
1000
0000
,  // measure 84
0001
0000
0010
0000
0100
0000
1000
0000
0010
0100
0010
0100
0001
1000
0001
1000
,  // measure 85
0200
0000
0000
0000
0000
0000
0000
0300
,  // measure 86
0011
0001
0100
0010
1000
0100
0110
0010
,  // measure 87
0001
0000
1000
0000
0010
0000
0100
0000
0001
0010
0100
1000
0001
0000
0100
0000
,  // measure 88
0010
1000
0100
0010
0001
0000
1000
0000
0010
1000
0001
1000
0100
1000
0001
1000
,  // measure 89
0010
0100
0010
0001
0010
1000
0010
0100
,  // measure 90
0001
0010
0100
0010
0001
0000
0100
0000
1000
0000
0100
0000
0100
0000
0001
0000
,  // measure 91
1000
0010
0100
0010
1000
0000
0100
0000
0001
0000
0100
0000
0100
0000
1000
0000
,  // measure 92
0001
0100
0000
0010
0000
0000
1000
0000
0001
0000
0000
0010
0000
0000
0100
0000
,  // measure 93
0001
0000
0000
0100
0000
0000
1000
0000
0001
0000
0100
0000
0010
0000
1000
0000
,  // measure 94
1100
0000
0001
0101
0000
1000
1010
0000
,  // measure 95
0001
0000
0011
0000
0000
0000
1000
0100
1000
0000
0010
0000
0100
0000
0001
0000
,  // measure 96
1000
0100
1000
0100
1000
0000
1100
0000
0000
0000
1000
0000
0001
0100
0001
0100
,  // measure 97
0001
0101
0000
0001
0100
0001
0010
0100
,  // measure 98
1000
0000
0001
0100
0001
0000
1000
0100
1000
0000
0001
0010
0001
0000
1000
0010
,  // measure 99
1000
0000
0100
0000
0001
0000
0100
0000
1000
0010
1000
0010
0100
0001
0100
0001
,  // measure 100
1000
0000
0101
0000
,  // measure 101
1010
0000
0011
0000
,  // measure 102
2002
0000
0000
0000
,  // measure 103
0000
0000
0000
0000
,  // measure 104
3003
0000
0000
0000
;

//---------------dance-single - ----------------
#NOTES:
     dance-single:
     :
     Medium:
     8:
     0.690,0.712,0.496,0.065,0.118: // measure 1
0000
0000
0000
0000
,  // measure 2
0000
0000
0000
0000
,  // measure 3
0000
0000
0000
0000
,  // measure 4
0000
0000
0000
0000
,  // measure 5
0000
0000
0000
0000
0000
0000
1000
0100
,  // measure 6
1000
0000
0000
1000
0000
0000
1000
0000
,  // measure 7
0001
0000
0000
0001
0000
0000
0001
0000
,  // measure 8
0100
0000
0000
0100
0000
0000
0100
0000
,  // measure 9
0010
1000
0100
0000
0010
0100
1000
0000
,  // measure 10
0001
0000
0101
0000
0001
0100
0010
0000
,  // measure 11
1000
0000
1100
0000
1000
0100
0010
0000
,  // measure 12
0001
0000
0011
0000
0001
1000
0100
0000
,  // measure 13
1000
0000
1010
0000
1000
0001
0100
0000
,  // measure 14
0010
0010
1000
0001
0010
0010
0001
0000
,  // measure 15
0100
0100
0010
1000
0001
0010
0100
1000
,  // measure 16
0002
0000
0000
0000
,  // measure 17
2003
0000
0000
0000
,  // measure 18
3001
0000
0100
0000
0010
0100
0010
0100
,  // measure 19
0001
0000
1000
0000
0100
0010
0100
0010
,  // measure 20
0001
0000
0010
0000
0100
1000
0100
1000
,  // measure 21
0001
0000
0100
0000
0010
1000
0010
1000
,  // measure 22
0001
0000
0010
0000
0110
0000
0100
1000
,  // measure 23
0001
0000
0100
0010
1000
0000
0001
0000
,  // measure 24
0010
0100
1100
0000
0010
0100
0101
0000
,  // measure 25
1000
0000
1000
0100
0000
0100
0010
0000
0010
0002
0000
0000
,  // measure 26
1003
1100
0001
0101
,  // measure 27
1000
0000
1010
0000
0001
0010
0100
1000
,  // measure 28
0001
0011
1000
1010
,  // measure 29
0001
0000
0101
0000
1000
0100
0010
0001
,  // measure 30
1000
1010
0001
0101
,  // measure 31
1000
0000
1100
0000
0001
0010
0100
1000
,  // measure 32
0010
0100
0101
0000
0010
0100
1100
0000
,  // measure 33
0001
0100
0010
0100
0001
0010
0100
0010
,  // measure 34
0001
0000
1000
0100
0010
0000
0100
1000
,  // measure 35
0001
0000
0100
0000
0010
1000
0001
0100
,  // measure 36
0010
0000
1000
0100
0010
0000
0001
1000
,  // measure 37
0001
0000
0100
0100
0220
0000
0330
0000
,  // measure 38
1000
0000
0001
0100
0001
0000
0010
0100
,  // measure 39
1000
0000
0010
0000
0100
0001
1000
0100
,  // measure 40
0010
0000
0100
1000
0001
0000
0100
0010
,  // measure 41
1000
0000
0000
1000
0000
0000
0001
0000
0000
0001
0000
0000
0100
0000
0010
0000
,  // measure 42
1000
0000
0001
0010
0100
0000
0010
0001
,  // measure 43
1000
0000
1001
0000
0001
0100
0010
1000
,  // measure 44
0100
0000
0010
0001
0100
0000
0010
1000
,  // measure 45
0100
0000
0110
0000
0010
0001
1000
0001
,  // measure 46
0000
0000
1100
0000
0001
0000
0100
0010
,  // measure 47
1000
0000
0001
0000
0010
0100
1000
0001
,  // measure 48
0100
0110
0001
1001
,  // measure 49
0010
0000
0110
0000
1000
0000
0100
0010
,  // measure 50
1001
0000
0000
0000
,  // measure 51
0000
0000
0000
0000
,  // measure 52
0001
0100
0010
1000
0001
0100
0010
1000
,  // measure 53
0001
0100
1000
0100
0001
0100
0110
0000
,  // measure 54
1000
0100
0010
0001
0100
0000
0010
1000
,  // measure 55
0001
0000
0010
0000
0100
1000
0001
1000
,  // measure 56
0010
0000
0100
0000
0001
0010
0100
1000
,  // measure 57
1100
0000
0101
0000
1001
0000
0100
0001
,  // measure 58
1000
0100
1000
0000
0001
0010
0100
1000
,  // measure 59
0001
0010
0001
0000
1000
0010
0100
0001
,  // measure 60
1000
0000
0000
0100
0000
0000
1000
0000
0001
0000
0000
0100
0000
0000
0001
0000
,  // measure 61
1000
0000
0000
0100
0000
0000
0010
0000
0001
0000
0100
0000
0010
0000
1000
0000
,  // measure 62
0001
0100
0010
1000
0100
0000
0010
0001
,  // measure 63
1000
0000
0010
0000
0100
0001
1000
0001
,  // measure 64
0010
0000
0100
0000
1000
0010
0100
0001
,  // measure 65
0101
1100
1001
0010
,  // measure 66
0001
0100
0001
0000
1000
0010
0100
0001
,  // measure 67
1000
0010
1000
0000
0001
0010
0100
1000
,  // measure 68
0001
0000
0000
0100
0000
0000
0001
0000
1000
0000
0000
0100
0000
0000
1000
0000
,  // measure 69
1010
0011
0101
1100
,  // measure 70
0001
0000
0010
0000
1000
0000
0010
0000
0001
0000
0000
0100
0000
0000
0010
0000
,  // measure 71
1000
0000
0000
0100
0000
0000
0010
0000
0001
0000
0100
0000
0001
0000
1000
0000
,  // measure 72
0001
0000
0100
0000
1000
0000
0100
0000
0001
0000
0000
0010
0000
0000
0100
0000
,  // measure 73
1000
1100
0001
0101
,  // measure 74
1000
0000
0100
0000
0001
0000
0100
0000
1000
0000
0000
0010
0000
0000
0100
0000
,  // measure 75
0001
0000
0000
0010
0000
0000
0100
0000
1000
0000
0000
0001
0000
0000
0100
0000
,  // measure 76
0010
0000
0000
1000
0000
0000
0100
0000
0010
0000
0000
0001
0000
0000
1000
0000
,  // measure 77
0010
0100
0001
1000
0100
0010
0001
0000
,  // measure 78
1000
0000
0000
0101
0000
0000
0001
0000
,  // measure 79
0000
1100
0000
0000
0001
0010
0100
1000
,  // measure 80
0001
0000
0000
1010
0000
0000
1000
0000
,  // measure 81
0000
0011
0000
0000
0001
0010
0100
1000
,  // measure 82
0001
0000
0000
1000
0001
0000
0000
1000
0001
0000
0000
1000
0001
0000
0000
1000
,  // measure 83
0100
0000
0000
1000
0100
0000
0000
1000
0100
0000
0000
1000
0100
0000
0000
1000
,  // measure 84
0010
0100
0001
1000
0010
0100
0001
1000
,  // measure 85
0200
0000
0000
0300
,  // measure 86
0011
0000
0001
0100
0010
0000
1100
0000
,  // measure 87
1000
0100
0010
0000
0001
1000
0001
0010
,  // measure 88
0100
0000
0110
0000
0010
0001
1000
0001
,  // measure 89
0100
0110
0001
1001
,  // measure 90
1000
0010
0001
0010
1000
0100
0010
0000
,  // measure 91
0001
0010
1000
0010
0001
0100
0010
0000
,  // measure 92
1000
0000
0000
0100
0000
0000
1000
0000
0001
0000
0000
0010
0000
0000
0001
0000
,  // measure 93
1000
0000
0000
0010
0000
0000
1000
0000
0001
0000
0100
0000
0010
0000
1000
0000
,  // measure 94
0100
0000
0000
0011
0000
0000
0100
0000
,  // measure 95
0000
1010
0000
0000
0001
0010
0100
1000
,  // measure 96
0010
0100
0000
0101
0000
0000
0010
0100
,  // measure 97
0000
1100
0000
0001
0010
0100
1000
0010
,  // measure 98
0110
0101
1100
1001
,  // measure 99
0001
0010
1000
0010
0001
0100
1000
0100
,  // measure 100
0101
0000
1010
0000
,  // measure 101
0011
0000
1100
0000
,  // measure 102
2002
0000
0000
0000
,  // measure 103
0000
0000
0000
0000
,  // measure 104
3003
0000
0000
0000
;

//---------------dance-single - ----------------
#NOTES:
     dance-single:
     :
     Easy:
     6:
     0.374,0.461,0.049,0.065,0.000: // measure 1
0000
0000
0000
0000
,  // measure 2
0000
0000
0000
0000
,  // measure 3
0000
0000
0000
0000
,  // measure 4
0000
0000
0000
0000
,  // measure 5
0000
0000
0000
0000
,  // measure 6
0001
0000
0000
0100
,  // measure 7
0100
0000
0000
0010
,  // measure 8
0010
0000
0000
1000
,  // measure 9
1000
0000
0000
0001
,  // measure 10
0001
0100
0001
0100
,  // measure 11
0010
1000
0010
1000
,  // measure 12
0001
0010
0001
0010
,  // measure 13
0100
1000
0100
1000
,  // measure 14
0001
0001
1000
1000
,  // measure 15
0010
0100
0001
1000
,  // measure 16
0200
0000
0000
0300
,  // measure 17
0020
0000
0000
0030
,  // measure 18
0001
0001
0100
0010
,  // measure 19
1000
1000
0100
0010
,  // measure 20
0001
0001
0010
0100
,  // measure 21
1000
1000
0010
0100
,  // measure 22
0001
1000
0001
0100
,  // measure 23
0001
0010
0001
0100
,  // measure 24
0010
0010
0100
0100
,  // measure 25
0001
1000
2002
3003
,  // measure 26
1000
1000
0010
0010
,  // measure 27
0100
0100
0001
0010
,  // measure 28
0100
0100
1000
1000
,  // measure 29
0001
0001
0100
0010
,  // measure 30
1000
1000
0001
0001
,  // measure 31
0010
0010
0100
1000
,  // measure 32
0001
0100
0010
1000
,  // measure 33
0001
0010
0100
0000
,  // measure 34
1000
0100
0010
0000
,  // measure 35
0001
0100
0010
0000
,  // measure 36
1000
0001
0100
0010
,  // measure 37
1000
0000
1001
0000
,  // measure 38
0001
0010
0100
0000
,  // measure 39
1000
0001
0010
0000
,  // measure 40
0100
1000
0001
0100
,  // measure 41
0020
0000
0000
0030
,  // measure 42
1000
1000
0100
0000
,  // measure 43
0010
0000
0001
1000
,  // measure 44
0001
0001
0100
0000
,  // measure 45
0010
0010
0010
0010
,  // measure 46
0000
1000
0100
0000
,  // measure 47
0010
0001
1000
0000
,  // measure 48
0001
0001
0100
0100
,  // measure 49
0010
0010
1000
0100
,  // measure 50
0110
0000
0000
0000
,  // measure 51
0000
0000
0000
0000
,  // measure 52
0001
0100
0010
1000
,  // measure 53
0001
0000
0010
0000
0100
0010
0100
0000
,  // measure 54
1000
1000
0001
0100
,  // measure 55
0010
0000
0100
0001
,  // measure 56
1000
0000
0100
0010
,  // measure 57
0001
0001
1000
1000
,  // measure 58
0010
0100
0001
0000
,  // measure 59
0010
0100
1000
0000
,  // measure 60
0001
0000
0001
0000
,  // measure 61
0100
0000
0010
1000
,  // measure 62
0001
0001
1000
0100
,  // measure 63
0010
0000
0100
1000
,  // measure 64
0001
0000
0100
0010
,  // measure 65
1000
1000
0001
0001
,  // measure 66
0010
0100
1000
0000
,  // measure 67
0010
0100
0001
0000
,  // measure 68
1000
0000
1000
0000
,  // measure 69
0100
0010
0001
1000
,  // measure 70
0001
0100
0010
0000
,  // measure 71
0100
0001
1000
0100
,  // measure 72
0010
0001
1000
0000
,  // measure 73
0010
0010
0100
0100
,  // measure 74
0001
1000
0100
0000
,  // measure 75
0010
0001
1000
0000
,  // measure 76
0010
0000
0100
0000
,  // measure 77
0001
1000
0100
0000
,  // measure 78
0010
0000
0000
0010
0000
0000
0001
0000
,  // measure 79
0000
0001
0000
0000
1000
0000
0010
0000
,  // measure 80
0100
0000
0000
0100
0000
0000
0001
0000
,  // measure 81
0000
0001
0000
0000
1000
0000
0100
0000
,  // measure 82
0010
0010
0010
0010
,  // measure 83
0001
0001
0001
0001
,  // measure 84
1000
0010
0100
0001
,  // measure 85
2000
0000
0000
3000
,  // measure 86
0001
0000
0000
0010
0000
0000
0100
0000
,  // measure 87
0000
1000
0000
0000
0010
0000
0100
0000
,  // measure 88
0001
1000
0001
0000
,  // measure 89
0010
0100
1000
0001
,  // measure 90
0100
0100
0010
0000
,  // measure 91
1000
1000
0001
0000
,  // measure 92
0010
0100
1000
0001
,  // measure 93
0100
0010
0100
0000
,  // measure 94
0001
0000
0000
0100
0000
0000
0010
0000
,  // measure 95
0000
1000
0000
0000
0001
0000
0010
0000
,  // measure 96
0100
0000
0000
1000
0000
0000
0010
0000
,  // measure 97
0000
0100
0000
0000
0001
0000
0010
0000
,  // measure 98
0100
0100
1000
1000
,  // measure 99
0010
0000
0100
0000
0001
0000
1000
0001
,  // measure 100
1000
0000
1001
0000
,  // measure 101
0010
0000
0110
0000
,  // measure 102
2002
0000
0000
0000
,  // measure 103
0000
0000
0000
0000
,  // measure 104
3003
0000
0000
0000
;
