#VERSION:0.81;
#TITLE:LUVORATORRRRRY!;
#SUBTITLE:;
#ARTIST:ギガP feat. kradness;
#TITLETRANSLIT:;
#SUBTITLETRANSLIT:;
#ARTISTTRANSLIT:GigaP feat. kradness;
#GENRE:;
#ORIGIN:;
#CREDIT:;
#BANNER:[Punctuations] - LUVORATORRRRRY.png;
#BACKGROUND:[Punctuations] - LUVORATORRRRRY-bg.png;
#PREVIEWVID:;
#JACKET:[Punctuations] - LUVORATORRRRRY-jacket.png;
#CDIMAGE:;
#DISCIMAGE:;
#LYRICSPATH:;
#CDTITLE:;
#MUSIC:[Punctuations] - LUVORATORRRRRY.mp3;
#OFFSET:-1.983;
#SAMPLESTART:76.926;
#SAMPLELENGTH:15.000;
#SELECTABLE:YES;
#BPMS:0.000=128.000;
#STOPS:;
#DELAYS:;
#WARPS:;
#TIMESIGNATURES:0.000=4=4;
#TICKCOUNTS:0.000=4;
#COMBOS:0.000=1;
#SPEEDS:0.000=1.000=0.000=0;
#SCROLLS:0.000=1.000;
#FAKES:;
#LABELS:0.000=Song Start;
#BGCHANGES:7.667=[Punctuations] - LUVORATORRRRRY.avi=1.000=1=0=0=StretchNoLoop==CrossFade==,
99999=-nosongbg-=1.000=0=0=0 // don't automatically add -songbackground-
;
#KEYSOUNDS:;
#ATTACKS:
;

//---------------dance-single - ----------------
#NOTEDATA:;
#CHARTNAME:;
#STEPSTYPE:dance-single;
#DESCRIPTION:;
#CHARTSTYLE:;
#DIFFICULTY:Hard;
#METER:9;
#RADARVALUES:0.597,0.680,0.342,0.342,0.364,389.000,38.000,38.000,0.000,18.000,0.000,0.000,0.000,0.597,0.680,0.342,0.342,0.364,389.000,38.000,38.000,0.000,18.000,0.000,0.000,0.000;
#CREDIT:;
#NOTES:
// measure 0
0000
0000
0000
0000
,  // measure 1
0000
0000
0000
0000
,  // measure 2
0000
0000
0000
0000
,  // measure 3
0000
0000
0000
0000
,  // measure 4
1000
0000
0100
0000
0010
0100
0000
1000
0001
0000
0100
0010
0000
1000
0001
0000
,  // measure 5
1000
0000
0100
0000
0010
0000
0001
0010
0000
0001
1000
0000
1010
0000
0000
0000
,  // measure 6
0010
0000
0100
0000
0001
0100
0000
0001
1000
0000
0100
1000
0000
0100
0010
0000
,  // measure 7
0001
0000
1000
0010
0100
0001
1000
0100
0010
0001
1000
0000
1001
0000
0000
0000
,  // measure 8
0001
0100
1000
0000
1000
0100
0001
0000
,  // measure 9
0001
0100
0010
1000
0001
0001
0001
0000
,  // measure 10
1000
0100
0010
0100
0001
0100
0010
0000
,  // measure 11
0100
1000
0100
0000
1000
0000
0001
0000
0100
0000
0010
0100
0010
0000
1000
0010
,  // measure 12
1000
0000
0000
1000
0010
0000
0000
0000
1000
0001
1000
0000
0001
0000
0000
0000
,  // measure 13
1000
0100
0001
0001
0100
1000
0001
0001
,  // measure 14
0100
0001
0100
0010
1000
0000
0000
1000
0001
0000
0000
1000
0000
0000
1001
0000
,  // measure 15
0001
0000
0010
0000
0100
0000
1000
0000
0001
1000
0001
0000
1001
0000
1001
0000
,  // measure 16
0001
0000
2000
0000
0000
3200
0000
0000
0302
0000
0000
0203
0000
0000
1300
0000
,  // measure 17
1000
0000
0002
0000
0000
0023
0000
0000
2030
0000
0000
3020
0000
0000
0031
0000
,  // measure 18
0001
0000
0020
0000
0000
2030
0000
0000
3002
0000
0000
0203
0000
0000
1300
0000
,  // measure 19
0002
0100
2003
0010
3002
0010
2003
0100
,  // measure 20
3001
0000
2000
0000
0000
3020
0000
0000
0032
0000
0000
0023
0000
0000
1030
0000
,  // measure 21
1000
0000
0002
0000
0000
0203
0000
0000
2300
0000
0000
3200
0000
0000
0301
0000
,  // measure 22
0002
0000
1003
0010
0002
0000
1003
0100
,  // measure 23
0001
0001
1000
0001
0010
0000
0100
0000
,  // measure 24
2002
0000
0000
0000
0010
0000
0000
0100
0000
0000
0000
0000
0000
0000
0010
0000
,  // measure 25
0010
0000
0000
0000
0000
0000
0100
0000
0000
0010
0000
0000
0100
0000
0000
0000
,  // measure 26
0010
0000
0000
0000
0100
0000
0000
0010
0000
0000
0000
0000
0000
0000
0100
0000
,  // measure 27
0100
0000
0000
0000
0000
0000
0010
0000
0000
0100
0000
0000
3013
0000
0000
0000
,  // measure 28
0001
0000
0000
0000
0022
0000
0000
1033
0000
0000
0010
0000
0100
0000
1000
0000
,  // measure 29
0001
0000
0000
0000
2002
0000
0000
3013
0000
0000
0001
0000
0100
0000
0010
0000
,  // measure 30
1000
0000
0000
0000
2020
0000
0000
3031
0000
0000
1000
0000
0010
0000
0100
0000
,  // measure 31
0001
0000
0010
0000
1000
0000
0010
0000
0001
0010
0100
1000
0002
0000
0000
0000
,  // measure 32
1003
0000
0100
0000
0010
0000
0001
0010
0001
0000
1000
0000
0001
0000
1000
0010
,  // measure 33
1000
0000
0001
0000
1000
0000
0001
0100
0001
0000
2000
0000
3100
0000
0020
0000
,  // measure 34
0031
0000
0000
0000
0000
0000
1000
0000
0000
0000
0000
0000
0001
0000
0000
0000
0000
0000
0100
0000
0000
0010
0000
0000
0100
0000
0000
0000
0000
0000
0001
0000
0000
1000
0000
0000
0001
0000
0000
0000
0000
0000
0010
0000
0100
0000
0010
0000
,  // measure 35
0100
0000
1000
0000
0010
0000
1000
0000
0001
1000
0001
1000
0001
0000
1000
0000
,  // measure 36
1001
0000
0110
0000
1001
1000
1010
1000
,  // measure 37
1001
0000
0011
0000
1001
0001
0101
0001
,  // measure 38
1001
0000
1010
0000
0110
0110
1001
1001
,  // measure 39
0110
0000
1001
0000
0001
1000
0001
0000
1000
0100
0010
0001
1000
0010
0100
0001
,  // measure 40
1000
0000
0000
0000
0100
0000
0000
0100
0010
0000
0001
0000
1000
0000
0010
0000
,  // measure 41
0100
0000
0001
0000
1000
0000
0010
1000
0000
0001
1000
0000
0100
0000
0010
0000
,  // measure 42
0001
0000
0010
0000
1000
0010
0000
0001
0000
0000
1000
0000
0001
0000
0100
0000
,  // measure 43
0010
0000
0100
0000
1000
0000
0100
0001
0000
0001
1000
0000
0100
0000
0100
0000
,  // measure 44
1000
0000
0100
0000
0010
0001
0000
0011
0000
0000
0010
0000
0001
0000
1000
0000
,  // measure 45
1010
0000
0010
0000
0001
0000
0010
1000
0000
0001
1000
0000
1100
0000
0000
0000
,  // measure 46
0010
0000
0001
0000
1000
0001
0000
1001
0000
0000
1000
0000
0100
0000
0010
0000
,  // measure 47
0011
0010
1000
0010
0001
1000
0100
0000
,  // measure 48
1100
0000
0000
0000
1001
0000
0000
0001
0100
0000
0010
0000
1000
0000
0001
0000
,  // measure 49
0101
0000
0000
0000
1010
0000
0000
0010
1000
0000
0100
0000
0010
0000
0001
0000
,  // measure 50
0011
0000
0000
0000
1100
0000
0000
0100
1000
0000
0010
0000
0100
0000
0001
0000
,  // measure 51
1000
0000
0100
0000
0001
0000
0100
0000
1000
0001
1000
0001
1000
0000
0010
0000
,  // measure 52
0001
0000
0000
0000
0010
0000
0000
1000
0000
0000
0010
0000
0100
0000
0001
0000
,  // measure 53
1000
0000
0000
0000
1001
0000
0001
1000
0000
0100
0010
0000
1000
0000
0000
0000
,  // measure 54
0001
0000
0000
0000
0100
0000
0000
1000
0000
0000
0100
0000
0010
0000
0001
0000
,  // measure 55
1000
0000
0000
0000
1001
0000
1000
0001
0000
0100
0010
0000
0200
0000
0000
0000
,  // measure 56
0300
0000
0000
0000
;

//---------------dance-single - ----------------
#NOTEDATA:;
#CHARTNAME:;
#STEPSTYPE:dance-single;
#DESCRIPTION:;
#CHARTSTYLE:;
#DIFFICULTY:Medium;
#METER:7;
#RADARVALUES:0.412,0.401,0.225,0.090,0.027,286.000,25.000,10.000,0.000,0.000,0.000,0.000,0.000,0.412,0.401,0.225,0.090,0.027,286.000,25.000,10.000,0.000,0.000,0.000,0.000,0.000;
#CREDIT:;
#NOTES:
0000
0000
0000
0000
,
0000
0000
0000
0000
,
0000
0000
0000
0000
,
0000
0000
0000
0000
,
0001
0000
0100
0000
0010
0000
1000
0001
,
0010
0000
0100
0000
1000
0100
0010
0000
,
0001
0000
1000
0000
0100
0000
1000
0001
,
0100
0000
0010
0000
1000
0010
0100
0000
,
0001
0000
0100
0000
1000
0100
0001
0000
,
1000
0000
0100
0000
0001
0100
1000
0000
,
1100
0110
0011
1001
,
1000
0010
1000
0000
0001
0010
0001
0000
,
0010
0000
0100
0000
1000
0100
1000
0000
,
0010
0000
0100
0000
0001
0100
0001
0000
,
1000
0000
0000
0000
0001
0000
0000
0000
0010
0000
0000
0010
0000
0000
0010
0000
,
0001
0000
1000
0000
0010
0010
0010
0000
,
1000
0000
0000
0000
0010
0000
0000
0000
0100
0000
0000
0010
0000
0000
0100
0000
,
0001
0000
0000
0000
0010
0000
0000
0000
0100
0000
0000
0010
0000
0000
0100
0000
,
0010
0000
0000
0000
0100
0000
0000
0000
1000
0000
0000
0001
0000
0000
1000
0000
,
0001
0100
1000
0100
0001
0010
1000
0010
,
0001
0000
0000
0000
0010
0000
0000
0000
0110
0000
0000
0110
0000
0000
0010
0000
,
0001
0000
0000
0000
0100
0000
0000
0000
0110
0000
0000
0110
0000
0000
0010
0000
,
1000
0000
0010
1000
0001
0000
1000
0001
,
1000
0100
0001
1000
0010
0001
1000
0000
,
2001
0000
0010
0000
0100
0000
0000
0001
,
0001
0000
0000
0000
0010
0010
3010
0000
,
1002
0000
0010
0000
0100
0000
0000
1000
,
1000
0000
0000
0000
0010
0010
0013
0000
,
0011
0000
1001
0000
0001
1000
0010
0000
,
1010
0000
0110
0000
0010
0100
0001
0000
,
0101
0000
1001
0000
1000
0100
0010
0001
,
1000
0010
0001
1000
0100
0001
1000
0000
,
0002
0000
0103
0010
2000
0000
3010
1000
,
0002
0000
1003
0001
0020
0000
0230
0000
,
1300
0000
0001
0010
0002
0000
1003
0010
,
2000
0000
3002
0000
1003
0001
1000
0000
,
1010
0000
1010
0000
0010
1000
0001
0000
,
1001
0000
1001
0000
1000
0001
0010
0000
,
0011
0000
0011
0000
0010
0100
1000
0001
,
1000
0010
0100
0001
1000
0100
0010
0001
,
1000
0000
0010
0000
0100
0010
0100
0000
,
0001
0000
1000
0000
0100
1000
0100
0000
,
0010
0000
0001
0000
1000
0001
1000
0000
,
0001
0100
0010
0100
1000
0100
0010
0100
,
0001
0000
0100
0000
0010
1000
0010
0000
,
1000
0001
1000
0000
0001
0010
0001
0000
,
0010
0000
0100
0000
1000
0100
1000
0000
,
0001
0010
1000
0001
0100
1000
0100
0000
,
1000
0000
1100
0000
0100
1000
0001
0100
,
0001
0000
0101
0000
0001
0100
0010
1000
,
0010
0000
1010
0000
1000
0010
0100
0001
,
1000
0100
0010
0100
0001
0100
0010
0100
,
1000
0000
0100
0000
0010
0001
0010
0000
,
0001
1000
0001
0000
1000
0010
1000
0000
,
0001
0000
0100
0000
0010
1000
0010
0000
,
1000
0010
0001
1000
0100
0001
0100
0000
;

//---------------dance-single - ----------------
#NOTEDATA:;
#CHARTNAME:;
#STEPSTYPE:dance-single;
#DESCRIPTION:;
#CHARTSTYLE:;
#DIFFICULTY:Easy;
#METER:4;
#RADARVALUES:0.274,0.301,0.135,0.216,0.000,174.000,15.000,24.000,0.000,0.000,0.000,0.000,0.000,0.274,0.301,0.135,0.216,0.000,174.000,15.000,24.000,0.000,0.000,0.000,0.000,0.000;
#CREDIT:;
#NOTES:
0000
0000
0000
0000
,
0000
0000
0000
0000
,
0000
0000
0000
0000
,
0000
0000
0000
0000
,
1000
0100
0010
0010
,
0001
1000
0010
0010
,
1000
0001
0100
0100
,
0001
1000
0100
0100
,
0010
0010
0001
0001
,
1000
0001
1000
0001
,
0100
0100
0100
0100
,
0010
0110
0100
0110
,
0010
1000
1000
0001
,
0001
0010
0100
0100
,
0010
0010
0100
1000
,
0001
0001
1001
1001
,
1000
0010
2020
3030
,
0010
1000
2002
3003
,
0001
0010
0022
0033
,
0001
0010
1000
0010
,
0001
0100
0202
0303
,
0001
1000
2002
3003
,
1000
0100
2200
3300
,
0100
0010
0001
2000
,
0002
0000
0000
0000
,
0000
0000
0000
0000
,
0000
0000
0000
0000
,
0000
0000
0000
3003
,
0001
0001
0001
0001
,
0100
0100
0100
0100
,
0010
0010
0010
0010
,
1000
1000
1000
1000
,
0001
0000
1000
0000
,
0001
1000
0001
0000
,
0010
0000
0100
0000
,
0010
0100
0010
0000
,
0001
0010
0001
0010
,
0100
1000
0100
1000
,
0001
1000
0001
1000
,
0010
0100
0010
0100
,
0001
1000
2002
3003
,
0001
0010
0022
0033
,
0010
0100
2200
3300
,
1000
0010
0001
0010
,
1000
0010
2020
3030
,
1000
0001
0202
0303
,
0100
0001
1000
0001
,
0010
0100
0100
0100
,
1000
1000
1000
1000
,
0001
0001
0001
0001
,
0100
0100
0100
0100
,
0010
0100
0010
0100
,
0001
0010
1000
0000
,
1000
0010
0001
0000
,
0001
0010
0100
1000
,
0001
0100
0100
0100
;

//---------------dance-single - ----------------
#NOTEDATA:;
#CHARTNAME:;
#STEPSTYPE:dance-single;
#DESCRIPTION:;
#CHARTSTYLE:;
#DIFFICULTY:Beginner;
#METER:2;
#RADARVALUES:0.114,0.175,0.000,0.000,0.000,89.000,0.000,0.000,0.000,0.000,0.000,0.000,0.000,0.114,0.175,0.000,0.000,0.000,89.000,0.000,0.000,0.000,0.000,0.000,0.000,0.000;
#CREDIT:;
#NOTES:
0000
0000
0000
0000
,
0000
0000
0000
0000
,
0000
0000
0000
0000
,
0000
0000
0000
0000
,
1000
0000
0000
0000
,
1000
0000
1000
0000
,
0001
0000
0000
0000
,
0001
0000
0001
0000
,
0010
0000
0010
0000
,
0100
0100
0100
0000
,
1000
0000
1000
0000
,
0001
0001
0001
0000
,
0100
0000
0100
0000
,
0010
0000
0010
0000
,
1000
1000
1000
0000
,
0001
0001
0001
0000
,
1000
0000
0000
0000
,
0100
0000
0000
0000
,
0010
0000
0000
0000
,
0001
0000
0001
0000
,
0001
0000
0000
0000
,
1000
0000
0000
0000
,
0010
0000
0010
0000
,
0100
0000
0001
0000
,
1000
0000
0000
0000
,
0000
0000
0000
0000
,
0000
0000
0000
0000
,
0000
0000
0000
0000
,
0001
0000
0000
0000
,
1000
0000
0000
0000
,
0001
0000
0001
0000
,
1000
1000
1000
0000
,
0100
0000
0100
0000
,
0010
0000
0010
0000
,
0001
0000
0001
0000
,
1000
0000
1000
0000
,
0010
0010
0010
0000
,
0100
0100
0100
0000
,
0001
0001
0001
0000
,
1000
1000
1000
1000
,
1000
0000
0000
0000
,
0100
0000
0000
0000
,
0010
0000
0000
0000
,
0001
0000
0000
0000
,
1000
0000
0000
0000
,
0010
0000
0000
0000
,
0100
0000
0000
0000
,
0001
0000
0000
0000
,
1000
0000
1000
0000
,
0001
0000
0001
0000
,
1000
0000
0001
0000
,
1000
1000
1000
0000
,
0100
0000
0000
0000
,
0010
0000
0000
0000
,
0100
0000
0010
0000
,
0100
0000
0010
0000
;
