#VERSION:0.83;
#TITLE:I Wanna Mmm...;
#SUBTITLE:;
#ARTIST:The Lawyer;
#TITLETRANSLIT:;
#SUBTITLETRANSLIT:;
#ARTISTTRANSLIT:;
#GENRE:;
#ORIGIN:;
#CREDIT:;
#BANNER:I Wanna Mmm.png;
#BACKGROUND:I Wanna Mmm-bg.png;
#PREVIEWVID:;
#JACKET:I Wanna Mmm-jacket.png;
#CDIMAGE:;
#DISCIMAGE:;
#LYRICSPATH:;
#CDTITLE:;
#MUSIC:I Wanna Mmm.ogg;
#OFFSET:-0.260000;
#SAMPLESTART:21.638023;
#SAMPLELENGTH:12.000000;
#SELECTABLE:YES;
#BPMS:0.000=134.600;
#STOPS:;
#DELAYS:;
#WARPS:;
#TIMESIGNATURES:0.000=4=4;
#TICKCOUNTS:0.000=4;
#COMBOS:0.000=1;
#SPEEDS:0.000=1.000=0.000=0;
#SCROLLS:0.000=1.000;
#FAKES:;
#LABELS:0.000=Song Start;
#BGCHANGES:;
#KEYSOUNDS:;
#ATTACKS:
;

//---------------dance-single - ----------------
#NOTEDATA:;
#CHARTNAME:;
#STEPSTYPE:dance-single;
#DESCRIPTION:;
#CHARTSTYLE:;
#DIFFICULTY:Beginner;
#METER:1;
#RADARVALUES:0.124306,0.137696,0.000000,0.000000,0.000000,94.000000,94.000000,0.000000,0.000000,0.000000,0.000000,0.000000,0.000000,0.000000,0.124306,0.137696,0.000000,0.000000,0.000000,94.000000,94.000000,0.000000,0.000000,0.000000,0.000000,0.000000,0.000000,0.000000;
#CREDIT:;
#NOTES:
0000
0000
0000
0000
,
0000
0000
0000
0000
,
0000
0000
0000
0000
,
0000
0000
0000
0000
,
0010
0000
0000
0000
,
0100
0000
0000
0000
,
0001
0000
0000
0000
,
1000
0000
0000
0000
,
0100
0000
0000
0000
,
1000
0000
0000
0000
,
0010
0000
0000
0000
,
1000
0000
0000
0000
,
0100
0000
0000
0000
,
0010
0010
0010
0000
,
1000
0000
0000
0000
,
0001
0001
0001
0000
,
0100
0000
0000
0000
,
0010
0010
0010
0000
,
1000
0000
0000
0000
,
0001
0001
0001
0000
,
0001
0000
0000
0000
,
1000
1000
1000
0000
,
1000
0000
0000
0000
,
0010
0010
0010
0000
,
0100
0000
0000
0000
,
0010
0010
0010
0000
,
1000
0000
0000
0000
,
0001
0001
0001
0000
,
1000
0000
0000
0000
,
0001
0000
0000
0000
,
0010
0000
0000
0000
,
0100
0000
0000
0000
,
0001
0000
0000
0000
,
1000
0000
0000
0000
,
0100
0000
0000
0000
,
1000
0000
0000
0000
,
0010
0000
0100
0000
,
0010
0000
1000
0000
,
0001
0000
0100
0000
,
0001
0000
1000
0000
,
0010
0000
1000
0000
,
0100
0000
1000
0000
,
0001
0000
0010
0000
,
0001
0000
1000
0000
,
0001
0000
0000
0000
,
0100
0000
0000
0000
,
0010
0000
0000
0000
,
1000
1000
1000
0000
,
0001
0000
0000
0000
,
0100
0100
0100
0000
,
0010
0000
0000
0000
,
1000
1000
1000
0000
,
0001
0000
0000
0000
,
1000
1000
1000
0000
,
0100
0000
0000
0000
,
0010
0010
0010
0000
,
0100
0000
0000
0000
,
1000
1000
1000
0000
,
0001
0000
0000
0000
,
1000
1000
1000
0000
;

//---------------dance-single - ----------------
#NOTEDATA:;
#CHARTNAME:;
#STEPSTYPE:dance-single;
#DESCRIPTION:;
#CHARTSTYLE:;
#DIFFICULTY:Easy;
#METER:3;
#RADARVALUES:0.186460,0.194394,0.000000,0.157367,0.000000,141.000000,141.000000,0.000000,17.000000,0.000000,0.000000,0.000000,0.000000,0.000000,0.186460,0.194394,0.000000,0.157367,0.000000,141.000000,141.000000,0.000000,17.000000,0.000000,0.000000,0.000000,0.000000,0.000000;
#CREDIT:;
#NOTES:
0000
0000
0000
0000
,
0000
0000
0000
0000
,
0000
0000
0000
0000
,
0000
0000
0000
0000
,
0001
0000
0100
0000
,
0001
0000
0010
0000
,
0001
0000
1000
0000
,
0001
0000
0100
0000
,
0010
0000
1000
0000
,
0100
0000
0010
0000
,
0001
0000
1000
0000
,
0100
0000
1000
0000
,
0020
0000
0030
0100
,
0001
0001
1000
0000
,
0002
0000
0003
0100
,
0010
0010
1000
0000
,
0200
0000
0300
0010
,
0001
0001
1000
0000
,
0002
0000
0003
0100
,
0010
0010
0100
0000
,
0002
0000
0003
1000
,
0100
0100
1000
0000
,
0020
0000
0030
0100
,
0001
0001
1000
0000
,
0200
0000
0300
1000
,
0010
0010
0100
0000
,
0002
0000
0003
1000
,
0010
0010
1000
0000
,
0001
1000
0001
0000
,
0100
0010
1000
0000
,
0100
1000
0001
0000
,
0100
0001
0010
0000
,
0001
0010
0100
0000
,
1000
0100
0010
0000
,
0001
0010
0100
0000
,
0010
0001
1000
0000
,
0010
1000
0010
0000
,
0100
0010
0100
0000
,
0001
1000
0100
0000
,
1000
0100
0010
0000
,
0001
0010
0001
0000
,
0100
0010
1000
0000
,
0100
1000
0010
0000
,
0100
0001
1000
0000
,
0200
0000
0000
0000
,
0000
0300
0010
0000
,
0002
0000
0003
0100
,
0001
0001
1000
0000
,
0020
0000
0030
1000
,
0100
0100
1000
0000
,
0002
0000
0003
0100
,
0001
0001
0010
0000
,
0200
0000
0300
1000
,
0100
0100
0010
0000
,
0002
0000
0003
0010
,
0001
0001
0100
0000
,
0020
0000
0030
1000
,
0010
0010
0100
0000
,
0002
0000
0003
0100
,
0001
0001
2000
0000
,
3000
0000
0000
0000
;

//---------------dance-single - ----------------
#NOTEDATA:;
#CHARTNAME:;
#STEPSTYPE:dance-single;
#DESCRIPTION:;
#CHARTSTYLE:;
#DIFFICULTY:Medium;
#METER:5;
#RADARVALUES:0.317378,0.361018,0.148110,0.157367,0.000000,240.000000,224.000000,16.000000,17.000000,0.000000,0.000000,0.000000,0.000000,0.000000,0.317378,0.361018,0.148110,0.157367,0.000000,240.000000,224.000000,16.000000,17.000000,0.000000,0.000000,0.000000,0.000000,0.000000;
#CREDIT:;
#NOTES:
0000
0000
0000
0000
,
0000
0000
0000
0000
,
0000
0000
0000
0000
,
0000
0000
0000
0000
,
1000
0010
0100
0001
,
0100
0001
0010
0100
,
0010
0001
1000
0100
,
1000
0010
0100
0010
,
1000
0001
0010
0001
,
0100
0001
1000
0001
,
0010
0100
1000
0010
,
0100
0001
1000
0001
,
0010
0000
0000
0000
0000
0100
1000
0001
,
1000
1001
0100
0000
,
0002
0000
0000
0000
0003
0010
0001
0100
,
0001
0101
0100
0000
,
0020
0000
0000
0000
0030
1000
0010
0100
,
0001
0101
1000
0000
,
0200
0000
0000
0000
0300
0010
0001
0100
,
0001
0110
0010
0000
,
2000
0000
0000
0000
3000
0100
1000
0010
,
1000
1010
0100
0000
,
0002
0000
0000
0000
0003
0100
0001
0010
,
0001
0110
0010
0000
,
0002
0000
0000
0000
0003
0010
0001
0100
,
0001
0110
0010
0000
,
2000
0000
0000
0000
3000
0100
1000
0100
,
0010
0011
0002
0000
,
0003
0100
0000
0001
0000
1000
0000
0100
,
0000
1000
0000
0010
0000
1000
0000
0001
,
0000
0100
0000
0001
0000
0010
0000
0100
,
0000
1000
0000
0010
0000
0100
0000
0001
,
0000
1000
0000
0100
0000
1000
0000
0010
,
0000
0100
0000
0001
0000
0010
0000
0001
,
0000
0100
0000
0001
0000
1000
0000
0100
,
0000
0010
0000
0100
0000
1000
0000
0010
,
0100
0000
0001
0000
0100
0001
1000
0001
,
1000
0000
0100
0000
1000
0100
0010
0100
,
0010
0000
0001
0000
0100
0001
1000
0001
,
0010
0000
0100
0000
1000
0100
1000
0010
,
0100
0000
0001
0000
0100
0001
1000
0001
,
0010
0000
0100
0000
1000
0100
0010
0001
,
0010
0000
0001
0000
0100
0010
1000
0010
,
0100
0000
0001
0000
1000
0100
0010
0001
,
0200
0000
0000
0000
0300
0010
0100
0010
,
0100
0110
0010
0000
,
2000
0000
0000
0000
3000
0001
1000
0001
,
0100
0101
0010
0000
,
0200
0000
0000
0000
0300
0001
0100
0001
,
0010
0110
1000
0000
,
0200
0000
0000
0000
0300
1000
0010
0100
,
0010
1010
0100
0000
,
0002
0000
0000
0000
0003
0100
0001
0010
,
0001
0110
1000
0000
,
0200
0000
0000
0000
0300
1000
0100
0010
,
0001
0011
0100
0000
,
0020
0000
0000
0000
0030
0100
0010
0100
,
0001
0101
1000
0000
,
0200
0000
0000
0000
0300
1000
0100
0010
,
0001
0011
0002
0000
,
0003
0000
0000
0000
;

//---------------dance-single - ----------------
#NOTEDATA:;
#CHARTNAME:;
#STEPSTYPE:dance-single;
#DESCRIPTION:;
#CHARTSTYLE:;
#DIFFICULTY:Hard;
#METER:7;
#RADARVALUES:0.460198,0.472100,0.296219,0.027771,0.291591,348.000000,316.000000,32.000000,3.000000,0.000000,0.000000,0.000000,0.000000,0.000000,0.460198,0.472100,0.296219,0.027771,0.291591,348.000000,316.000000,32.000000,3.000000,0.000000,0.000000,0.000000,0.000000,0.000000;
#CREDIT:;
#NOTES:
// measure 0
0000
0000
0000
0000
,  // measure 1
0000
0000
0000
0000
,  // measure 2
0000
0000
0000
0000
,  // measure 3
0000
0000
0000
0000
,  // measure 4
0100
0000
0000
0000
0001
0000
0000
1000
0000
0000
0100
0000
0010
0000
0001
0000
,  // measure 5
0100
0000
0000
0000
0010
0000
0000
0100
0000
0000
0001
0000
1000
0000
0001
0000
,  // measure 6
0010
0000
0000
0000
0100
0000
0000
0010
0000
0000
0001
0000
0100
0000
0001
0000
,  // measure 7
1000
0000
0000
0000
0100
0000
0000
1000
0000
0000
0010
0000
0100
0000
0010
0000
,  // measure 8
1000
0000
0000
0000
0010
0000
0000
0100
0000
0000
0001
0000
0100
0000
0001
0000
,  // measure 9
1000
0000
0000
0000
0100
0000
0000
0010
0000
0000
0001
0000
0010
0000
0001
0000
,  // measure 10
0100
0000
0000
0000
0010
0000
0000
0100
0000
0000
0001
0000
1000
0000
0001
0000
,  // measure 11
0010
0000
0000
0000
0100
0000
0000
1000
0000
0000
0010
0000
0100
0000
0001
0000
,  // measure 12
1000
0000
0000
0000
0010
0000
0000
0100
0000
0000
0010
0000
1000
0000
0001
0000
,  // measure 13
0101
1010
1000
0010
,  // measure 14
0100
0000
0000
0000
0001
0000
0000
1000
0000
0000
0100
0000
1000
0000
0100
0000
,  // measure 15
0110
0011
0100
0001
,  // measure 16
0010
0000
0000
0000
0001
0000
0000
1000
0000
0000
0010
0000
0100
0000
0010
0000
,  // measure 17
1010
0101
1000
0100
,  // measure 18
0010
0000
0000
0000
0001
0000
0000
0100
0000
0000
0010
0000
1000
0000
0001
0000
,  // measure 19
0101
1001
0100
1000
,  // measure 20
0100
0000
0000
0000
0010
0000
0000
0001
0000
0000
0100
0000
0001
0000
1000
0000
,  // measure 21
1100
1001
0100
0001
,  // measure 22
1000
0000
0000
0000
0010
0000
0000
0100
0000
0000
0001
0000
1000
0000
0100
0000
,  // measure 23
1100
0110
0010
0001
,  // measure 24
0100
0000
0000
0000
0001
0000
0000
0100
0000
0000
0010
0000
1000
0000
0010
0000
,  // measure 25
0110
1010
0100
0001
,  // measure 26
0010
0000
0000
0000
0100
0000
0000
0010
0000
0000
0001
0000
0100
0000
0001
0000
,  // measure 27
1001
0101
1000
0010
,  // measure 28
0100
0000
0000
0100
0001
0000
0000
0001
1000
0000
0000
1000
0100
0000
0000
0100
,  // measure 29
0010
0000
0000
0010
0001
0000
0000
0001
0100
0000
0000
0100
0010
0000
0000
0010
,  // measure 30
1000
0000
0000
1000
0010
0000
0000
0010
0100
0000
0000
0100
0001
0000
0000
0001
,  // measure 31
0100
0000
0000
0100
0001
0000
0000
0001
1000
0000
0000
1000
0100
0000
0000
0100
,  // measure 32
1000
0000
0000
1000
0100
0000
0000
0100
0010
0000
0000
0010
0001
0000
0000
0001
,  // measure 33
0100
0000
0000
0100
0010
0000
0000
0010
0100
0000
0000
0100
0001
0000
0000
0001
,  // measure 34
0100
0000
0000
0100
0010
0000
0000
0010
0100
0000
0000
0100
0001
0000
0000
0001
,  // measure 35
1000
0000
0000
1000
0001
0000
0000
0001
0100
0000
0000
0100
0010
0000
0000
0010
,  // measure 36
1000
0000
0000
0000
0010
0000
0000
1000
0000
0000
0010
0000
0100
0000
0001
0000
,  // measure 37
1000
0000
0000
0000
0001
0000
0000
0010
0000
0000
0100
0000
0010
0000
0001
0000
,  // measure 38
0100
0000
0000
0000
0010
0000
0000
0100
0000
0000
0010
0000
0100
0000
0001
0000
,  // measure 39
1000
0000
0000
0000
0100
0000
0000
1000
0000
0000
0100
0000
1000
0000
0010
0000
,  // measure 40
0100
0000
0000
0000
0001
0000
0000
1000
0000
0000
0001
0000
0100
0000
0001
0000
,  // measure 41
0010
0000
0000
0000
0100
0000
0000
0010
0000
0000
0001
0000
0010
0000
0001
0000
,  // measure 42
0100
0000
0000
0000
0010
0000
0000
1000
0000
0000
0100
0000
1000
0000
0001
0000
,  // measure 43
1000
0000
0000
0000
0001
0000
0000
0100
0000
0000
0001
0000
1000
0000
0100
0000
,  // measure 44
0020
0000
0000
0000
0030
0100
0010
0100
,  // measure 45
0110
0110
0002
0000
,  // measure 46
1003
0000
0000
0000
0001
0000
0000
0100
0000
0000
0001
0000
1000
0000
0100
0000
,  // measure 47
0110
0011
0100
0010
,  // measure 48
1000
0000
0000
0000
0010
0000
0000
1000
0000
0000
0001
0000
0100
0000
0001
0000
,  // measure 49
0011
1001
0001
0100
,  // measure 50
0010
0000
0000
0000
1000
0000
0000
0100
0000
0000
1000
0000
0100
0000
0010
0000
,  // measure 51
0011
0101
0010
0100
,  // measure 52
0001
0000
0000
0000
0010
0000
0000
0100
0000
0000
0010
0000
0100
0000
1000
0000
,  // measure 53
1100
1010
0100
0010
,  // measure 54
1000
0000
0000
0000
0010
0000
0000
0100
0000
0000
0001
0000
0010
0000
0100
0000
,  // measure 55
0110
0011
0100
0001
,  // measure 56
1000
0000
0000
0000
0001
0000
0000
0010
0000
0000
0100
0000
1000
0000
0010
0000
,  // measure 57
0110
1001
0100
0001
,  // measure 58
1000
0000
0000
0000
0100
0000
0000
1000
0000
0000
0010
0000
0100
0000
0001
0000
,  // measure 59
0011
1001
0200
0000
,  // measure 60
0300
0000
0000
0000
;
