#TITLE:Hurry Up!;
#SUBTITLE:(Tronix Dj Bootleg Edit);
#ARTIST:Dj Barbossa;
#TITLETRANSLIT:;
#SUBTITLETRANSLIT:;
#ARTISTTRANSLIT:;
#GENRE:;
#CREDIT:;
#BANNER:;
#BACKGROUND:;
#LYRICSPATH:;
#CDTITLE:;
#MUSIC:[Punctuation] - Hurry Up! (Tronix DJ Bootleg Edit).ogg;
#OFFSET:0.000000;
#SAMPLESTART:37.461964;
#SAMPLELENGTH:12.000000;
#SELECTABLE:YES;
#BPMS:0.000000=162.184006
,228.000000=324.368011
,230.000000=162.184006
,231.000000=324.368011
,232.500000=162.184006
,233.500000=324.368011
,235.000000=162.184006
,236.000000=324.368011
,238.000000=162.184006
,238.500000=324.368011
,239.000000=162.184006
,240.000000=324.368011
,242.000000=162.184006
,243.000000=324.368011
,245.000000=162.184006
,246.000000=324.368011
,248.000000=168.184006
,248.500000=324.368011
,249.000000=162.184006
,249.500000=324.368011
,250.500000=162.184006
,251.500000=324.368011
,253.000000=162.184006
,254.000000=324.368011
,256.000000=162.184006
,326.500000=324.368011
,328.500000=162.184006
,329.500000=324.368011
,331.500000=162.184006
,332.500000=324.368011
,334.000000=162.184006
,335.000000=324.368011
,337.000000=162.184006
,338.000000=324.368011
,339.500000=162.184006
,340.500000=324.368011
,342.000000=162.184006
,343.000000=324.368011
,345.000000=162.184006
,346.000000=324.368011
,347.000000=162.184006
,347.500000=324.368011
,349.000000=162.184006
,350.000000=324.368011
,352.000000=162.184006
,353.000000=324.368011
,354.500000=162.184006
;
#STOPS:74.000000=-0.369950
;
#BGCHANGES:;
#KEYSOUNDS:;
#ATTACKS:;

//---------------dance-single - ----------------
#NOTES:
     dance-single:
     :
     Hard:
     12:
     0.894140,0.926677,0.417266,0.169997,0.884757,734.000000,54.000000,22.000000,0.000000,0.000000,0.000000,0.894140,0.926677,0.417266,0.169997,0.884757,734.000000,54.000000,22.000000,0.000000,0.000000,0.000000:
0000
0000
0000
1000
0000
0010
0100
0000
,
0002
0000
0003
1000
,
0020
0030
0200
0000
,
0320
0000
0030
0000
,
1000
0000
0001
0100
0001
0200
0320
0230
,
0000
0300
2000
3020
,
0000
0230
0000
0000
0302
0000
0000
0000
,
0000
1003
1000
1000
0010
0000
0001
0200
,
0301
0000
1000
0100
0020
0000
0000
0000
,
0030
1000
0020
0000
,
0000
0000
0000
0030
,
1000
0000
0020
0000
0000
0230
0000
0301
,
0002
0000
0000
0000
0000
0003
0000
0000
,
1000
0000
0010
0000
0100
0000
0000
0001
,
1000
0100
0001
0000
1000
0000
0001
0000
1000
0000
0100
0001
0100
1000
0100
1000
,
0100
0000
0000
0000
0001
0000
1000
0000
0001
0000
0000
0000
1000
0010
0000
0010
,
1000
0000
1000
0100
0000
0100
1000
0000
1000
0000
0010
0000
0100
0000
0001
0000
,
0000
1000
0001
1000
0000
0001
0100
0010
,
1000
0100
0000
0100
1000
0000
0000
0000
0000
0000
0000
0000
0000
0000
0000
0000
,
1000
0000
0000
0000
0100
0000
0010
0000
0100
0000
0000
0000
0001
0100
0000
0100
,
0001
0000
0001
1000
0000
1000
0001
0000
0001
1000
0000
1000
0010
0000
0010
1000
,
0000
1000
0010
0000
0010
0100
0000
0100
0010
0000
0010
0001
0000
0001
0010
0000
,
0100
0000
0000
0000
0100
0000
0000
0000
1000
0100
1000
0000
0010
0100
0010
0000
,
0001
0100
0001
0000
1000
0001
1000
0000
0001
0100
0001
0000
0010
0100
0010
0000
,
1000
0100
1000
0000
0010
0100
0010
0000
0001
0100
0001
0000
1000
0001
1000
0000
,
0010
0100
0010
0000
0100
1000
0100
0000
0010
0100
0010
0000
0001
0100
0001
0000
,
1000
0010
1000
0000
0100
0010
0100
0000
0001
0010
0001
0000
0100
0010
0100
0000
,
1001
1000
1000
1000
,
1001
0000
0000
0000
1000
0100
0000
0100
1000
0000
1000
0010
0000
0010
1000
0000
,
1000
0001
0000
0001
1000
0000
0000
0000
0000
0000
0000
0000
1010
0000
0000
0000
,
1000
0001
0000
0001
1000
0000
0000
0000
0010
0000
0000
0000
0200
0000
0000
0000
,
0310
0000
0000
0000
1000
0010
1000
0000
0010
0100
0010
0000
0001
0100
0001
0000
,
0010
1000
0010
0000
0100
0001
0100
0000
1000
0100
1000
0000
0001
0100
0001
0000
,
0010
0100
0010
0000
1000
0100
1000
0000
0010
1000
0010
0000
0100
0001
0100
0000
,
0010
0100
0010
0000
0100
1000
0100
0000
0000
0000
0000
0000
1100
0000
0000
0000
,
0110
0011
0110
1001
,
0110
1100
0101
1010
,
0101
0000
0000
0000
0000
0000
0000
0000
0000
0000
0000
0000
0100
0000
0000
0010
0000
0000
0100
0000
0000
0010
0000
0000
0100
0000
0010
0000
1000
0000
0010
0000
1000
0000
0010
0000
2000
0000
0000
0000
0000
0000
0000
0000
0000
0000
0000
0000
,
3020
0000
0000
0000
0030
0000
0000
0000
1000
0000
0000
0000
0010
0100
0010
0000
,
0100
1000
0100
0000
0001
0100
0001
0100
0001
0100
0001
0000
1000
0100
1000
0000
,
0001
0100
0001
0000
0010
1000
0010
0000
0100
0001
0100
0000
0010
1000
0010
0000
,
0100
0010
0100
0000
0010
1000
0010
0000
0100
0001
0100
0000
0010
0100
0010
0000
,
0100
1000
0100
1000
0100
0001
0100
0001
0010
0100
0010
0000
1000
0100
1000
0000
,
0001
0100
0001
0000
0010
1000
0010
0000
0100
0001
0100
0000
0010
1000
0010
0000
,
0100
0010
0100
0000
0010
1000
0010
0000
0100
0001
0100
0000
0010
0100
0010
0000
,
0100
1000
0100
0000
0001
0100
0001
0000
0010
0100
0010
0000
1000
0100
1000
0100
,
1000
0000
0010
0100
0010
0000
0010
0100
0010
0000
0100
1000
0100
0000
0001
0100
,
0001
0000
0010
0100
0010
0000
1000
0100
1000
0000
0001
0100
0001
0000
0000
0000
,
0010
0100
0010
0000
0100
1000
0100
0000
0001
0100
0001
0000
0010
0100
0010
0000
,
1000
0100
1000
0000
0001
0100
0001
0000
0010
1000
0010
0000
0000
0000
0010
0100
,
0010
0000
0100
1000
0100
0000
0001
0100
0010
0100
0010
0000
0100
1000
0100
0000
,
0001
0100
0001
0000
0010
0100
0010
0000
1000
0100
0010
0100
0010
0000
0100
1000
,
0100
0000
0001
0100
0001
0000
0010
0100
0010
0000
0000
0000
0010
0000
0000
0000
,
0100
0000
0100
0000
0100
0010
0000
0010
0100
0000
0000
0000
1000
0010
0000
0010
,
1000
0000
0010
0100
0000
0100
0010
0000
0100
0000
0000
0000
0001
0100
0000
0100
,
0001
0000
0100
0000
0000
0000
0010
0000
1000
0100
0000
0100
1000
0000
1000
0010
,
0000
0010
1000
0000
1000
0001
0000
0001
1000
0000
1000
0010
0000
0010
1000
0000
,
1010
0000
1010
0101
,
0000
1100
0000
0110
0000
0001
0011
0000
,
1100
0000
0000
0000
1000
0001
1000
0000
,
0011
0000
1100
0101
,
0000
0110
1001
0000
,
1100
0001
0110
1000
0000
0110
0000
1001
,
0000
1100
0011
0000
,
1001
0000
0000
0000
1000
0001
0000
0001
1000
0000
1000
0010
0000
0010
1000
0000
,
1000
0100
0000
0100
1000
0000
0010
0100
0000
0100
0010
0000
2002
0000
0000
0000
,
3003
0000
0000
0000
0000
0000
0000
0000
1000
0010
0000
0010
1000
0000
0000
0000
,
1000
0010
0000
0010
1000
0000
0000
0000
1000
0000
0000
0000
0010
0100
0010
0000
,
0100
1000
0100
0000
0001
0100
0001
0100
0001
0100
0001
0000
1000
0100
1000
0000
,
0001
0100
0001
0000
0010
1000
0010
0000
0100
0001
0100
0000
0010
1000
0010
0000
,
0100
0010
0100
0000
0010
1000
0010
0000
0100
0001
0100
0000
0010
0100
0010
0000
,
0100
1000
0100
1000
0100
0001
0100
0001
0010
0100
0010
0000
1000
0100
1000
0000
,
0001
0100
0001
0000
0010
1000
0010
0000
0100
0001
0100
0000
0010
1000
0010
0000
,
0100
0010
0100
0000
0010
1000
0010
0000
0100
0001
0100
0000
0010
0100
0010
0000
,
0100
1000
0100
0000
0001
0100
0001
0000
0010
0100
0010
0000
1000
0100
1000
0100
,
1000
0000
0010
0100
0010
0000
0010
0100
0010
0000
0100
1000
0100
0000
0001
0100
,
0001
0000
0010
0100
0010
0000
1000
0100
1000
0000
0001
0100
0001
0000
0000
0000
,
0010
0100
0010
0000
0100
1000
0100
0000
0001
0100
0001
0000
0010
0100
0010
0000
,
1000
0100
1000
0000
0001
0100
0001
0000
0010
1000
0010
0000
0000
0000
0010
0100
,
0010
0000
0100
1000
0100
0000
0001
0100
0010
0100
0010
0000
0100
1000
0100
0000
,
0001
0100
0001
0000
0010
0100
0010
0000
1000
0100
0010
0100
0010
0000
0100
1000
,
0100
0000
0001
0100
0001
0000
0010
0100
0000
0000
1100
0000
0000
0000
0000
0000
,
0000
0101
0000
1100
0000
0000
0000
1100
,
0000
0011
0000
0000
1001
0000
0110
0000
,
0000
0000
1010
0000
0101
0000
0000
1100
,
0000
0011
0000
0000
1100
0000
0110
0000
,
0000
0000
1001
0000
0110
0000
1001
0110
,
0000
1100
0101
0000
,
1010
0000
0000
0000
0110
0000
0000
0000
0000
0000
1000
0000
0100
0000
0100
1000
,
0000
1000
0010
0000
0010
0001
0000
0001
0100
0000
0100
1000
0000
1000
0001
0000
,
0001
1000
0000
1000
0010
0000
0010
0100
0000
0100
0010
0000
0010
1000
0000
0010
,
0100
0010
0100
0010
0100
0010
0100
0010
0100
0000
0010
0000
0100
0000
0010
0000
,
0100
0010
0100
0000
0000
0000
0000
0000
;

//---------------dance-single - ----------------
#NOTES:
     dance-single:
     :
     Medium:
     8:
     0.509991,0.570263,0.285904,0.162270,0.000000,404.000000,37.000000,21.000000,0.000000,0.000000,0.000000,0.509991,0.570263,0.285904,0.162270,0.000000,404.000000,37.000000,21.000000,0.000000,0.000000,0.000000:
0000
0000
0000
0000
,
1000
0000
0000
0000
,
0010
0000
0000
0000
,
0000
0000
0000
0100
,
0101
0000
0000
0000
,
0010
1010
0000
0100
,
0101
0000
0010
1000
0100
0000
0101
0000
,
1000
0001
1000
0001
0100
0110
0000
0000
,
1000
0010
0100
0000
,
0000
1000
0001
0000
,
0100
0010
0001
0000
,
1001
0110
0000
1001
,
0110
0000
0000
1000
,
0010
0000
0100
0000
0010
0000
0000
0101
,
0000
0101
0000
0101
0000
0101
0000
0101
,
0000
0000
1000
0100
0010
0000
0100
0010
,
0100
0000
0010
1000
0001
0100
0000
0010
,
1000
0010
1000
0010
0100
0010
0001
0100
,
1000
0100
0010
0000
0000
0000
0000
0000
,
1000
0000
0010
0100
0010
0000
1000
0010
,
0100
0001
0100
1000
0100
0001
0010
0100
,
0010
0100
1000
0100
0010
0000
0110
0000
,
0101
0000
1100
0000
0100
0010
0100
0000
,
0001
0100
0001
0000
1000
0100
0001
0100
,
1000
0001
1000
0001
1000
0100
0010
0100
,
0010
0000
0001
0100
1000
0100
0001
0100
,
1000
0000
0000
0000
1000
0001
1000
0001
,
1000
0000
0010
0100
0010
0100
0010
0100
,
0001
0100
0001
0010
0100
1000
0100
0001
,
0010
1000
0000
1000
,
1000
0100
0020
0000
0230
0000
0302
0000
,
0003
1000
0010
0100
,
0001
0000
1000
0001
0000
1000
0000
0010
,
0000
0100
0000
0001
0000
0100
0010
0000
,
1000
0000
0001
0000
0100
0010
0100
1000
,
0000
0100
0010
0001
0100
0010
0100
0000
,
0000
1000
0010
0100
0001
0100
0010
1000
,
0100
1000
0100
0010
0100
0001
0200
0000
,
0302
0000
2003
0000
3000
0010
0000
0100
,
0000
1000
0000
0001
0010
0000
0100
0000
,
0010
0000
0100
1000
0000
0001
0000
1000
,
0000
0010
0000
1000
0000
0001
0000
0100
,
0000
1000
0100
0000
0001
0000
0010
0000
,
0001
0100
1000
0001
,
0010
0000
1000
0001
0000
0010
0000
0001
,
0000
1000
0000
0100
0000
1000
0000
0001
,
0100
0001
0010
0001
,
0100
1000
0001
0010
,
1000
0001
0000
0010
0000
0001
0000
1000
,
0000
0100
0000
1000
0000
0001
0100
0000
,
0001
0010
0001
0100
,
1000
0000
0001
0000
0010
0000
1000
0001
,
0000
0010
0000
0001
0000
1000
0000
0000
,
0100
0100
0010
0100
0010
0000
0001
1000
,
0001
0000
1000
0001
0100
0001
1000
0100
,
0001
0100
1000
0000
0001
1000
0001
0000
,
0100
0010
0100
0010
1000
0010
0001
0100
,
1100
0000
1100
1100
,
0000
0110
0000
0110
0000
0000
0011
0000
,
0011
0000
0101
0000
,
0101
0000
1001
1001
,
0000
0110
0110
0000
,
1010
0000
0000
1010
0000
0011
0000
0011
,
0000
0110
0110
0000
,
1001
0000
1000
0010
1000
0100
0010
0001
,
0100
0001
0100
0001
1000
0010
1000
0010
,
0100
0010
0000
0000
0100
1000
0001
0100
,
1000
0010
0000
0100
0000
0001
0000
0010
,
0000
0001
0000
0100
0000
1000
0000
0001
,
0000
0010
0000
1000
0001
0000
0010
0000
,
0001
1000
0100
1000
,
0010
0100
0000
0001
0000
0010
0000
0001
,
0000
0100
0000
1000
0000
0001
0000
0010
,
0000
0010
0001
0000
0010
0000
0001
0000
,
1000
0000
0100
0000
1000
0000
0001
0100
,
0000
0001
0000
0010
0000
0001
0000
0100
,
0000
1000
0000
0001
0000
0010
0000
0010
,
1000
0100
1000
0001
,
0010
0000
0001
0000
1000
0010
0000
1000
,
0000
0100
0000
1000
0000
0010
0000
0001
,
0000
1000
0000
0100
0000
0001
0100
0000
,
0002
0000
2003
0000
3000
0010
0000
0000
,
0000
2000
0000
3000
0000
0000
0000
0020
,
0000
0030
0000
0000
2000
0000
3000
0000
,
0000
0000
0002
0000
0003
0000
0000
0020
,
0000
0030
0000
0000
2000
0000
3000
0000
,
0000
0002
0003
0200
,
0000
0302
2003
0000
,
3020
0000
0230
0000
0000
0300
1000
0001
,
1000
0001
0100
0001
0100
1000
0100
2000
,
3010
0100
0010
0001
0000
0001
0000
0001
,
0010
1000
0010
0100
0010
0000
0010
0000
,
0010
0010
0000
0000
;

//---------------dance-single - ----------------
#NOTES:
     dance-single:
     :
     Easy:
     6:
     0.413954,0.534621,0.061817,0.224087,0.000000,338.000000,8.000000,29.000000,0.000000,0.000000,0.000000,0.413954,0.534621,0.061817,0.224087,0.000000,338.000000,8.000000,29.000000,0.000000,0.000000,0.000000:
// measure 0
0000
0000
0000
0000
,  // measure 1
1000
0000
0000
0000
,  // measure 2
0010
0000
0000
0000
,  // measure 3
0000
0000
0000
0100
,  // measure 4
0001
0000
0000
0000
,  // measure 5
0010
0010
0000
0100
,  // measure 6
0101
0010
0100
0101
,  // measure 7
1000
1000
0100
0000
,  // measure 8
1000
0010
0100
0000
,  // measure 9
0000
1000
0001
0000
,  // measure 10
0100
0010
0001
0000
,  // measure 11
1001
0110
0000
1001
,  // measure 12
0110
0000
0000
1000
,  // measure 13
0010
0000
0100
0000
0010
0000
0000
0100
,  // measure 14
0000
0100
0000
0100
0000
0100
0000
0100
,  // measure 15
0000
1000
0010
0100
,  // measure 16
0100
0010
0001
0000
,  // measure 17
1000
1000
0100
0001
,  // measure 18
1000
0010
0000
0000
,  // measure 19
0001
0010
1000
0100
,  // measure 20
0010
0001
0010
1000
,  // measure 21
0100
0010
0100
1000
,  // measure 22
0001
1000
0001
0100
,  // measure 23
1000
0100
0010
1000
,  // measure 24
0010
1000
0100
0010
,  // measure 25
0001
1000
0010
1000
,  // measure 26
0010
0000
1000
0010
,  // measure 27
1000
0100
0010
0001
,  // measure 28
0010
1000
0010
0100
,  // measure 29
0001
1000
0100
0010
,  // measure 30
1000
0020
0230
0302
,  // measure 31
0003
1000
0010
0100
,  // measure 32
0001
0000
1000
0001
0000
1000
0000
0010
,  // measure 33
0000
0100
0000
0001
0000
0100
0010
0000
,  // measure 34
1000
0000
0001
0000
0100
0010
0000
1000
,  // measure 35
0000
0100
0000
0001
0000
0010
0100
0000
,  // measure 36
0000
1000
0010
0000
0001
0000
0010
0000
,  // measure 37
0000
1000
0000
0000
0100
0001
0200
0000
,  // measure 38
0302
0000
2003
0000
3000
0100
0000
0010
,  // measure 39
0000
0001
0000
1000
0100
0000
0010
0000
,  // measure 40
0100
0000
0010
0001
0000
1000
0000
0001
,  // measure 41
0000
0100
0000
0001
0000
1000
0000
0010
,  // measure 42
0000
0001
0010
0000
1000
0000
0100
0000
,  // measure 43
1000
0010
0001
1000
,  // measure 44
0100
0000
0001
1000
0000
0100
0000
1000
,  // measure 45
0000
0001
0000
0010
0000
0001
0000
1000
,  // measure 46
0010
1000
0100
1000
,  // measure 47
0010
0001
1000
0100
,  // measure 48
0001
1000
0000
0100
0000
1000
0000
0001
,  // measure 49
0000
0010
0000
0001
0000
1000
0010
0000
,  // measure 50
1000
0100
1000
0010
,  // measure 51
0001
0000
1000
0000
0100
0000
0001
1000
,  // measure 52
0000
0100
0000
1000
0000
0001
0000
0000
,  // measure 53
0100
0010
0001
0100
,  // measure 54
0001
1000
0010
1000
,  // measure 55
0001
1000
0100
0001
,  // measure 56
0010
0100
1000
0001
,  // measure 57
1100
0000
1000
1000
,  // measure 58
0000
0010
0000
0010
0000
0000
0001
0000
,  // measure 59
0001
0000
0001
0000
,  // measure 60
0001
0000
1000
1000
,  // measure 61
0000
0010
0010
0000
,  // measure 62
1000
0000
0000
1000
0000
0010
0000
0010
,  // measure 63
0000
0100
0100
0000
,  // measure 64
1100
1000
0010
0001
,  // measure 65
0010
0100
1000
0100
,  // measure 66
0001
0000
0001
1000
,  // measure 67
0100
0010
0000
0100
0000
0001
0000
0100
,  // measure 68
0000
0001
0000
0100
0000
1000
0000
0001
,  // measure 69
0000
0010
0000
1000
0001
0000
0010
0000
,  // measure 70
0001
1000
0100
1000
,  // measure 71
0010
0100
0000
0001
0000
0010
0000
0001
,  // measure 72
0000
0100
0000
1000
0000
0001
0000
0010
,  // measure 73
0000
0010
0001
0000
0010
0000
0001
0000
,  // measure 74
1000
0000
0100
0000
1000
0000
0001
0100
,  // measure 75
0000
0001
0000
0010
0000
0001
0000
0100
,  // measure 76
0000
1000
0000
0001
0000
0010
0000
0010
,  // measure 77
1000
0100
1000
0001
,  // measure 78
0010
0000
0001
0000
1000
0010
0000
1000
,  // measure 79
0000
0100
0000
1000
0000
0010
0000
0001
,  // measure 80
0000
1000
0000
0100
0000
0001
0100
0000
,  // measure 81
0002
0000
2003
0000
3000
0020
0000
0000
,  // measure 82
0000
2030
0000
3200
0000
0000
0000
0320
,  // measure 83
0000
0230
0000
0000
2300
0000
3200
0000
,  // measure 84
0000
0000
0302
0000
0203
0000
0000
0320
,  // measure 85
0000
0032
0000
0000
2003
0000
3200
0000
,  // measure 86
0000
0302
0023
0230
,  // measure 87
0000
0302
2003
0000
,  // measure 88
3020
0000
0230
0000
0000
0300
1000
0001
,  // measure 89
1000
0001
0100
0001
0100
1000
0100
2000
,  // measure 90
3010
0100
0010
0001
0000
0001
0000
0001
,  // measure 91
0010
1000
0010
0100
0010
0000
0010
0000
,  // measure 92
0010
0010
0000
0000
;
