#VERSION:0.81;
#TITLE:How We Do;
#SUBTITLE:(Party);
#ARTIST:Rita Ora;
#TITLETRANSLIT:;
#SUBTITLETRANSLIT:;
#ARTISTTRANSLIT:;
#GENRE:;
#ORIGIN:;
#CREDIT:;
#BANNER:banner.png;
#BACKGROUND:How We Do (Party)-bg.png;
#PREVIEWVID:;
#JACKET:jacket.png;
#CDIMAGE:;
#DISCIMAGE:;
#LYRICSPATH:;
#CDTITLE:;
#MUSIC:How We Do (Party).ogg;
#OFFSET:-0.845469;
#SAMPLESTART:49.780014;
#SAMPLELENGTH:12.000000;
#SELECTABLE:YES;
#BPMS:0.000=116.000;
#STOPS:;
#DELAYS:;
#WARPS:;
#TIMESIGNATURES:0.000=4=4;
#TICKCOUNTS:0.000=4;
#COMBOS:0.000=1;
#SPEEDS:0.000=1.000=0.000=0;
#SCROLLS:0.000=1.000;
#FAKES:;
#LABELS:0.000=Song Start;
#BGCHANGES:;
#KEYSOUNDS:;
#ATTACKS:
;

//---------------dance-single - ----------------
#NOTEDATA:;
#CHARTNAME:;
#STEPSTYPE:dance-single;
#DESCRIPTION:;
#CHARTSTYLE:;
#DIFFICULTY:Beginner;
#METER:1;
#RADARVALUES:0.095418,0.092065,0.000000,0.000000,0.000000,74.000000,0.000000,0.000000,0.000000,0.000000,0.000000,0.000000,0.000000,0.095418,0.092065,0.000000,0.000000,0.000000,74.000000,0.000000,0.000000,0.000000,0.000000,0.000000,0.000000,0.000000;
#CREDIT:;
#NOTES:
0000
0000
0000
0000
,
0000
0000
0000
0000
,
0000
0000
0000
0000
,
0000
0000
0000
0000
,
1000
0000
0000
0000
,
0001
0000
0000
0000
,
0100
0000
0000
0000
,
0010
0000
0000
0000
,
1000
0000
1000
0000
,
0100
0000
0100
0000
,
0010
0000
0010
0000
,
0001
0000
0001
0000
,
1000
0000
1000
0000
,
0100
0000
0000
0000
,
1000
0000
1000
0000
,
0010
0000
0000
0000
,
0100
0000
0100
0000
,
0001
0000
0000
0000
,
0010
0000
0010
0000
,
0001
0000
0000
0000
,
1000
0000
1000
0000
,
0001
0000
0001
0000
,
1000
0000
1000
0000
,
0001
0000
0001
0000
,
1000
0000
1000
0000
,
0100
0000
0000
0000
,
0010
0000
0010
0000
,
0001
0000
0000
0000
,
0100
0000
0100
0000
,
0010
0000
0000
0000
,
1000
0000
1000
0000
,
0001
0000
0001
0000
,
1000
0000
1000
0000
,
0010
0000
0000
0000
,
0100
0000
0100
0000
,
0001
0000
0000
0000
,
0010
0000
0010
0000
,
0100
0000
0000
0000
,
1000
0000
1000
0000
,
0001
0000
0001
0000
,
1000
0000
0000
0000
,
0001
0000
0001
0000
,
0100
0000
0000
0000
,
0010
0000
0010
0000
,
1000
0000
0000
0000
,
0001
0000
0001
0000
,
0010
0000
0000
0000
,
0100
0000
0100
0000
,
1000
0000
0000
0000
,
0001
0000
0000
0000
,
0100
0000
0000
0000
,
0010
0000
0000
0000
;

//---------------dance-single - ----------------
#NOTEDATA:;
#CHARTNAME:;
#STEPSTYPE:dance-single;
#DESCRIPTION:;
#CHARTSTYLE:;
#DIFFICULTY:Easy;
#METER:3;
#RADARVALUES:0.190836,0.188643,0.027078,0.108312,0.000000,133.000000,3.000000,12.000000,0.000000,0.000000,0.000000,0.000000,0.000000,0.190836,0.188643,0.027078,0.108312,0.000000,133.000000,3.000000,12.000000,0.000000,0.000000,0.000000,0.000000,0.000000;
#CREDIT:;
#NOTES:
0000
0000
0000
0000
,
0000
0000
0000
0000
,
0000
0000
0000
0000
,
0000
0000
0000
0000
,
1000
0000
0000
0000
,
0001
0000
0000
0000
,
0100
0000
0000
0000
,
0010
0000
0000
0000
,
1000
1000
0100
0100
,
0010
0010
0001
0001
,
1000
1000
0010
0010
,
0100
0100
0001
0001
,
1000
0100
1000
0000
,
0001
0100
0001
0000
,
1000
0010
1000
0000
,
0001
0010
0001
0000
,
1000
0100
0100
0000
,
0010
0001
0001
0000
,
0100
0100
0010
0010
,
0100
0100
0001
0001
,
1000
1000
1100
0000
,
0001
0001
0101
0000
,
1000
1000
1010
0000
,
0001
0000
0001
0000
,
1000
0010
0100
0000
,
0001
0001
0001
0000
,
0001
0010
0100
0000
,
1000
1000
1000
0000
,
0001
0100
0010
0010
,
0100
0000
0100
0000
,
0001
0010
0100
0100
,
0010
0000
0010
0000
,
0001
0100
0001
0000
,
1000
1000
1000
0000
,
0010
1000
0010
0000
,
0100
0100
0100
0000
,
0001
0010
0100
0100
,
0010
0000
0010
0000
,
0001
1000
0100
0100
,
1000
0000
1000
0000
,
0002
0000
0000
0003
,
1000
1000
0010
0010
,
0200
0000
0000
0300
,
0001
0001
1000
1000
,
0020
0000
0000
0030
,
0100
0100
0001
0001
,
2000
0000
0000
3000
,
0100
0100
1000
1000
,
0002
0000
2003
0000
,
3020
0000
0230
0000
,
0302
0000
0023
0000
,
0230
0000
2300
0000
,
0000
3000
0000
0000
;

//---------------dance-single - ----------------
#NOTEDATA:;
#CHARTNAME:;
#STEPSTYPE:dance-single;
#DESCRIPTION:;
#CHARTSTYLE:;
#DIFFICULTY:Medium;
#METER:5;
#RADARVALUES:0.259175,0.259385,0.108312,0.108312,0.000000,177.000000,12.000000,12.000000,0.000000,0.000000,0.000000,0.000000,0.000000,0.259175,0.259385,0.108312,0.108312,0.000000,177.000000,12.000000,12.000000,0.000000,0.000000,0.000000,0.000000,0.000000;
#CREDIT:;
#NOTES:
0000
0000
0000
0000
,
0000
0000
0000
0000
,
0000
0000
0000
0000
,
0000
0000
0000
0000
,
1000
0000
0000
0000
,
0001
0000
0000
0000
,
0100
0000
0000
0000
,
0010
0000
0000
0000
,
1000
0001
1000
0001
,
0100
0010
0100
0010
,
1000
0100
1000
0100
,
0010
0001
0010
0001
,
1000
0000
0000
0001
0000
0000
0100
0000
,
0010
0000
0000
0100
0000
0000
0001
0000
,
1000
0000
0000
0100
0000
0000
0010
0000
,
0100
0000
0000
1000
0000
0000
0001
0000
,
1000
0000
0000
0010
0000
0000
0100
0000
,
0001
0000
0000
0010
0000
0000
0100
0000
,
1000
0001
1000
0001
,
0100
0010
0100
0000
,
0001
0001
0010
0010
,
0100
0100
1000
1000
,
0100
0100
0010
0010
,
0001
0001
0001
0001
,
1100
0000
0101
0000
1100
0000
0000
0001
,
0000
1000
0010
0000
0100
0000
0001
0000
,
1010
0000
0011
0000
1010
0000
0000
0001
,
0000
1000
0100
0000
0010
0000
0001
0000
,
0100
0000
0100
0010
0000
0010
0100
0000
,
0001
0000
1000
0100
0000
0100
1000
0000
,
0001
0000
0100
0010
0000
0000
0010
0100
,
0000
0100
0001
1000
0001
0000
1000
0000
,
1100
0000
0110
0000
1100
0000
0000
0001
,
0000
0010
0001
0000
0100
0000
0010
0000
,
0101
0000
0011
0000
0101
0000
0000
1000
,
0000
0100
1000
0000
0010
0000
0100
0000
,
0001
0000
1000
0100
0000
0100
1000
0000
,
0001
0000
0010
0001
0000
0001
0010
0000
,
0001
0000
0100
0001
0000
0000
0001
1000
,
0000
0100
1000
0010
0100
0000
0001
0000
,
2000
0000
0100
0000
0001
0000
0010
3010
,
0000
0100
0001
0000
0010
0000
0010
0000
,
0002
0000
0100
0000
1000
0000
0010
0013
,
0000
0100
1000
0000
0010
0000
0010
0000
,
0200
0000
1000
0000
0010
0000
0301
1000
,
0000
1000
0010
0000
0100
0000
0001
0000
,
0020
0000
1000
0000
0100
0000
0031
1000
,
0000
1000
0001
0000
0100
0000
0001
0000
,
2000
0000
3200
0000
,
0320
0000
0032
0000
,
0203
0000
0320
0000
,
2030
0000
3002
0000
,
0000
0003
0000
0000
;

//---------------dance-single - ----------------
#NOTEDATA:;
#CHARTNAME:;
#STEPSTYPE:dance-single;
#DESCRIPTION:;
#CHARTSTYLE:;
#DIFFICULTY:Hard;
#METER:7;
#RADARVALUES:0.397144,0.377287,0.099286,0.162468,0.067695,279.000000,11.000000,18.000000,0.000000,0.000000,0.000000,0.000000,0.000000,0.397144,0.377287,0.099286,0.162468,0.067695,279.000000,11.000000,18.000000,0.000000,0.000000,0.000000,0.000000,0.000000;
#CREDIT:;
#NOTES:
// measure 0
0000
0000
0000
0000
,  // measure 1
0000
0000
0000
0000
,  // measure 2
0000
0000
0000
0000
,  // measure 3
0000
0000
0000
0000
,  // measure 4
1000
0100
0000
0010
0000
0001
0100
0010
,  // measure 5
1000
0100
0000
1000
0000
0001
0100
0001
,  // measure 6
1000
0010
0000
0100
0000
0001
0010
0100
,  // measure 7
0010
0001
0000
1000
0000
0010
1000
0001
,  // measure 8
1000
1000
0001
0001
,  // measure 9
1000
1000
0001
0001
,  // measure 10
1000
0010
0100
0001
,  // measure 11
1000
0010
0100
0001
,  // measure 12
1001
0000
1000
0001
0000
0100
0010
0100
,  // measure 13
0010
0000
1000
0100
0000
0010
0001
0100
,  // measure 14
0010
0000
0100
0001
0000
1000
0100
1000
,  // measure 15
0010
0000
0100
0001
0000
0100
0001
0010
,  // measure 16
0001
0000
1000
0010
0000
0100
0001
0010
,  // measure 17
0100
0000
1000
0010
0000
1000
0010
0100
,  // measure 18
0000
0010
1000
0100
0000
1000
0001
0100
,  // measure 19
0000
1001
0000
0101
0000
0001
0010
0100
,  // measure 20
1000
0000
0000
1000
0000
0000
1000
0000
0001
0000
0000
0001
0000
0000
0001
0000
,  // measure 21
0100
0000
0000
0100
0000
0000
0100
0000
0010
0000
0000
0010
0000
0000
0010
0000
,  // measure 22
1000
0000
0000
0100
0000
0000
0010
0000
0001
0000
0000
0100
0000
0000
0010
0000
,  // measure 23
2000
0000
0000
0001
0000
0000
0001
0000
3001
0000
0100
0000
0001
0000
0001
0000
,  // measure 24
1010
0000
1010
0000
0010
1000
0000
0200
,  // measure 25
0000
0310
0001
0100
0010
0100
0001
0010
,  // measure 26
0011
0000
0011
0000
0010
0100
0000
2000
,  // measure 27
0000
3010
0100
0001
0100
0010
0100
0001
,  // measure 28
0010
0000
0010
0100
0000
0100
0001
0100
,  // measure 29
1000
0000
1000
0010
0000
0010
0100
1000
,  // measure 30
0100
0000
0100
0001
0000
0001
0010
0100
,  // measure 31
0000
0100
1000
1000
1000
0001
0100
0010
,  // measure 32
0101
0000
0101
0000
0100
0010
0000
2000
,  // measure 33
0000
3100
0010
0100
1000
0010
0100
0001
,  // measure 34
0011
0000
0011
0000
0010
0100
0000
0020
,  // measure 35
0000
0031
0100
0010
0100
0001
1000
0100
,  // measure 36
0010
0000
0010
0100
0000
0100
1000
0010
,  // measure 37
0100
0000
0100
1000
0000
1000
0100
0001
,  // measure 38
0010
0000
0010
0001
0000
0001
0100
0010
,  // measure 39
0000
0010
1000
1000
1000
0100
0010
0001
,  // measure 40
0200
0000
1000
0000
0010
0000
0301
1000
,  // measure 41
0000
1000
0100
0100
0100
0010
0001
0100
,  // measure 42
0020
0000
0001
0000
0100
0000
1030
0010
,  // measure 43
0000
0010
1000
1000
1000
0100
0010
0001
,  // measure 44
2000
0000
0100
0000
0010
0000
3001
0100
,  // measure 45
0000
0100
0010
0010
0010
1000
0100
0010
,  // measure 46
0002
0000
0100
0000
1000
0000
0013
0100
,  // measure 47
0000
0100
1000
1000
1000
0000
0010
0000
,  // measure 48
0200
0000
0000
1000
0000
0000
1000
0000
2300
0000
0000
0100
0000
0000
0100
0000
,  // measure 49
3200
0000
0000
0001
0000
0000
0001
0000
0302
0000
0000
0010
0000
0000
0010
0000
,  // measure 50
0023
0000
0000
1000
0000
0000
1000
0000
2030
0000
0000
0010
0000
0000
0010
0000
,  // measure 51
3020
0000
0000
0001
0000
0000
0001
0000
0032
0000
0000
2000
0000
0000
0000
0000
,  // measure 52
0000
3003
0000
0000
;
