#TITLE:Go Beyond!!;
#SUBTITLE:;
#ARTIST:Ryu☆ Vs. Sota;
#TITLETRANSLIT:;
#SUBTITLETRANSLIT:;
#ARTISTTRANSLIT:;
#GENRE:;
#CREDIT:;
#BANNER:Go Beyond!!-bn.png;
#BACKGROUND:Go Beyond!!-bg.png;
#LYRICSPATH:;
#CDTITLE:;
#MUSIC:Go Beyond!!.ogg;
#OFFSET:-0.133437;
#SAMPLESTART:30.040833;
#SAMPLELENGTH:12.000000;
#SELECTABLE:YES;
#DISPLAYBPM:100.000000:200.000000;
#BPMS:0.000000=200.000000
,100.000000=100.000000
,156.000000=200.000000
,284.000000=100.000000
;
#STOPS:
;
#BGCHANGES:0.000=Go Beyond!!.mp4=1.000=1=0=0=StretchNoLoop==CrossFade==,
99999=-nosongbg-=1.000=0=0=0 // don't automatically add -songbackground-
;
#KEYSOUNDS:;
#ATTACKS:;

//---------------dance-single - ----------------
#NOTES:
     dance-single:
     :
     Hard:
     9:
     0.625693,0.888089,0.251019,0.579941,0.173117,410.000000,29.000000,67.000000,0.000000,0.000000,0.000000,0.625693,0.888089,0.251019,0.579941,0.173117,410.000000,29.000000,67.000000,0.000000,0.000000,0.000000:
// measure 0
0000
0000
0000
0000
,  // measure 1
0000
0000
0000
0000
,  // measure 2
0000
0000
0000
0000
,  // measure 3
0000
0000
0000
0000
,  // measure 4
0000
0000
0000
0000
,  // measure 5
1000
1000
0001
1000
,  // measure 6
0010
0000
0000
0010
0000
0000
0100
0000
0010
0000
0000
0000
0000
0000
0000
0000
,  // measure 7
1010
0000
0000
0000
0101
0001
0001
0000
,  // measure 8
1000
0000
0000
1000
0000
0000
0100
0000
0010
0000
0010
0000
0001
0010
0001
0010
,  // measure 9
0001
0100
0010
0000
1000
0100
0000
0010
,  // measure 10
0001
0100
0000
0001
0000
0100
0010
0100
,  // measure 11
0001
0010
0100
0000
1000
0001
1000
0100
,  // measure 12
0010
0010
0000
0110
0000
1100
0000
1001
,  // measure 13
0001
0100
0010
0000
1000
0100
0000
0010
,  // measure 14
0100
1000
0000
0001
0000
0100
0010
0100
,  // measure 15
0101
0010
1100
0010
,  // measure 16
1002
0000
0103
0100
0001
0010
0100
1000
,  // measure 17
0001
0001
0100
1000
0100
0001
1000
0100
,  // measure 18
0010
0010
0001
1000
0000
0010
0100
0000
,  // measure 19
0010
0010
1000
0100
0001
0100
1000
0001
,  // measure 20
0100
0000
0100
0000
0010
0000
1000
0000
0000
0000
0001
0000
1000
0000
0100
1000
,  // measure 21
0100
0000
1100
0000
1001
1001
0000
0100
,  // measure 22
0101
0000
0101
0000
0000
0000
0110
0000
0000
0000
1010
0000
0010
1000
0010
1000
,  // measure 23
0001
0000
1000
0000
0100
1000
0100
1000
0100
0000
0010
0000
0001
0010
0001
0010
,  // measure 24
0001
0200
0000
0020
0000
0000
0000
0300
,  // measure 25
2030
0000
0200
3000
0002
0300
2000
0003
,  // measure 26
0020
0000
0000
0000
0000
3000
0002
0030
,  // measure 27
2000
0003
0020
3000
0002
0030
2000
0003
,  // measure 28
0200
0000
0000
0000
0000
3000
0020
0300
,  // measure 29
2000
0030
0200
3000
0020
0300
2000
0030
,  // measure 30
0002
0000
0000
0000
0000
3000
0200
0003
,  // measure 31
0020
0300
0002
0030
0200
0003
2000
0300
,  // measure 32
0002
0000
0000
0000
0000
3000
0020
0003
,  // measure 33
2030
0100
0001
0100
0010
0100
3002
0010
,  // measure 34
2003
0010
0100
0010
0001
0100
3002
0100
,  // measure 35
2003
0010
3200
0010
0302
1000
0203
0010
,  // measure 36
2300
0000
0100
0000
3001
0100
0001
0100
0010
0000
1000
0001
0000
1000
0100
0000
,  // measure 37
0010
0001
0000
1000
0001
0000
0100
0001
0020
0100
0100
0000
0001
0032
0000
2000
,  // measure 38
0000
0000
0000
0000
0003
3010
0010
0010
,  // measure 39
1000
0100
1000
0000
0001
0000
0000
0000
0100
0000
0001
0000
0010
0000
0000
0000
,  // measure 40
0100
1000
0100
0000
0010
0000
0000
0000
0001
0000
0000
0000
0100
0000
0001
0000
,  // measure 41
0100
0010
0100
0000
0010
0000
0000
0000
1000
0000
0001
0000
1000
0000
0000
0000
,  // measure 42
0100
0010
0100
0000
1000
0000
0001
0000
0100
0000
0000
0000
0000
0000
0000
0000
,  // measure 43
0110
0000
0000
0000
0010
0000
0000
0000
1000
0001
1000
0000
0100
0000
0010
0000
,  // measure 44
0001
0000
0000
0000
0100
0000
0000
0000
0001
1000
0001
0000
0100
0000
0010
0000
,  // measure 45
1000
0100
1000
0000
0100
0000
0010
0000
0001
0000
0100
0000
0010
0000
0100
0000
,  // measure 46
0002
0000
2000
3003
,  // measure 47
0001
0100
0001
0000
0010
0000
0100
0000
1000
0000
0001
0000
1000
0000
0100
0000
,  // measure 48
1000
0100
1000
0000
0001
0000
0100
0000
0010
0000
0100
0000
1000
0000
0100
0000
,  // measure 49
0001
0100
0001
0000
1000
0000
0100
0000
0010
0000
0100
0000
1000
0000
0001
0000
,  // measure 50
0100
0010
0100
0000
0001
0000
1000
0000
0100
0000
0000
0000
0000
0000
0000
0000
,  // measure 51
0110
0000
0010
0000
0001
0000
1000
0000
0001
0100
0001
0000
1000
0000
0100
0000
,  // measure 52
1100
0000
1000
0000
0001
0000
0100
0000
0010
0100
0010
0000
1000
0000
0001
0000
,  // measure 53
1002
0103
2001
3010
,  // measure 54
1000
0100
0010
0001
0100
0010
0100
0010
,  // measure 55
2000
0000
0010
0000
3002
0000
0013
0100
,  // measure 56
2000
0000
3100
0010
0002
0000
0103
0010
,  // measure 57
0020
1000
0100
0001
,  // measure 58
0100
0000
1030
0000
2100
0000
3001
0100
,  // measure 59
0102
0000
0010
0000
2003
0000
3010
0100
,  // measure 60
0002
0000
0103
0010
2000
0000
3100
0010
,  // measure 61
0200
0010
0001
0310
,  // measure 62
0001
1000
0200
0300
,  // measure 63
0010
0001
0100
0000
0010
0100
0001
0000
,  // measure 64
1000
0100
0010
0000
0100
1000
0001
0100
,  // measure 65
0200
0010
1000
0010
,  // measure 66
0001
0000
0000
0000
0010
0000
0000
0000
1000
0000
0000
0000
0310
0000
0100
0010
,  // measure 67
0100
0000
0110
0000
1010
1010
0000
0001
,  // measure 68
1001
0000
1001
0000
0000
0000
0101
0000
0000
0000
0110
0000
0000
0000
0100
0010
,  // measure 69
0100
0000
0100
0000
0001
0100
0001
0100
0001
0000
0001
0000
1000
0100
1000
0100
,  // measure 70
2000
0000
0002
3000
,  // measure 71
0020
0000
0000
0000
0000
0003
0230
0000
,  // measure 72
2000
0000
0000
0000
0000
0300
3002
0000
,  // measure 73
0020
0003
2000
0030
0200
3000
0002
0300
,  // measure 74
2000
0000
0000
0000
,  // measure 75
0000
0000
0000
0000
,  // measure 76
3003
0000
0000
0000
;

//---------------dance-single - ----------------
#NOTES:
     dance-single:
     :
     Medium:
     7:
     0.467415,0.460490,0.103870,0.675155,0.008656,288.000000,12.000000,78.000000,0.000000,0.000000,0.000000,0.467415,0.460490,0.103870,0.675155,0.008656,288.000000,12.000000,78.000000,0.000000,0.000000,0.000000:
// measure 0
0000
0000
0000
0000
,  // measure 1
0000
0000
0000
0000
,  // measure 2
0000
0000
0000
0000
,  // measure 3
0000
0000
0000
0000
,  // measure 4
0000
0000
0000
0000
,  // measure 5
1000
0000
1000
0000
0001
0100
0001
0000
,  // measure 6
0100
0000
0000
0100
0000
0000
0100
0000
0010
0000
0000
0000
0000
0000
0000
0000
,  // measure 7
0110
0000
0000
0000
0001
1000
0001
0000
,  // measure 8
0100
0000
0000
0100
0000
0000
0100
0000
0010
0000
0010
0000
0100
0000
0000
0000
,  // measure 9
0010
0000
0010
0000
1000
0100
0000
0010
,  // measure 10
0100
0010
0000
0001
0000
1000
0000
1000
,  // measure 11
0010
0000
0010
0000
0100
0010
0100
0001
,  // measure 12
0010
0010
0000
0100
0000
1000
0000
1000
,  // measure 13
0001
0000
0001
0000
0100
0010
0000
0100
,  // measure 14
0001
1000
0000
0001
0000
1000
0000
1000
,  // measure 15
0100
0000
0100
0000
0010
0100
0010
0001
,  // measure 16
2000
3200
0302
0023
,  // measure 17
1030
0000
1000
0000
0001
0100
0000
0010
,  // measure 18
0100
0100
0000
0001
0000
1000
0000
1000
,  // measure 19
0100
0000
0100
0000
0100
1000
0100
0010
,  // measure 20
0000
0010
0000
0001
0000
1000
0000
1000
,  // measure 21
0010
0000
0010
0000
0100
0100
0000
0001
,  // measure 22
0001
0001
0000
1000
0000
0100
0000
0010
,  // measure 23
0210
1300
0210
0302
,  // measure 24
2000
0000
0000
0000
0000
0000
0000
3003
,  // measure 25
0002
2003
3200
0320
,  // measure 26
0032
0000
0000
0203
,  // measure 27
0320
0230
0302
2003
,  // measure 28
3200
0000
0000
0320
,  // measure 29
0230
2300
3020
0230
,  // measure 30
0302
0000
0000
0203
,  // measure 31
0320
2030
3200
0320
,  // measure 32
0032
0000
0000
0023
,  // measure 33
0230
1000
0010
0302
,  // measure 34
0203
0001
0010
2300
,  // measure 35
3002
2003
3020
0230
,  // measure 36
0302
0010
0010
0010
,  // measure 37
1000
1000
2000
0000
,  // measure 38
0000
0000
3000
0000
0003
0100
0100
0100
,  // measure 39
0010
1000
0010
0000
0100
0000
0100
0000
,  // measure 40
0001
1000
0001
0000
1000
0000
1000
1000
,  // measure 41
0100
1000
0100
0000
0010
0000
0010
0000
,  // measure 42
0001
1000
1001
0000
,  // measure 43
0001
0100
0010
0000
0100
0000
0100
0000
,  // measure 44
0010
1000
0001
0000
0010
0000
0010
0000
,  // measure 45
0001
1000
0001
1000
0100
0000
0100
0000
,  // measure 46
0020
0000
0000
0000
0200
0000
0000
0330
,  // measure 47
1000
0001
0100
0000
0010
0000
1000
0000
,  // measure 48
0100
1000
0001
0000
0100
0000
0100
0000
,  // measure 49
0010
1000
0001
0000
0010
0000
0100
0000
,  // measure 50
1000
0001
0100
0000
0010
0000
0000
0000
,  // measure 51
0110
1000
0100
0010
,  // measure 52
1001
0100
0010
0100
,  // measure 53
1001
0100
1001
0100
,  // measure 54
0020
2030
3200
0320
,  // measure 55
0032
0010
2003
0010
,  // measure 56
3200
0000
0001
0000
0320
0000
0031
0100
,  // measure 57
0200
0010
0010
0010
,  // measure 58
1300
0100
0002
0103
,  // measure 59
0020
1000
0230
0010
,  // measure 60
0302
0010
2003
0100
,  // measure 61
3002
0010
0010
0010
,  // measure 62
1003
0001
0020
0030
,  // measure 63
1200
0010
2300
0010
,  // measure 64
3002
0000
0010
0000
0203
0000
0310
1000
,  // measure 65
2000
0100
0100
0100
,  // measure 66
3001
0000
1000
0000
0100
0000
0010
0100
,  // measure 67
0100
0000
0110
0000
1000
1000
0000
0001
,  // measure 68
0001
0001
0000
0100
0000
0010
0000
0010
,  // measure 69
1000
0210
0301
0210
,  // measure 70
2300
0000
3002
0000
,  // measure 71
0023
0000
0000
0230
,  // measure 72
2300
0000
0000
3002
,  // measure 73
0200
0300
2003
0000
0020
0030
3002
0000
,  // measure 74
2000
0000
0000
0000
,  // measure 75
0000
0000
0000
0000
,  // measure 76
3003
0000
0000
0000
;

//---------------dance-single - ----------------
#NOTES:
     dance-single:
     :
     Easy:
     5:
     0.311610,0.427598,0.138493,0.294298,0.000000,202.000000,16.000000,34.000000,0.000000,0.000000,0.000000,0.311610,0.427598,0.138493,0.294298,0.000000,202.000000,16.000000,34.000000,0.000000,0.000000,0.000000:
// measure 0
0000
0000
0000
0000
,  // measure 1
0000
0000
0000
0000
,  // measure 2
0000
0000
0000
0000
,  // measure 3
0000
0000
0000
0000
,  // measure 4
0000
0000
0000
0000
,  // measure 5
1000
1000
1000
0000
,  // measure 6
0001
0000
0001
0000
,  // measure 7
0110
0000
1001
0000
,  // measure 8
0220
0000
0000
0330
,  // measure 9
0001
1000
0001
0000
,  // measure 10
0010
0100
1000
0000
,  // measure 11
0001
0100
0010
0000
,  // measure 12
0100
0100
0100
0100
,  // measure 13
0001
1000
0100
0000
,  // measure 14
0010
0001
0100
0000
,  // measure 15
0001
1000
0010
0000
,  // measure 16
0200
0000
0000
0300
,  // measure 17
0001
0100
0001
0100
,  // measure 18
0001
1000
0100
0000
,  // measure 19
1000
0100
1000
0100
,  // measure 20
0010
0001
1000
0000
,  // measure 21
1001
0000
0110
0000
,  // measure 22
1001
0000
0110
0000
,  // measure 23
0011
0000
1100
0000
,  // measure 24
2002
0000
0000
3003
,  // measure 25
1000
1000
0001
0001
,  // measure 26
0200
0000
0000
0310
,  // measure 27
0100
0100
0001
0001
,  // measure 28
2000
0000
0000
3100
,  // measure 29
0010
0100
1000
0001
,  // measure 30
0200
0000
0000
0310
,  // measure 31
1000
0001
0010
0100
,  // measure 32
0020
0000
0000
0032
,  // measure 33
2003
0100
0000
3200
,  // measure 34
0320
0001
0000
0032
,  // measure 35
0203
0320
2030
3200
,  // measure 36
0320
0100
0100
0100
,  // measure 37
0100
0100
0002
0000
,  // measure 38
0000
0000
0000
0033
,  // measure 39
1000
1000
0010
0000
,  // measure 40
0001
0001
0100
0000
,  // measure 41
1000
1000
0100
0000
,  // measure 42
0001
0010
0100
0000
,  // measure 43
1100
0001
0100
0000
,  // measure 44
0001
1000
0100
0000
,  // measure 45
1000
0001
0010
0100
,  // measure 46
2000
0000
0002
3003
,  // measure 47
0001
0001
0100
0010
,  // measure 48
0100
0100
0010
1000
,  // measure 49
0100
0100
0010
0001
,  // measure 50
1000
0001
0100
0000
,  // measure 51
0110
1000
0001
0000
,  // measure 52
0110
0001
1000
0000
,  // measure 53
0110
0000
1001
0000
,  // measure 54
0220
0000
0000
0330
,  // measure 55
1000
0100
0010
0000
,  // measure 56
0001
0100
0010
1000
,  // measure 57
0200
0000
0010
0000
,  // measure 58
1300
0000
0002
0000
,  // measure 59
0103
0010
1000
0000
,  // measure 60
0100
0010
0001
1000
,  // measure 61
0020
0000
0100
0000
,  // measure 62
1030
0001
0200
0300
,  // measure 63
0001
0001
1000
1000
,  // measure 64
0100
0100
0010
0010
,  // measure 65
0002
0100
0100
0100
,  // measure 66
0100
0103
0200
0310
,  // measure 67
1000
1000
0001
0001
,  // measure 68
0100
0100
0010
0010
,  // measure 69
1000
0001
0100
0001
,  // measure 70
2000
0000
0000
0000
,  // measure 71
3200
0000
0000
0310
,  // measure 72
0002
0000
0000
0103
,  // measure 73
0010
1000
0100
0010
,  // measure 74
0200
0000
0000
0000
,  // measure 75
0000
0000
0000
0000
,  // measure 76
0300
0000
0000
0000
;

//---------------dance-single - ----------------
#NOTES:
     dance-single:
     :
     Challenge:
     10:
     0.770369,0.855197,0.276987,0.450103,0.476071,539.000000,32.000000,52.000000,0.000000,0.000000,0.000000,0.770369,0.855197,0.276987,0.450103,0.476071,539.000000,32.000000,52.000000,0.000000,0.000000,0.000000:
// measure 0
0000
0000
0000
0000
,  // measure 1
0000
0000
0000
0000
,  // measure 2
0000
0000
0000
0000
,  // measure 3
0000
0000
0000
0000
,  // measure 4
0000
0000
0000
0000
,  // measure 5
0001
0001
0010
0001
0100
1000
0100
0001
,  // measure 6
1000
0000
0000
1000
0000
0000
1000
0000
0100
0000
0000
0000
0000
0000
0000
0000
,  // measure 7
0120
0000
1030
0010
0001
0100
0010
1000
,  // measure 8
0100
0000
0000
0100
0000
0000
0010
0000
0001
0000
0001
0000
0100
0010
0100
0010
,  // measure 9
1000
0100
0010
0000
0100
1000
0001
0100
,  // measure 10
0010
0100
1000
0100
0001
1000
0100
0010
,  // measure 11
0001
0100
0010
0000
0100
0001
1000
0100
,  // measure 12
0011
0011
0000
1100
0000
0011
0000
1100
,  // measure 13
1001
0100
0010
0000
0100
0001
1000
0100
,  // measure 14
0010
0100
0001
0100
1000
0001
0100
0010
,  // measure 15
2010
0000
3100
0000
0012
0000
0103
0010
,  // measure 16
1002
0000
0103
0001
0001
0010
0100
1000
,  // measure 17
0001
0100
1000
0001
0010
0100
0001
0010
,  // measure 18
1000
0000
0010
0000
0001
0000
0100
0000
0000
0000
0010
1000
0001
0000
1000
0000
,  // measure 19
0021
0000
1030
0001
0100
0010
0001
0100
,  // measure 20
1000
0000
0100
0000
0001
0000
0010
0000
0000
0000
0100
1000
0001
0000
0100
0010
,  // measure 21
1000
0000
1010
0000
1100
1100
0000
0011
,  // measure 22
0011
0000
1001
0000
0000
0000
0101
0000
0000
0000
0110
0000
1000
0100
1000
0100
,  // measure 23
0010
0000
0011
0000
0001
0100
0010
1000
0100
0000
1100
0000
1000
0100
0010
0001
,  // measure 24
1000
2000
0000
0002
0000
0000
0000
3000
,  // measure 25
0203
0000
2000
0300
0020
3000
0002
0030
,  // measure 26
0200
0000
0003
0302
,  // measure 27
0020
0003
2000
0030
0200
3000
0002
0300
,  // measure 28
0020
0000
0000
0000
0000
0003
0230
0000
,  // measure 29
2000
0300
0020
3000
0002
0030
0200
0003
,  // measure 30
2000
0000
0000
0000
0000
0300
3020
0000
,  // measure 31
2000
0030
0200
3000
0002
0300
0020
0003
,  // measure 32
2000
0000
0000
0000
0000
0030
3002
0000
,  // measure 33
1003
0100
0010
0000
0001
0100
0010
1000
0001
0000
0010
0100
0020
0000
1000
0000
,  // measure 34
0130
1000
0001
0000
0100
0001
0010
0100
1000
0000
0001
0100
0020
0000
0100
0000
,  // measure 35
1030
0100
0001
0000
0100
0010
0001
0000
0100
0010
1000
0000
0100
0010
0001
0000
,  // measure 36
0002
0000
0010
0000
1003
0100
1000
0100
0010
0000
0001
1000
0000
0010
0001
0000
,  // measure 37
0010
0100
0000
0001
0010
0000
1000
0010
0001
0100
1000
0000
0100
0002
0000
2000
,  // measure 38
0000
0000
0000
0000
0000
0000
0000
0000
0000
0000
0000
0000
0003
0000
0000
0000
3001
0100
0000
0000
0010
0000
0000
0000
0010
0000
0000
0000
0010
0000
0000
0000
,  // measure 39
1000
0100
1000
0100
0010
0000
0001
0000
1000
0000
0001
0000
0100
0000
0010
0000
,  // measure 40
0100
0001
0100
0001
1000
0000
0100
0000
0010
0000
0100
0000
1000
0000
0001
0000
,  // measure 41
0100
0010
0100
0010
1000
0000
0100
0000
0010
0000
0001
0000
1000
0000
0001
0000
,  // measure 42
0100
0001
0100
0001
0010
0000
0100
0000
1000
0000
0000
0000
0000
0000
0000
0000
,  // measure 43
0001
0100
0001
0100
0010
0000
1000
0001
1000
0000
0100
0000
0010
0000
0001
0000
,  // measure 44
1000
0100
1000
0100
0010
0000
0001
1000
0001
0000
0100
0000
0010
0000
1000
0000
,  // measure 45
0001
0010
0001
0010
0100
0000
1000
0001
1000
0000
0001
0000
0100
0000
0010
0000
,  // measure 46
2000
0000
0002
3003
,  // measure 47
0001
0100
0001
0100
0001
0100
0010
1000
0001
0000
1000
0000
0100
0000
0010
0000
,  // measure 48
0001
0010
0001
0010
0100
1000
0001
0100
0010
0000
1000
0000
0001
0000
1000
0000
,  // measure 49
0010
1000
0010
1000
0100
0010
0001
1000
0001
0000
0100
0000
0010
0000
1000
0000
,  // measure 50
0100
0010
0001
0100
0010
1000
0010
1000
0001
0000
0000
0000
0000
0000
0000
0000
,  // measure 51
1000
0100
0010
0001
1000
0000
0001
0000
0100
0010
0100
0010
1000
0010
1000
0000
,  // measure 52
0001
0010
0100
1000
0001
0000
0100
0000
0010
0100
0010
0100
0001
0100
0001
0000
,  // measure 53
1000
0100
0010
0000
0100
0010
0001
0000
0010
0001
1000
0000
0010
0100
0001
0000
,  // measure 54
0010
0001
0010
0001
1000
0001
1000
0001
0100
0001
0100
0010
1000
0100
0010
0001
,  // measure 55
1000
0000
0100
0000
0001
0000
0100
0010
0001
0000
1000
0000
0001
0000
0100
0010
,  // measure 56
1000
0000
0001
0000
1000
0000
0010
0100
0001
0000
0010
0000
0001
0000
0100
0010
,  // measure 57
1000
1000
0001
0001
0010
1000
0010
0001
,  // measure 58
0100
0000
0010
0000
1000
0000
0100
0000
0012
0000
0000
0000
0103
0000
0010
1000
,  // measure 59
0001
0000
0010
0000
0001
0000
0100
0010
1000
0000
0100
0000
0010
0000
0100
1000
,  // measure 60
0001
0000
0100
0000
0010
0000
0100
0001
1000
0000
0100
0000
0010
0000
0100
1000
,  // measure 61
0010
0010
0100
0100
0001
0010
0100
1000
,  // measure 62
0001
1000
0020
0030
,  // measure 63
0100
0010
0100
0000
0001
0000
1000
0000
0100
1000
0100
0000
0010
0000
0001
0000
,  // measure 64
0100
0010
1000
0000
0001
0000
1000
0000
0100
0010
0100
0000
0010
0000
0001
0000
,  // measure 65
0100
0100
0010
0010
1000
0100
0010
0001
,  // measure 66
0010
0000
1000
0000
0010
0000
0001
0000
0200
0000
0010
0000
0310
0000
1000
0100
,  // measure 67
1000
0000
1100
0000
0011
0011
0000
0101
,  // measure 68
1010
0000
1001
0000
0000
0000
0011
0000
0000
0000
1100
0000
0000
0000
0001
0100
,  // measure 69
0010
0000
1010
0000
1000
0100
0010
0001
0100
0000
0110
0000
1000
0010
0100
0001
,  // measure 70
2000
0000
3002
0000
,  // measure 71
0023
0000
0000
0230
,  // measure 72
2000
0000
0300
3002
,  // measure 73
0200
0003
2000
0300
0020
3000
0002
0030
,  // measure 74
2000
0000
0000
0000
,  // measure 75
0000
0000
0000
0000
,  // measure 76
3003
0000
0000
0000
;
