#TITLE:Codename:Zero;
#SUBTITLE:;
#ARTIST:NeLiME;
#TITLETRANSLIT:Codename Zero;
#SUBTITLETRANSLIT:;
#ARTISTTRANSLIT:;
#GENRE:;
#CREDIT:;
#MENUCOLOR:;
#METERTYPE:DDR;
#BANNER:[Punctuations] - Codename Zero.png;
#BACKGROUND:[Punctuations] - Codename Zero-bg.png;
#LYRICSPATH:;
#CDTITLE:;
#MUSIC:[Punctuations] - Codename Zero.mp3;
#OFFSET:-0.926;
#SAMPLESTART:91.200;
#SAMPLELENGTH:15.000;
#SELECTABLE:YES;
#LISTSORT:;
#BPMS:0.000=200.000,286.000=50.000,289.000=200.000;
#STOPS:60.000=0.600
,286.000=0.300
;
#BGCHANGES:;
#ATTACKS:;

//---------------dance-single - ----------------
#NOTES:
     dance-single:
     :
     Hard:
     8:
     0.654,0.666,0.226,0.234,0.097: // measure 1
0000
0000
0000
0000
,  // measure 2
0000
0000
0000
0000
,  // measure 3
0000
0000
0000
0000
,  // measure 4
0000
0000
0000
0000
,  // measure 5
0000
0000
0000
0000
,  // measure 6
0000
0000
0000
0000
,  // measure 7
0000
0000
0000
0000
,  // measure 8
0000
0000
0000
0000
,  // measure 9
1010
0011
0101
1100
,  // measure 10
1000
0000
0010
0000
0100
0000
0000
0000
0001
0000
0010
0100
0010
0000
0000
0000
,  // measure 11
0011
1010
1100
0101
,  // measure 12
0001
0100
0020
0000
0130
0000
0000
0000
,  // measure 13
1100
1010
0011
0101
,  // measure 14
0001
0010
0000
0100
0000
0000
0010
0000
0001
0000
0000
0000
0000
0000
0000
0000
,  // measure 15
0101
1100
1010
0021
,  // measure 16
0130
0000
2000
0000
3001
0000
0100
0010
,  // measure 17
0000
1000
0100
0000
0010
0010
0000
0001
,  // measure 18
0100
1000
0100
0000
0010
0010
0000
0100
,  // measure 19
0000
0001
0000
1000
0000
0100
0000
0010
,  // measure 20
1000
0010
0001
0000
1000
0000
0010
0100
,  // measure 21
0000
0001
0010
0000
0100
0100
0000
1000
,  // measure 22
0010
0001
0010
0000
1000
1000
0000
0010
,  // measure 23
0000
0100
0000
0001
0000
0010
0000
0001
,  // measure 24
0100
1000
0100
0000
0001
0000
0100
0010
,  // measure 25
0000
1000
0100
0000
0010
0010
0000
0100
,  // measure 26
0001
0100
1000
0000
0010
0010
0000
1000
,  // measure 27
0000
0001
0000
0010
0000
0001
0000
0010
,  // measure 28
1000
0010
0001
0000
0100
0000
0001
1000
,  // measure 29
0000
0100
1000
0000
0010
0010
0000
1000
,  // measure 30
0000
0100
0100
0000
1000
1000
0001
0001
,  // measure 31
1000
0001
1000
0001
2000
0000
0000
0000
3002
0000
0000
0000
0023
0000
0000
0000
,  // measure 32
0230
0000
0320
0000
0031
0000
1000
0010
,  // measure 33
0000
0100
0010
0000
1000
0001
0000
0010
,  // measure 34
0100
0000
1000
0000
0010
0000
0100
0001
,  // measure 35
0000
0010
0001
0000
0100
0010
0000
1000
,  // measure 36
0100
0000
0010
0000
0100
0000
1000
0010
,  // measure 37
0000
0100
0001
0000
0010
0001
0000
0100
,  // measure 38
0010
0000
1000
0000
0001
0000
0100
0010
,  // measure 39
0000
1000
0001
0000
0010
0001
0000
0100
,  // measure 40
0010
0000
1000
0000
0110
0000
0001
0010
,  // measure 41
0000
0001
0100
0000
0010
1000
0000
0010
,  // measure 42
0100
0000
0001
0000
0100
0000
0010
1000
,  // measure 43
0000
0001
0100
0000
0010
1000
0000
0100
,  // measure 44
0010
0000
0100
0000
1000
0000
0010
0100
,  // measure 45
0000
0001
0010
0000
0001
1000
0000
0010
,  // measure 46
1000
0000
0100
0000
0010
0000
0100
1000
,  // measure 47
0000
0010
0100
0000
0002
0000
2003
0000
,  // measure 48
3002
0000
0203
0000
0310
0100
0010
0100
,  // measure 49
0001
0000
1000
1000
0000
0001
0010
0001
,  // measure 50
0100
0000
0100
0000
0100
0000
0010
0000
0010
0000
0010
0000
,  // measure 51
0100
0001
0010
0100
0000
1000
0010
1000
,  // measure 52
0200
0000
0000
0000
1300
0010
1000
0010
,  // measure 53
0200
0000
0301
0001
0000
1000
0100
1000
,  // measure 54
0010
0000
0000
0000
0010
0000
0000
0000
0010
0000
0000
0000
0100
0000
0000
0100
0000
0000
0010
0000
0000
0010
0000
0000
,  // measure 55
0100
0010
0100
0010
0200
0000
0000
0000
0300
0000
0010
0000
1000
0000
0100
0000
,  // measure 56
0020
0000
0000
0000
0130
1000
0100
1000
,  // measure 57
0001
0000
0100
0100
0000
0001
0100
0001
,  // measure 58
0010
0000
0010
0000
0010
0000
0100
0000
0100
0000
0100
0000
,  // measure 59
0010
0001
1000
0100
0000
1000
0010
1000
,  // measure 60
0200
0000
0000
0000
1300
0100
1000
0100
,  // measure 61
0020
0000
0130
0100
0000
0010
0001
0010
,  // measure 62
0100
0000
0100
0000
0100
0000
0010
0100
0010
0100
0000
0010
,  // measure 63
0000
0000
0001
0000
0000
0000
1000
0000
0000
1000
0000
0000
0000
0000
0000
0001
0000
0000
0010
0000
0000
0001
0000
0000
,  // measure 64
0200
0300
1001
0000
,  // measure 65
0000
0000
0110
0110
0000
0101
0000
1010
,  // measure 66
0000
0000
1001
0000
,  // measure 67
0000
0000
0110
0110
0000
1010
0000
0101
,  // measure 68
0200
0000
0000
0000
0301
0010
0001
0100
,  // measure 69
0000
0010
0001
0100
0000
0010
0001
0100
,  // measure 70
0000
0010
0001
0100
0000
0010
0001
0100
,  // measure 71
0000
0010
0001
0100
0000
0010
0001
0100
,  // measure 72
0002
2003
3010
0000
,  // measure 73
0000
0000
0000
0000
1001
0000
0000
0000
0000
0000
0001
0010
0001
0000
0000
0000
,  // measure 74
0100
0000
0010
1000
0001
0010
0010
0100
,  // measure 75
0010
0010
0001
0100
0100
0010
1000
1000
,  // measure 76
0001
0000
0100
0010
0100
0001
0001
1000
,  // measure 77
0100
0100
0010
0100
0100
1000
0001
0001
,  // measure 78
0100
0000
0010
1000
0001
0100
0100
0010
,  // measure 79
1000
1000
0100
0010
0010
0001
0100
0100
,  // measure 80
0010
0000
0100
0001
1000
0100
0100
0010
,  // measure 81
0001
0001
0100
0010
0010
1000
0100
0100
,  // measure 82
2000
0000
3001
0100
0010
1000
1000
0100
,  // measure 83
0010
0010
0001
0100
0100
0010
0100
0100
,  // measure 84
0001
1000
0010
0100
0001
0010
0010
0100
,  // measure 85
1000
1000
0010
0100
0100
0001
1000
1000
,  // measure 86
0001
0010
0001
0100
0010
1000
1000
0100
,  // measure 87
0010
0010
0001
0100
0100
0001
1000
1000
,  // measure 88
0010
0100
0001
0010
0001
1000
1000
0010
,  // measure 89
2000
3002
0023
0230
,  // measure 90
0320
0000
0031
1000
0010
0100
0000
0001
,  // measure 91
0010
0100
0000
0010
0001
0100
0010
1000
,  // measure 92
0100
0000
1000
0010
0100
0010
0000
0100
,  // measure 93
0001
0010
0000
0001
1000
0010
0100
0010
,  // measure 94
1000
0000
0001
0100
0010
0100
0000
0001
,  // measure 95
1000
0100
0000
0010
0100
1000
0010
0100
,  // measure 96
0001
0000
1000
0010
0100
0001
0000
0010
,  // measure 97
0100
0010
0000
0001
0100
0010
1000
0100
,  // measure 98
2000
3001
0000
0000
;

//---------------dance-single - ----------------
#NOTES:
     dance-single:
     :
     Medium:
     6:
     0.535,0.627,0.193,0.242,0.000: // measure 1
0000
0000
0000
0000
,  // measure 2
0000
0000
0000
0000
,  // measure 3
0000
0000
0000
0000
,  // measure 4
0000
0000
0000
0000
,  // measure 5
0000
0000
0000
0000
,  // measure 6
0000
0000
0000
0000
,  // measure 7
0000
0000
0000
0000
,  // measure 8
0000
0000
0000
0000
,  // measure 9
1010
0101
1010
0101
,  // measure 10
0001
0100
0001
0000
1000
0010
1000
0000
,  // measure 11
1100
0011
1100
0011
,  // measure 12
0001
1000
0002
0000
0103
0000
0000
0000
,  // measure 13
0110
1001
0110
1001
,  // measure 14
1000
0000
0000
0100
1000
0000
0000
0000
,  // measure 15
0101
1010
0101
2020
,  // measure 16
3030
0000
2000
0000
3001
0000
0000
0001
,  // measure 17
0000
0000
0001
0000
1000
0001
0000
1000
,  // measure 18
0010
0000
0010
0000
0100
0010
0000
0100
,  // measure 19
0000
0010
0000
0100
0000
0010
0000
0100
,  // measure 20
0001
0000
0001
0000
0100
0000
0000
0100
,  // measure 21
0000
0000
0100
0000
0010
0100
0000
0010
,  // measure 22
1000
0000
1000
0000
0001
0100
0000
0001
,  // measure 23
0000
0100
0000
0001
0000
0100
0000
0001
,  // measure 24
0010
0000
0010
0000
0100
0000
0000
0100
,  // measure 25
0000
0000
0100
0000
1000
0100
0000
1000
,  // measure 26
0010
0000
0010
0000
0100
0001
0000
0100
,  // measure 27
0000
0001
0000
0100
0000
0001
0000
0100
,  // measure 28
0010
0000
0010
0000
0100
0000
0000
0100
,  // measure 29
0000
0000
0100
0000
0010
0100
0000
0010
,  // measure 30
0000
0100
0001
0000
1000
0001
1000
0001
,  // measure 31
2000
3002
0023
0032
,  // measure 32
0203
0000
0320
0000
1030
0000
0001
1000
,  // measure 33
0000
0001
1000
0000
0001
1000
0000
0001
,  // measure 34
1000
0000
0001
0000
0100
0000
0010
0100
,  // measure 35
0000
0010
0100
0000
0010
0100
0000
0010
,  // measure 36
0100
0000
0010
0000
1000
0000
0100
1000
,  // measure 37
0000
0100
1000
0000
0100
1000
0000
0100
,  // measure 38
1000
0000
0100
0000
0010
0000
0001
0010
,  // measure 39
0000
0001
0010
0000
0001
0010
0000
0001
,  // measure 40
0010
0000
0001
0000
1001
0000
1000
0010
,  // measure 41
0000
1000
0100
0000
1000
0010
0000
1000
,  // measure 42
0100
0000
1000
0000
0001
0000
0100
0010
,  // measure 43
0000
0100
0001
0000
0100
0010
0000
0100
,  // measure 44
0001
0000
0100
0000
0010
0000
1000
0010
,  // measure 45
0000
1000
0001
0000
1000
0010
0000
1000
,  // measure 46
0001
0000
1000
0000
0001
0000
0100
0001
,  // measure 47
0000
0010
0001
0000
2000
0000
3002
0000
,  // measure 48
0203
0000
0302
0000
0013
0000
0100
0010
,  // measure 49
0200
0000
0310
0100
0000
1000
0001
1000
,  // measure 50
0001
0000
0100
0000
,  // measure 51
0001
0100
0001
0100
0000
0010
0100
0000
,  // measure 52
0200
0000
0000
0000
0310
0000
1000
0010
,  // measure 53
1000
0000
0010
1000
0000
0001
0010
0001
,  // measure 54
0010
0000
0000
0000
0100
0010
0100
0010
,  // measure 55
0200
0000
0320
0000
0030
0001
0000
0010
,  // measure 56
0002
0000
0000
0000
1003
0000
0100
1000
,  // measure 57
0200
0000
1300
0100
0000
1000
0010
1000
,  // measure 58
0010
0000
0100
0000
,  // measure 59
0001
1000
0001
1000
0000
0100
1000
0000
,  // measure 60
2000
0000
0000
0000
3010
0000
0100
0010
,  // measure 61
0100
0000
0010
0100
0000
0001
0010
0001
,  // measure 62
0010
0000
0100
0100
,  // measure 63
0000
0000
0100
1000
0000
0001
0100
0001
,  // measure 64
0200
0300
1001
0000
,  // measure 65
0000
0000
1000
0001
0000
0101
0000
1010
,  // measure 66
0000
0000
1001
0000
,  // measure 67
0000
0000
0001
1000
0000
1010
0000
0101
,  // measure 68
0000
0000
0000
0000
1000
0010
0000
0100
,  // measure 69
0000
0010
0000
0100
0000
0010
0000
0100
,  // measure 70
0000
0010
0000
0100
0000
0010
0000
0100
,  // measure 71
0000
0010
0000
0100
0000
0010
0000
0100
,  // measure 72
0002
2003
3010
0000
,  // measure 73
0000
0000
1001
0000
0000
0001
0010
0000
,  // measure 74
0001
0000
0100
0010
0100
0000
0010
1000
,  // measure 75
0000
0100
1000
0000
0010
1000
0000
0100
,  // measure 76
1000
0000
0001
0100
0001
0000
0100
0010
,  // measure 77
0000
1000
0010
0000
0100
0010
0000
1000
,  // measure 78
0010
0000
1000
0010
1000
0000
0010
0100
,  // measure 79
0000
0001
0100
0000
0010
0100
0000
0001
,  // measure 80
0100
0000
0010
1000
0010
0000
1000
0100
,  // measure 81
0000
1000
0001
0000
1000
0100
0000
1000
,  // measure 82
0001
0000
1000
0010
1000
0000
0001
0100
,  // measure 83
0000
0010
1000
0000
0100
0010
0000
0001
,  // measure 84
0100
0000
0010
0100
0010
0000
1000
0001
,  // measure 85
0000
0010
0100
0000
0010
0001
0000
0100
,  // measure 86
0010
0000
1000
0100
1000
0000
0001
0010
,  // measure 87
0000
0001
0100
0000
0010
1000
0000
0100
,  // measure 88
0010
0000
0100
1000
0100
0000
1000
0001
,  // measure 89
2000
3002
2003
3200
,  // measure 90
0320
0000
0130
0000
1000
0010
0000
0100
,  // measure 91
0000
0010
0000
1000
0001
0000
0010
0001
,  // measure 92
0010
0000
0001
0000
0100
0010
0000
1000
,  // measure 93
0000
0100
0000
0010
0100
0000
1000
0010
,  // measure 94
1000
0000
0001
0000
0100
0010
0000
1000
,  // measure 95
0000
0100
0000
0010
0100
0000
0010
0001
,  // measure 96
0010
0000
0001
0000
0100
0010
0000
1000
,  // measure 97
0000
0001
0000
0100
0010
0000
1000
0100
,  // measure 98
2000
3001
0000
0000
;

//---------------dance-single - ----------------
#NOTES:
     dance-single:
     :
     Easy:
     4:
     0.303,0.548,0.072,0.201,0.000: // measure 1
0000
0000
0000
0000
,  // measure 2
0000
0000
0000
0000
,  // measure 3
0000
0000
0000
0000
,  // measure 4
0000
0000
0000
0000
,  // measure 5
0000
0000
0000
0000
,  // measure 6
0000
0000
0000
0000
,  // measure 7
0000
0000
0000
0000
,  // measure 8
0000
0000
0000
0000
,  // measure 9
1000
1000
1000
1000
,  // measure 10
0000
0000
0000
0000
,  // measure 11
0100
0100
0100
0100
,  // measure 12
0000
0000
0000
0000
,  // measure 13
0010
0010
0010
0010
,  // measure 14
0000
0000
0000
0000
,  // measure 15
0001
0001
0001
0002
,  // measure 16
0003
2000
3001
0000
,  // measure 17
0100
0000
0010
0000
,  // measure 18
0100
0100
0100
0000
,  // measure 19
0001
0000
1000
0000
,  // measure 20
0100
0100
0100
0000
,  // measure 21
0010
0000
0001
0000
,  // measure 22
0100
0100
0100
0000
,  // measure 23
0010
0000
1000
0000
,  // measure 24
0001
0001
0001
0000
,  // measure 25
1000
0000
0010
0000
,  // measure 26
0100
0100
0100
0000
,  // measure 27
0001
0000
0010
0000
,  // measure 28
0100
0100
0100
0000
,  // measure 29
0010
0000
0001
0000
,  // measure 30
0100
0000
0010
0000
,  // measure 31
2000
3200
0320
0230
,  // measure 32
0320
0032
0103
0010
,  // measure 33
0000
0000
0100
0000
,  // measure 34
0000
0010
1000
0010
,  // measure 35
0000
0000
1000
0000
,  // measure 36
0000
0001
0010
0001
,  // measure 37
0000
0000
0100
0000
,  // measure 38
0000
0010
0100
0010
,  // measure 39
0000
0000
1000
0000
,  // measure 40
0000
0001
1000
0001
,  // measure 41
0000
0000
0010
0000
,  // measure 42
0000
0001
0100
0001
,  // measure 43
0000
0000
1000
0000
,  // measure 44
0000
0001
0010
0001
,  // measure 45
0000
0000
0100
0000
,  // measure 46
0000
0010
0100
0010
,  // measure 47
0000
0000
2000
3002
,  // measure 48
0203
0302
0013
0100
,  // measure 49
0010
0001
0000
1000
,  // measure 50
1000
0000
0010
0000
,  // measure 51
0100
0000
0000
0010
,  // measure 52
2000
0000
3100
1000
,  // measure 53
0100
0010
0000
0001
,  // measure 54
0001
0000
1000
0010
,  // measure 55
2000
0000
3000
0001
,  // measure 56
0200
0000
0310
0100
,  // measure 57
0010
1000
0000
0001
,  // measure 58
0001
0000
0100
0000
,  // measure 59
0010
0000
0000
1000
,  // measure 60
0002
0000
1003
0100
,  // measure 61
0010
0100
0000
0010
,  // measure 62
0010
0000
0100
0100
,  // measure 63
0000
0010
0000
0001
,  // measure 64
2000
3000
1001
0000
,  // measure 65
0000
0000
1001
0000
0000
0001
0000
1000
,  // measure 66
0000
0000
1001
0000
,  // measure 67
0000
0000
1001
0000
0000
1000
0000
0001
,  // measure 68
0000
0000
1001
0000
,  // measure 69
0000
0000
1001
0000
0000
0001
0000
1000
,  // measure 70
0000
0000
1001
0000
,  // measure 71
0000
0000
1001
0000
0000
1000
0000
0000
,  // measure 72
0002
2003
3010
0000
,  // measure 73
0000
1001
0000
1000
,  // measure 74
0001
1000
0001
1000
,  // measure 75
0000
0001
0100
0010
,  // measure 76
0000
0100
0010
0100
,  // measure 77
0000
0010
1000
0001
,  // measure 78
0000
1000
0010
1000
,  // measure 79
0000
0010
0100
0001
,  // measure 80
0000
0010
0001
0010
,  // measure 81
0000
0001
1000
0010
,  // measure 82
0000
0100
0010
1000
,  // measure 83
0001
0010
0100
0010
,  // measure 84
0001
0000
1000
0010
,  // measure 85
0100
0010
1000
0001
,  // measure 86
0010
0000
0001
0100
,  // measure 87
0010
1000
0100
0010
,  // measure 88
0100
0000
1000
0001
,  // measure 89
2000
3020
0230
0302
,  // measure 90
0023
0031
0100
0000
,  // measure 91
0010
0000
1000
0000
,  // measure 92
0001
0100
0010
0000
,  // measure 93
1000
0000
0100
0000
,  // measure 94
0010
0100
1000
0000
,  // measure 95
0010
0000
0100
0000
,  // measure 96
0010
1000
0001
0000
,  // measure 97
0100
0000
0010
0000
,  // measure 98
2000
3001
0000
0000
;

//---------------dance-single - ----------------
#NOTES:
     dance-single:
     :
     Beginner:
     2:
     0.174,0.235,0.072,0.000,0.000:
0000
0000
0000
0000
,
0000
0000
0000
0000
,
0000
0000
0000
0000
,
0000
0000
0000
0000
,
0000
0000
0000
0000
,
0000
0000
0000
0000
,
0000
0000
0000
0000
,
0000
0000
0000
0000
,
1000
0000
1000
0000
,
0000
0000
0000
0000
,
0001
0000
0001
0000
,
0000
0000
0000
0000
,
0100
0000
0100
0000
,
0000
0000
0000
0000
,
0010
0000
0010
0000
,
0000
0000
0010
0000
,
0000
0000
0100
0000
,
0000
0000
0001
0000
,
0000
0000
1000
0000
,
0000
0000
0001
0000
,
0000
0000
0100
0000
,
0000
0000
0001
0000
,
0000
0000
0010
0000
,
0000
0000
0100
0000
,
0000
0000
0001
0000
,
0000
0000
1000
0000
,
0000
0000
0010
0000
,
0000
0000
0100
0000
,
0000
0000
0001
0000
,
0000
0000
1000
0000
,
0000
0000
0001
0001
,
0001
0001
0001
0000
,
0000
0000
1000
0000
,
0000
0000
0010
0000
,
0000
0000
0100
0000
,
0100
0000
0100
0000
,
0000
0000
0010
0000
,
0000
0000
1000
0000
,
0000
0000
0001
0000
,
0001
0000
0001
0000
,
0000
0000
0100
0000
,
0000
0000
0010
0000
,
0000
0000
1000
0000
,
1000
0000
1000
0000
,
0000
0000
0001
0000
,
0000
0000
0010
0000
,
0000
0000
1000
1000
,
1000
1000
1000
0000
,
0001
0001
0001
0000
,
0010
0000
0100
0000
,
0010
0000
0000
0100
,
0100
0000
1000
0000
,
0100
0100
0100
0000
,
1000
0000
0001
0000
,
1000
0000
0000
0001
,
0001
0000
1000
0000
,
0010
0010
0010
0000
,
0100
0000
0001
0000
,
1000
0000
0000
0100
,
0100
0000
0010
0000
,
0100
0100
0100
0000
,
0001
0000
0100
0100
,
0000
0010
0000
1000
,
1000
0000
1001
0000
,
0000
1001
0000
0000
,
0000
0000
1001
0000
,
0000
1001
0000
0000
,
0000
0000
1001
0000
,
0000
1001
0000
0000
,
0000
0000
1001
0000
,
0000
1001
0000
0000
,
0100
0100
0100
0000
,
0000
1001
0000
0000
,
0000
1000
1000
0000
,
0000
0010
0000
0000
,
0100
0100
0100
0000
,
0000
0001
0000
0000
,
1000
1000
1000
0000
,
0000
0010
0000
0000
,
0100
0100
0100
0000
,
0000
0001
0000
0000
,
0010
0010
0010
0000
,
0000
0100
0000
0000
,
0001
0001
0001
0000
,
0000
1000
0000
0000
,
0100
0100
0100
0000
,
0000
0010
0000
0000
,
0001
0001
0001
0000
,
0000
0100
0100
0100
,
0100
0100
0000
0000
,
0000
0010
0000
0000
,
0000
0100
0000
0000
,
0000
0001
0000
0000
,
0000
1000
0000
0000
,
0000
0100
0000
0000
,
0000
0010
0000
0000
,
0000
0001
0000
0000
,
1000
0001
0000
0000
;
