#VERSION:0.82;
#TITLE:Blaze it UP!;
#SUBTITLE:;
#ARTIST:DJ Shimamura;
#TITLETRANSLIT:;
#SUBTITLETRANSLIT:;
#ARTISTTRANSLIT:;
#GENRE:;
#ORIGIN:;
#CREDIT:;
#BANNER:[Punctuations] - Blaze it UP!.png;
#BACKGROUND:[Punctuations] - Blaze it UP!-bg.png;
#PREVIEWVID:;
#JACKET:[Punctuations] - Blaze it UP!-jacket.png;
#CDIMAGE:;
#DISCIMAGE:;
#LYRICSPATH:;
#CDTITLE:;
#MUSIC:[Punctuations] - Blaze it UP!.mp3;
#OFFSET:-0.562000;
#SAMPLESTART:112.996223;
#SAMPLELENGTH:9.599998;
#SELECTABLE:YES;
#BPMS:0.000=175.000;
#STOPS:;
#DELAYS:;
#WARPS:;
#TIMESIGNATURES:0.000=4=4;
#TICKCOUNTS:0.000=4;
#COMBOS:0.000=1;
#SPEEDS:0.000=1.000=0.000=0;
#SCROLLS:0.000=1.000;
#FAKES:;
#LABELS:0.000=Song Start;
#BGCHANGES:;
#KEYSOUNDS:;
#ATTACKS:
;

//---------------dance-single - ----------------
#NOTEDATA:;
#CHARTNAME:;
#STEPSTYPE:dance-single;
#DESCRIPTION:;
#CHARTSTYLE:;
#DIFFICULTY:Hard;
#METER:8;
#RADARVALUES:0.545642,0.591375,0.295603,0.163359,0.182807,432.000000,38.000000,21.000000,0.000000,0.000000,0.000000,0.000000,0.000000,0.545642,0.591375,0.295603,0.163359,0.182807,432.000000,38.000000,21.000000,0.000000,0.000000,0.000000,0.000000,0.000000;
#CREDIT:;
#NOTES:
0000
0000
0000
0000
,
0000
0000
0000
0000
,
0000
0000
0000
0000
,
0000
0000
0000
0000
,
1000
0000
0000
0000
0001
0000
0000
0100
0000
0000
0100
0000
0000
0000
0100
0000
,
0001
0000
0000
0000
1000
0000
0000
0010
0000
0000
0010
0000
0000
0000
0010
0000
,
0100
0000
0000
0000
0001
0000
0000
1000
0000
0000
1000
0000
0001
0000
0010
0000
,
0200
0000
0000
0300
,
1000
0000
1000
0000
0010
1000
0010
1000
,
0100
0000
0100
0000
0010
0001
0010
0001
,
1000
0000
1000
0000
0001
0100
0001
0100
,
0010
0000
0010
0000
0100
0001
0100
0001
,
1000
0000
1000
0000
0100
0010
0100
0010
,
0001
0000
0001
0000
1000
0010
1000
0010
,
0100
0000
0100
0000
0001
1000
0001
1000
,
0020
0000
0000
0000
,
0030
0000
0000
0000
,
0000
0000
0000
0000
0000
0000
1000
0100
,
0010
0000
0000
0000
0100
0000
0000
1000
0000
0000
0001
0000
0000
0000
0001
0000
,
1000
0000
0000
0000
0100
0000
0000
0010
0000
0010
0100
0000
0000
0000
1000
0000
,
0010
0000
0000
0000
0100
0000
0000
0100
0000
0001
0000
0000
0010
0000
0000
0000
,
0100
0000
0000
0000
0100
0000
0000
1000
0000
0001
1000
0000
0000
0000
0010
0000
,
0100
0000
0000
0000
0100
0000
0000
0010
0000
1000
0010
0000
0000
0000
0100
0000
,
0001
0000
0000
0000
0010
0000
0000
0100
0000
0100
0000
0000
0010
0000
0000
0000
,
0001
0000
0000
0000
1000
0000
0000
0010
0000
0000
1000
0000
0000
0000
0001
0000
,
0010
0000
0000
0000
0100
0000
0000
0010
0000
0000
0001
0000
1000
0000
0001
0000
,
0000
1000
0001
1000
0000
0001
1000
0010
,
2000
0000
3100
0000
0010
0001
1000
0001
,
0000
1000
0001
1000
0000
0001
1000
0100
,
1000
0000
0000
0010
0000
0000
0100
0000
0000
0001
0000
0000
1000
0000
0001
0000
,
0000
1000
0010
1000
,
0100
1000
0001
1000
0000
0001
0100
0010
,
0000
0100
0001
0010
0000
0001
0100
0010
,
1000
0000
0000
0010
0000
0000
0100
0000
0000
0000
0001
0000
1000
0000
0001
0000
,
0000
0001
1000
0001
0000
1000
0001
0100
,
0002
0000
0013
0000
0100
1000
0001
1000
,
0000
0001
1000
0001
0000
1000
0001
0010
,
0001
0000
0000
0100
0000
0000
0010
0000
0000
1000
0000
0000
0001
0000
0010
0000
,
0000
0001
0100
0001
,
0010
0001
1000
0001
0000
1000
0010
0100
,
0000
0010
1000
0100
0000
1000
0010
0100
,
0001
0000
0000
1000
0000
0000
0200
0000
0000
0000
0000
0000
0000
0000
0300
0000
,
0010
0000
0000
0000
0010
0000
0000
0000
0010
0000
0000
0100
0010
0000
0001
0000
,
1000
0000
0000
0000
1000
0000
0010
0000
1000
0000
0000
1000
0000
0000
0001
0000
,
0010
0000
0100
0000
0010
0000
0000
0000
0010
0000
0000
0100
0000
0000
1000
0000
,
0001
0000
0000
0000
1000
0000
0000
0010
0000
0000
0100
0000
0001
0000
1000
0000
,
0200
0310
0002
1003
,
0020
0130
0002
0013
,
0001
0010
0100
1000
0100
0010
0001
1000
,
0020
0000
0000
0030
,
0101
0000
0000
0000
1010
0000
0000
0000
0101
0000
0000
0001
0000
0000
1000
0000
,
0001
0000
1000
0000
1000
0000
0000
0000
0100
0000
0000
0010
0000
0000
0001
0000
,
1000
0000
0010
0000
0100
0000
0000
0000
0001
0000
0000
0010
0000
0000
0001
0000
,
1000
0000
0001
0000
0100
0000
0001
0000
1000
0000
0002
0003
0000
0000
2000
3000
,
1001
0000
0000
0000
1010
0000
0000
0000
1100
0000
0000
0100
0000
0000
0010
0000
,
0001
0000
0001
0000
0010
0000
0001
0000
1000
0000
0010
0000
0001
0000
0020
0030
,
1000
0001
1000
0001
1000
0001
0100
0000
,
0020
0000
0000
0030
,
0110
0000
0000
0000
0110
0000
0000
0100
0000
0000
0100
0000
0000
0000
0010
0000
,
1010
0000
0000
0000
1010
0000
0000
1000
0000
0001
1000
0000
0000
0000
0000
0000
,
1100
0000
0000
0000
1100
0000
0000
0100
0000
0000
0100
0000
0000
0000
0010
0000
,
0011
0000
0000
0000
0011
0000
0000
0000
1001
0000
0002
0003
0000
0000
2000
3000
,
1010
0000
0000
0000
1010
0000
0000
0010
0000
0000
0100
0000
0000
0000
0001
0000
,
0011
0000
0000
0000
0011
0000
0000
0000
0001
0000
0010
0000
0100
0000
2000
3000
,
0001
0000
0000
0000
1000
0000
0000
0010
0000
0000
0010
0000
0000
0000
0100
0000
,
0002
0000
0000
0003
,
1000
1001
0001
1001
,
1000
1001
0001
1001
,
0100
0110
0010
0110
,
0100
0110
0010
0110
,
1000
0101
0001
1100
,
1000
0101
0001
1100
,
0100
1001
0010
1001
,
0220
0000
0000
0330
,
1001
0000
0000
0000
1000
0000
0000
0010
0000
0000
0010
0000
0000
0000
0100
0000
,
0001
0000
0000
0000
0010
0000
0000
0100
0000
0100
1000
0000
0000
0000
1000
0000
,
0001
0000
0000
0000
0100
0000
0000
0010
0000
1000
0010
0000
0000
0000
1000
0000
,
0001
0000
0000
0000
0010
0000
0000
0100
0000
0000
1000
0000
0000
0000
0010
0000
,
1000
0000
0001
0001
0000
1000
0000
0001
,
1000
0000
1000
1000
0000
0001
0000
1000
,
0001
0000
0000
0010
0000
0000
0001
0000
1000
0000
0000
0010
0000
0000
0100
0000
,
0002
0000
0000
0000
0003
1000
0001
0010
,
0000
0001
1000
0010
0000
1000
0001
0010
,
0100
0000
0010
0000
0100
1000
0001
0100
,
0000
0001
1000
0100
0000
1000
0001
0100
,
0010
0000
0000
1000
0000
0000
0010
0000
0000
0100
0000
0000
0001
0000
1000
0000
,
0000
0001
0010
1000
,
0010
0100
0010
1000
0000
0010
1000
0100
,
0000
0010
0001
0100
0000
0010
1000
0001
,
0101
0000
0000
0000
1010
0000
0000
1001
0000
0000
0000
0000
0000
0000
0000
0000
;

//---------------dance-single - ----------------
#NOTEDATA:;
#CHARTNAME:;
#STEPSTYPE:dance-single;
#DESCRIPTION:;
#CHARTSTYLE:;
#DIFFICULTY:Medium;
#METER:7;
#RADARVALUES:0.428957,0.417441,0.186696,0.147801,0.015558,343.000000,24.000000,19.000000,0.000000,0.000000,0.000000,0.000000,0.000000,0.428957,0.417441,0.186696,0.147801,0.015558,343.000000,24.000000,19.000000,0.000000,0.000000,0.000000,0.000000,0.000000;
#CREDIT:;
#NOTES:
0000
0000
0000
0000
,
0000
0000
0000
0000
,
0000
0000
0000
0000
,
0000
0000
0000
0000
,
1000
0100
0010
0010
,
0001
0100
0010
0010
,
0100
0000
0001
0000
0010
0000
0010
0100
,
2000
0000
0000
3000
,
0001
0000
0100
0000
0001
0100
0001
0000
,
0100
0000
0010
0000
1000
0010
1000
0000
,
0001
0000
1000
0000
0001
1000
0001
0000
,
1000
0000
0100
0000
0010
0100
0010
0000
,
0001
0000
0010
0000
0100
1000
0100
0000
,
1000
0000
0010
0000
0100
0001
0100
0000
,
0010
0000
1000
0000
0001
0100
0010
0000
,
1000
0001
0200
0000
,
0310
0000
0000
0000
,
0000
0000
0000
0200
,
0301
1000
0100
0000
,
1000
0001
0100
0000
,
0001
1000
0100
0100
,
1000
0001
1000
0000
,
0010
1000
0010
0000
,
0100
0001
0100
0010
,
0100
0001
0100
0000
,
0001
1000
0100
1000
,
0010
1000
0100
1000
,
0010
0100
0001
0001
,
0100
0010
0100
0001
,
0100
0000
0010
0000
1000
0000
0001
1000
,
0000
0100
1000
0010
,
0100
0001
0100
0010
0000
0100
0001
0100
,
0000
0010
0100
0010
0000
1000
0010
1000
,
0001
0000
1000
0000
0100
0010
0001
0000
,
1000
0100
1000
0010
,
0100
0001
1000
1000
,
0100
1000
0010
0100
,
0001
0000
0010
0000
0100
0000
1000
0100
,
0000
1000
0010
0100
,
0001
1000
0001
0100
0000
0001
0100
0001
,
0000
0100
0010
0100
0000
0010
1000
0010
,
0100
0010
2000
0000
,
3001
0100
0001
0101
,
1000
0100
1000
1100
,
1000
0010
1000
1010
,
0010
0100
0010
0110
,
0200
0301
0200
0310
,
0020
1030
0020
0130
,
0010
0100
0001
1000
,
2002
0000
0000
3003
,
0001
0000
0000
0000
1000
0000
0000
0000
0001
0000
0000
1000
0000
0000
0001
0000
,
1000
0100
1000
0000
0100
1000
0001
0000
,
0001
0000
0100
0000
0010
0000
0000
0000
0100
0000
0000
0010
0000
0000
1000
0000
,
0001
0100
0010
0000
0100
0001
0000
0001
,
1000
0000
0000
0000
0001
0000
0000
0000
0100
0000
0000
0001
0000
0000
0100
0000
,
0010
1000
0001
0000
0001
1000
0010
0000
,
1000
0001
1000
0001
1000
0001
1000
0000
,
0020
0000
0000
0030
,
0100
0001
0100
0101
,
0100
0000
0010
0000
1000
0010
0000
0000
,
0100
0001
1000
1001
,
1000
0000
0100
0000
0010
0100
0000
0100
,
0010
0001
0010
0110
,
0100
0000
1000
0000
0001
1000
0010
1000
,
0001
0001
0010
0010
,
0002
0000
0000
0003
,
0000
1010
0000
0101
,
0000
0011
0000
1100
,
0000
1001
0000
0110
,
0000
1001
0000
0110
,
0010
0110
0100
0101
,
0001
1001
1000
1100
,
0100
0110
0010
0011
,
2002
0000
0000
3003
,
0200
0000
0000
0300
,
0020
0000
0000
0030
,
2000
0000
0000
3000
,
0002
0000
0000
0003
,
0100
0000
0001
1000
0000
0001
0000
1000
,
0001
0000
0001
1000
0000
0001
0000
1000
,
0001
0000
0100
0000
0010
0000
1000
0100
,
0020
0000
0000
0000
0000
0031
0010
0001
,
0000
0010
0100
0010
0000
0100
1000
0100
,
0010
0000
0001
0000
0100
0000
0010
1000
,
0000
0001
1000
0001
0000
1000
0001
1000
,
0010
0000
1000
0000
0100
0000
0010
0001
,
0000
0010
0001
0100
,
0010
1000
0001
1000
0000
0001
0010
0001
,
0000
0010
0100
0010
0000
0100
1000
0100
,
0010
0000
0000
0000
0001
0000
0000
1001
0000
0000
0000
0000
0000
0000
0000
0000
;

//---------------dance-single - ----------------
#NOTEDATA:;
#CHARTNAME:;
#STEPSTYPE:dance-single;
#DESCRIPTION:;
#CHARTSTYLE:;
#DIFFICULTY:Easy;
#METER:4;
#RADARVALUES:0.265598,0.279267,0.023337,0.077790,0.000000,226.000000,3.000000,10.000000,0.000000,0.000000,0.000000,0.000000,0.000000,0.265598,0.279267,0.023337,0.077790,0.000000,226.000000,3.000000,10.000000,0.000000,0.000000,0.000000,0.000000,0.000000;
#CREDIT:;
#NOTES:
0000
0000
0000
0000
,
0000
0000
0000
0000
,
0000
0000
0000
0000
,
0000
0000
0000
0000
,
1000
0000
0001
0000
,
0100
0000
0001
0000
,
0010
0000
0100
1000
,
0010
0000
0000
0000
,
1000
0001
1000
0001
,
0100
0010
0100
0010
,
1000
0001
1000
0001
,
0010
0100
0010
0100
,
1000
0100
0010
0010
,
0001
0100
0010
0010
,
1000
0100
0010
0010
,
0100
1000
0010
0000
,
0200
0000
0000
0000
,
0000
0000
0000
0320
,
1030
1000
1000
0000
,
0001
0001
0001
0000
,
0100
0100
0100
0000
,
0010
0010
0010
0000
,
1000
1000
0001
0000
,
1000
1000
0010
1000
,
0100
0100
0010
0000
,
0010
0010
0001
1000
,
0001
0100
0000
0001
,
0000
1000
0000
0100
,
0000
1000
0000
0010
,
0000
0100
0000
0001
,
0000
1000
0100
0001
,
0100
0010
0000
0100
,
0000
1000
0000
0010
,
0100
0100
0100
0000
,
0010
1000
0000
0001
,
0010
0001
0000
1000
,
0100
1000
0000
0100
,
1000
0010
0100
0001
,
0000
1000
0010
0001
,
0010
0100
0000
0010
,
0000
1000
0000
0001
,
1000
1000
1000
0000
,
0001
0000
1000
0000
,
0010
0000
0100
0000
,
0010
0000
1000
0000
,
0001
0000
0010
0000
,
0001
1000
0001
1000
,
0010
0100
0010
0100
,
0001
0100
0010
1000
,
2002
0000
0000
3003
,
0001
0100
0001
0000
,
1000
0100
1000
0000
,
0100
0010
0100
0000
,
0010
0001
0010
0000
,
0001
0100
0001
0000
,
0100
0010
0100
0000
,
0010
0010
0010
0010
,
2002
0000
0000
3003
,
1000
0100
0100
0000
,
1000
0001
0010
0000
,
0001
0010
0010
0001
,
0100
0100
0010
0000
,
0100
0001
0001
0000
,
0100
0010
1000
0001
,
1000
0001
0100
0000
,
0001
0000
0000
0000
,
0000
1000
0000
0001
,
0000
0100
0000
0001
,
0000
1000
0000
0010
,
0000
1000
0000
0001
,
0000
0100
0000
0010
,
0000
1000
0000
0100
,
0000
1000
0000
0001
,
0200
0000
0000
0000
,
0310
0000
0000
0000
,
0000
0000
0000
0000
,
0100
0000
0000
0000
,
0001
0000
0000
0000
,
1000
0000
0000
0000
,
0001
0000
0000
0000
,
1000
0000
0001
0000
,
0020
0000
0000
0130
,
1000
0100
0000
1000
,
0010
0100
0001
0001
,
0000
1000
0000
0001
,
0010
1000
0010
0100
,
0000
0010
0100
1000
,
0001
1000
0100
1000
,
0000
0010
0000
0100
,
2002
0000
0000
3003
;

//---------------dance-single - ----------------
#NOTEDATA:;
#CHARTNAME:;
#STEPSTYPE:dance-single;
#DESCRIPTION:;
#CHARTSTYLE:;
#DIFFICULTY:Beginner;
#METER:2;
#RADARVALUES:0.148913,0.207700,0.023337,0.000000,0.000000,131.000000,3.000000,0.000000,0.000000,0.000000,0.000000,0.000000,0.000000,0.148913,0.207700,0.023337,0.000000,0.000000,131.000000,3.000000,0.000000,0.000000,0.000000,0.000000,0.000000,0.000000;
#CREDIT:;
#NOTES:
// measure 0
0000
0000
0000
0000
,  // measure 1
0000
0000
0000
0000
,  // measure 2
0000
0000
0000
0000
,  // measure 3
0000
0000
0000
0000
,  // measure 4
0000
0000
0000
0000
,  // measure 5
0000
0000
0000
0000
,  // measure 6
0000
0000
0000
0000
,  // measure 7
1001
0000
0000
0000
,  // measure 8
1000
0000
0000
0000
,  // measure 9
1000
0000
0000
0000
,  // measure 10
1000
0000
0000
0000
,  // measure 11
1000
0000
0000
0000
,  // measure 12
0010
0000
0000
0000
,  // measure 13
0010
0000
0000
0000
,  // measure 14
0010
0000
0000
0000
,  // measure 15
0000
0100
0100
0000
,  // measure 16
1001
0000
0000
0000
,  // measure 17
0000
0000
0000
0001
,  // measure 18
1000
0000
0000
0000
,  // measure 19
0100
0000
0000
0000
,  // measure 20
1000
0000
0000
0000
,  // measure 21
0010
0000
0000
0000
,  // measure 22
0100
0000
0000
0000
,  // measure 23
0001
0000
0000
0000
,  // measure 24
0100
0000
0000
0000
,  // measure 25
0010
0000
0000
1000
,  // measure 26
0000
0001
0000
1000
,  // measure 27
1000
0000
0000
0000
,  // measure 28
0000
0001
0000
1000
,  // measure 29
1000
0000
0000
0010
,  // measure 30
0000
0100
0000
0000
,  // measure 31
0010
0000
0000
1000
,  // measure 32
0000
1000
0000
1000
,  // measure 33
0001
0000
0000
0100
,  // measure 34
0000
0010
0000
0100
,  // measure 35
0100
0000
0010
0000
,  // measure 36
0000
1000
0000
1000
,  // measure 37
0001
0000
1000
0100
,  // measure 38
0000
1000
0000
0000
,  // measure 39
0010
0000
0000
0100
,  // measure 40
0000
0100
0000
0100
,  // measure 41
0100
0000
0000
0000
,  // measure 42
0010
0000
0000
0000
,  // measure 43
1000
0000
0000
0000
,  // measure 44
0001
0000
0000
0000
,  // measure 45
1000
0000
0000
0000
,  // measure 46
0100
0000
0100
0000
,  // measure 47
0010
0000
0010
0000
,  // measure 48
0001
0000
1000
0000
,  // measure 49
1001
0000
0000
0000
,  // measure 50
0001
0001
0001
0000
,  // measure 51
1000
1000
1000
0000
,  // measure 52
0010
0010
0010
0000
,  // measure 53
0100
0100
0100
0000
,  // measure 54
0001
1000
0001
0000
,  // measure 55
0010
0100
0010
0000
,  // measure 56
1000
1000
1000
1000
,  // measure 57
0001
0000
0000
0000
,  // measure 58
1000
0000
0000
0000
,  // measure 59
0010
0000
0000
0100
,  // measure 60
0100
0000
0000
0000
,  // measure 61
0001
0000
0000
0000
,  // measure 62
1000
0000
0000
0000
,  // measure 63
0010
0000
0000
0100
,  // measure 64
0010
0000
0000
0000
,  // measure 65
1000
0000
0000
0000
,  // measure 66
0000
0001
0000
0001
,  // measure 67
0000
0001
0000
0001
,  // measure 68
0000
0001
0000
0001
,  // measure 69
0000
0001
0000
0001
,  // measure 70
0000
1000
0000
1000
,  // measure 71
0000
1000
0000
1000
,  // measure 72
0000
0010
0000
0010
,  // measure 73
0100
0000
0000
0000
,  // measure 74
0010
0000
0000
0000
,  // measure 75
0000
0000
0000
0000
,  // measure 76
0000
0000
0000
0000
,  // measure 77
0000
0000
0000
0000
,  // measure 78
1000
0000
0000
0000
,  // measure 79
0001
0000
0000
0000
,  // measure 80
0100
0000
0010
0000
,  // measure 81
1000
0000
0000
0001
,  // measure 82
0000
1000
0000
0001
,  // measure 83
0010
0000
0001
0000
,  // measure 84
0000
1000
0000
1000
,  // measure 85
0010
0000
0000
0100
,  // measure 86
0000
0010
0000
0100
,  // measure 87
0001
0000
0000
1000
,  // measure 88
0000
0010
0000
0100
,  // measure 89
0010
0000
0000
0000
;
