#TITLE:BUNNY! BUNNY!! BUNNY!!!;
#SUBTITLE:;
#ARTIST:P*Light, mow*2;
#TITLETRANSLIT:;
#SUBTITLETRANSLIT:;
#ARTISTTRANSLIT:;
#CREDIT:Lisek;
#BANNER:[Punctuations] - BUNNY! BUNNY!! BUNNY!!!.png;
#BACKGROUND:[Punctuations] - BUNNY! BUNNY!! BUNNY!!!-bg.png;
#JACKET:[Punctuations] - BUNNY! BUNNY!! BUNNY!!!-jacket.png;
#LYRICSPATH:;
#CDTITLE:cdtitle.png;
#MUSIC:[Punctuations] - BUNNY! BUNNY!! BUNNY!!!.ogg;
#OFFSET:0.000;
#SAMPLESTART:38.366;
#SAMPLELENGTH:11.160;
#SELECTABLE:YES;
#BPMS:0.000=175.000;
#STOPS:;
#BGCHANGES:;

//---------------dance-single - Lisek----------------
#NOTES:
     dance-single:
     Lisek:
     Hard:
     8:
     0.581,0.619,0.865,0.058,0.264: // measure 1
0000
0000
0000
0000
,  // measure 2
0000
0000
0000
0000
,  // measure 3
0000
0000
0000
0000
,  // measure 4
0000
0000
0000
0000
,  // measure 5
1000
0000
0100
0000
0010
0001
0100
0000
,  // measure 6
0010
0100
0001
0100
,  // measure 7
0010
0000
1000
0000
0100
0010
0100
1000
,  // measure 8
0000
0010
0000
0100
0020
0000
0030
0000
,  // measure 9
1000
0000
0000
0000
1000
0000
0000
0000
1000
0000
0100
0010
0000
0000
0000
0000
,  // measure 10
0001
0000
0000
0000
0001
0000
0000
0000
0010
0100
0000
0000
0010
0100
0000
0000
,  // measure 11
1000
0001
0100
0010
1000
0100
0010
0001
,  // measure 12
2000
0000
0000
0000
0000
0000
0000
3000
,  // measure 13
0001
0100
1000
0100
,  // measure 14
0001
0000
0000
0010
0000
0100
1000
0000
0000
0001
0000
0000
,  // measure 15
1000
0000
0000
0100
0000
0001
0100
0000
0000
1000
0000
0000
,  // measure 16
0001
0000
0000
1000
0000
0010
0100
0000
0000
0001
0000
0000
,  // measure 17
1000
0010
0001
0010
,  // measure 18
1000
0000
0000
0100
0000
0010
0001
0000
0000
1000
0000
0000
,  // measure 19
0001
0000
0000
0010
0000
1000
0010
0000
0000
0001
0000
0000
,  // measure 20
1000
0000
0000
0010
0000
0100
0001
0000
0000
1000
0000
0000
,  // measure 21
0010
0000
0000
0010
0000
0000
1000
0000
0100
0010
0000
0000
,  // measure 22
0001
0101
0010
1010
,  // measure 23
0100
0000
0000
0100
0000
0001
0010
0000
0100
1000
0000
0000
,  // measure 24
0001
0011
0100
1100
,  // measure 25
0001
0000
0000
0001
0000
0000
0100
0000
0010
1000
0000
0000
,  // measure 26
0001
0101
1000
1010
,  // measure 27
1000
0000
0000
1000
0000
0010
0100
0000
0001
1000
0000
0000
,  // measure 28
0001
0010
0100
1000
,  // measure 29
1001
0000
0000
1001
0000
0000
1001
0000
0000
0001
0000
1000
,  // measure 30
0100
0000
0010
0001
0000
0001
0100
0000
0000
0010
0000
0000
,  // measure 31
1010
0000
0000
1010
0000
0000
1010
0000
0000
0010
0000
0100
,  // measure 32
0001
0000
0001
0010
0000
0010
0100
0000
0000
1000
0000
0000
,  // measure 33
1001
0000
0000
1001
0000
0000
1001
0000
0000
1000
0000
0010
,  // measure 34
0100
0000
0100
0010
0000
0010
1000
0000
0000
0001
0000
0000
,  // measure 35
0101
1010
1100
0011
,  // measure 36
1001
0110
1001
0000
,  // measure 37
1000
0100
0001
0100
,  // measure 38
1000
0000
0000
0010
0000
0100
0001
0000
0000
1000
0000
0000
,  // measure 39
0001
0000
0000
0010
0000
1000
0010
0000
0000
0001
0000
0000
,  // measure 40
0100
0000
0000
0010
0000
1000
0001
0000
0000
1000
0000
0000
,  // measure 41
0001
0100
1000
0100
,  // measure 42
0001
0000
0000
1000
0000
0010
0100
0000
0000
0001
0000
0000
,  // measure 43
1000
0000
0000
0010
0000
0100
0010
1000
0100
0010
0001
1000
,  // measure 44
0001
0000
0000
0100
0000
0010
1000
0000
0001
1000
0000
0000
,  // measure 45
1010
0110
0101
0000
,  // measure 46
0101
0110
1010
0000
,  // measure 47
1100
0110
0101
0000
,  // measure 48
0101
0110
1100
0000
,  // measure 49
1001
0101
0011
0000
,  // measure 50
0011
0101
1001
0000
,  // measure 51
0011
1100
1010
0101
,  // measure 52
0110
1001
0110
0000
,  // measure 53
0101
0110
1010
1000
,  // measure 54
0100
0010
0001
0000
,  // measure 55
0011
0110
1100
0100
,  // measure 56
0010
0001
1000
0000
,  // measure 57
1010
0110
0101
0001
,  // measure 58
1000
0010
0100
0000
,  // measure 59
0101
0000
1010
0000
,  // measure 60
2002
0000
3003
0000
,  // measure 61
0101
0000
0110
0000
,  // measure 62
1010
1100
0110
0011
,  // measure 63
0001
0000
0001
0010
0000
0010
0100
0000
0100
1000
0000
1000
,  // measure 64
0010
0000
0010
0100
0000
0100
0001
0000
0000
1000
0000
0000
,  // measure 65
0001
0000
0001
0010
0000
0010
0001
0000
0001
1000
0000
1000
,  // measure 66
0010
0100
0010
0100
0000
0100
0001
0000
0000
1000
0000
0000
,  // measure 67
0010
0000
0010
0100
0000
0100
0001
0000
0001
1000
0000
1000
,  // measure 68
0010
0100
0010
0100
0000
0100
0010
0000
0000
1000
0000
0000
,  // measure 69
1010
0110
0101
0001
,  // measure 70
0101
0110
1010
1000
,  // measure 71
1100
0110
0011
0001
,  // measure 72
0011
0110
1100
1000
,  // measure 73
1010
0110
0101
0001
,  // measure 74
0101
0110
1010
1000
,  // measure 75
1010
0101
0011
1100
,  // measure 76
1001
0110
2002
3003
;

//---------------dance-single - Lisek----------------
#NOTES:
     dance-single:
     Lisek:
     Medium:
     6:
     0.456,0.580,0.798,0.029,0.000:
0000
0000
0000
0000
,
0000
0000
0000
0000
,
0000
0000
0000
0000
,
0000
0000
0000
0000
,
1000
0100
0010
0000
,
0001
0000
0100
0000
,
0010
0100
0001
1000
,
0001
0000
1000
0000
,
0010
1000
0100
0000
,
0100
1000
0010
0000
,
0100
0001
1000
0010
,
0200
0000
0000
0000
,
0301
0100
1000
0100
,
0001
1000
0100
0010
,
0001
0010
1000
0010
,
0001
1000
0020
0030
,
1000
0100
0001
0100
,
1000
0100
0010
0001
,
1000
0010
0001
0010
,
1000
0010
0200
0310
,
1000
0010
1000
0001
,
1000
0100
0000
0100
,
0010
0001
0100
0001
,
1000
0010
0000
0010
,
1000
0100
1000
0001
,
1000
0100
0000
0100
,
1000
0010
0100
0001
,
0010
0010
0010
0000
,
0101
0101
0101
0100
,
0001
1000
0010
0000
,
1010
1010
1010
1000
,
0100
0010
0001
0000
,
0011
0011
0011
0001
,
0100
0010
1000
0000
,
1010
1010
1010
1001
,
0110
0110
1001
0000
,
0001
0100
0010
1000
,
0100
0010
0001
0001
,
1000
0010
0100
0010
,
1000
0001
0100
0100
,
0010
1000
0100
0010
,
0100
1000
0001
0001
,
0100
0010
1000
0100
,
1000
0001
0100
0100
,
0101
0101
0101
0000
,
1010
1010
1010
0000
,
1100
1100
1100
0000
,
0011
0011
0011
0000
,
0110
0110
0110
0000
,
1001
1001
1001
0000
,
0101
0101
0101
1001
,
0110
0110
1001
0000
,
1100
1100
1100
0100
,
0010
0001
0100
0000
,
0101
0101
0101
0001
,
1000
0010
0100
0000
,
0110
0110
0110
0010
,
1000
0001
0100
0000
,
0101
0101
0101
1001
,
0110
0110
1001
0000
,
1000
0000
0001
0000
,
0100
0010
0100
0110
,
0100
0001
1000
0100
,
0010
0001
0010
0000
,
0100
1000
0001
0100
,
0010
0100
0001
0000
,
1000
0100
0010
0001
,
0100
0010
1000
0000
,
0101
0101
0101
0000
,
1010
1010
1010
0000
,
1100
1100
1100
0000
,
0011
0011
0011
0000
,
0110
0110
0110
0000
,
1001
1001
1001
0000
,
1010
1010
1010
1001
,
0110
0110
1001
0000
;

//---------------dance-single - Lisek----------------
#NOTES:
     dance-single:
     Lisek:
     Easy:
     3:
     0.200,0.288,0.029,0.154,0.000:
0000
0000
0000
0000
,
0000
0000
0000
0000
,
0000
0000
0000
0000
,
0000
0000
0000
0000
,
1000
0000
0010
0000
,
0000
0000
0000
0000
,
0100
0000
0001
0000
,
0000
0000
0000
0000
,
1000
0000
0001
0000
,
1000
0000
0001
0000
,
0100
0000
0010
0000
,
0000
0000
0000
0000
,
2000
0000
0000
3000
,
0200
0000
0000
0300
,
0020
0000
0000
0030
,
0002
0000
0000
0003
,
2000
0000
0000
3000
,
0020
0000
0000
0030
,
0200
0000
0000
0300
,
0002
0000
0000
0003
,
1000
0000
0010
0000
,
0000
0000
0000
0000
,
0100
0000
0001
0000
,
0000
0000
0000
0000
,
1000
0000
0100
0000
,
0000
0000
0000
0000
,
0010
0000
0001
0000
,
1000
0000
0001
0000
,
1000
0000
1000
0000
,
0001
0000
0001
0000
,
0100
0000
0100
0000
,
0010
0000
0010
0000
,
1000
0000
1000
0000
,
0100
0000
0100
0000
,
0010
0000
0001
0000
,
1000
0001
1000
0000
,
0002
0000
0000
0003
,
0200
0000
0000
0300
,
0020
0000
0000
0030
,
2000
0000
0000
3000
,
0002
0000
0000
0003
,
0020
0000
0000
0030
,
0200
0000
0000
0300
,
2000
0000
0000
3000
,
0001
0000
0001
0000
,
1000
0000
1000
0000
,
0010
0000
0010
0000
,
0100
0000
0100
0000
,
0001
0000
0001
0000
,
0010
0000
0010
0000
,
0001
0000
1000
0000
,
0001
1000
0001
0000
,
1000
0000
1000
0000
,
0100
0000
0010
0000
,
0001
0000
0001
0000
,
0100
0000
0010
0000
,
1000
0000
1000
0000
,
0001
0000
0100
0000
,
0010
0100
0010
0100
,
0010
0100
0010
0000
,
1000
0000
0001
0000
,
1000
0001
1000
0000
,
0001
0000
0010
0000
,
0100
0000
1000
0000
,
0010
0000
0100
0000
,
0001
0000
1000
0000
,
0001
0000
0010
0000
,
0100
0000
1000
0000
,
0001
1000
0001
0000
,
1000
0001
1000
0000
,
0001
1000
0001
0000
,
1000
0001
1000
0000
,
0001
1000
0001
0000
,
1000
0001
1000
0000
,
1001
0000
1001
0000
,
1001
0000
0000
0000
;

//---------------dance-single - Lisek----------------
#NOTES:
     dance-single:
     Lisek:
     Beginner:
     1:
     0.092,0.180,0.000,0.067,0.000:
0000
0000
0000
0000
,
0000
0000
0000
0000
,
0000
0000
0000
0000
,
0000
0000
0000
0000
,
1000
0000
0000
0000
,
0000
0000
0000
0000
,
0001
0000
0000
0000
,
0000
0000
0000
0000
,
0100
0000
0000
0000
,
0010
0000
0000
0000
,
0200
0000
0000
0000
,
0300
0000
0000
0000
,
0001
0000
0000
0000
,
0000
0000
0000
0000
,
1000
0000
0000
0000
,
0000
0000
0000
0000
,
0010
0000
0000
0000
,
0000
0000
0000
0000
,
0100
0000
0000
0000
,
0000
0000
0000
0000
,
0001
0000
0000
0000
,
1000
0000
0000
0000
,
0001
0000
0000
0000
,
1000
0000
0000
0000
,
0010
0000
0000
0000
,
0100
0000
0000
0000
,
0010
0000
0000
0000
,
0100
0000
0000
0000
,
0001
0000
0001
0000
,
0000
0000
0000
0000
,
1000
0000
1000
0000
,
0000
0000
0000
0000
,
0010
0000
0010
0000
,
0000
0000
0000
0000
,
0100
0000
0100
0000
,
0100
0000
0000
0000
,
0001
0000
0000
0000
,
0000
0000
0000
0000
,
0010
0000
0000
0000
,
0000
0000
0000
0000
,
0100
0000
0000
0000
,
0000
0000
0000
0000
,
1000
0000
0000
0000
,
0000
0000
0000
0000
,
0002
0000
0003
0000
,
2000
0000
3000
0000
,
0002
0000
0003
0000
,
2000
0000
3000
0000
,
0002
0000
0003
0000
,
2000
0000
3000
0000
,
0000
0000
0000
0000
,
0000
0000
0000
0000
,
0001
0000
0001
0000
,
0000
0000
0000
0000
,
1000
0000
1000
0000
,
0000
0000
0000
0000
,
0010
0000
0010
0000
,
0000
0000
0000
0000
,
0100
0000
0100
0000
,
0100
0000
0000
0000
,
0000
0000
0000
0000
,
0000
0000
0000
0000
,
0001
0000
0000
0000
,
1000
0000
0000
0000
,
0001
0000
0000
0000
,
1000
0000
0000
0000
,
0010
0000
0000
0000
,
0100
0000
0000
0000
,
0010
0000
0010
0000
,
0000
0000
0000
0000
,
0100
0000
0100
0000
,
0000
0000
0000
0000
,
0001
0000
0001
0000
,
0000
0000
0000
0000
,
1000
0000
1000
0000
,
1000
0000
0000
0000
;

//---------------dance-single - ----------------
#NOTES:
     dance-single:
     Lisek:
     Challenge:
     9:
     0.684,0.728,0.596,0.058,0.658: // measure 1
0000
0000
0000
0000
,  // measure 2
0000
0000
0000
0000
,  // measure 3
0001
0000
1000
0000
0010
0100
0001
0010
,  // measure 4
0000
0000
0100
0000
0000
0000
1000
0000
0010
0100
0001
0010
0100
0000
0000
0000
,  // measure 5
1000
0000
0010
0000
1000
0100
0001
0000
,  // measure 6
0100
1000
0001
0100
,  // measure 7
0010
0000
0100
0000
0001
0010
0001
0100
,  // measure 8
0000
0000
0010
0000
0000
0000
0100
0000
0001
0100
0010
1000
0100
0000
0000
0000
,  // measure 9
1000
0000
0100
0000
1000
0100
0000
0010
,  // measure 10
0001
0000
0100
0000
0001
0100
0100
0010
,  // measure 11
1000
0100
0010
0001
1000
0010
0100
0001
1000
0100
0010
0001
1000
0000
0000
0000
,  // measure 12
2002
0000
0000
0000
0000
0000
0000
0003
,  // measure 13
3001
0100
1000
0100
,  // measure 14
0001
0000
0000
0010
0000
1000
0010
0000
0000
0001
0000
0000
,  // measure 15
1000
0000
0000
0100
0000
0001
0100
0000
0000
1000
0000
0000
,  // measure 16
0100
0000
0000
0001
0000
1000
0010
0000
0000
0001
0000
0000
,  // measure 17
1000
0010
0001
0010
,  // measure 18
1000
0000
0000
0100
0000
0001
0100
0000
0000
1000
0000
0000
,  // measure 19
0001
0000
0000
0100
0000
1000
0100
0000
0000
0001
0000
0000
,  // measure 20
0010
0000
0000
1000
0000
0001
0100
0000
0000
1000
0000
0000
,  // measure 21
1001
0000
0000
0101
0000
0000
1000
0000
0010
1000
0000
0000
,  // measure 22
0001
0101
1000
1010
,  // measure 23
1000
0000
0000
0010
0000
1000
0010
0000
0100
0001
0000
0000
,  // measure 24
0010
0011
0100
1100
,  // measure 25
1000
0000
0000
0010
0000
0000
0100
0000
0001
0010
0000
0000
,  // measure 26
0001
0101
1000
1010
,  // measure 27
1000
0000
0000
0001
0000
0100
0010
0000
1000
0010
0000
0000
,  // measure 28
1100
0110
0011
1001
,  // measure 29
0101
0000
0000
1010
0000
0000
0110
0000
0000
0100
0000
0001
,  // measure 30
0100
0000
0010
1000
0000
0100
0010
0000
0001
1000
0000
1000
,  // measure 31
0001
0000
0000
0101
0000
0000
1010
0000
0000
0010
0000
0100
,  // measure 32
0001
0000
0010
0100
0000
1000
0001
0100
0010
1000
0000
0001
,  // measure 33
1000
0000
0000
1010
0000
0000
0101
0000
0000
0001
0000
1000
,  // measure 34
0010
0000
0100
0001
0000
0010
0100
0000
1000
0010
0000
0010
,  // measure 35
1000
0101
1100
0011
,  // measure 36
1001
0000
0000
0110
0000
0000
1001
0000
0001
1000
0000
1000
,  // measure 37
0001
0100
1000
0010
,  // measure 38
0001
0000
0000
1000
0000
0001
1000
0000
0000
0001
0000
0000
,  // measure 39
1000
0000
0000
0100
0000
0001
0100
0000
0000
1000
0000
0000
,  // measure 40
0001
0000
0000
0100
0000
1000
0100
0000
0000
0001
0000
0000
,  // measure 41
1000
0010
0001
0100
,  // measure 42
1000
0000
0000
0001
0000
1000
0001
0000
0000
1000
0000
0001
,  // measure 43
0100
0000
0000
0010
0000
0000
0100
0010
1000
0001
0100
0010
,  // measure 44
1000
0000
0000
0001
0000
0100
0001
0000
1000
0010
0000
0000
,  // measure 45
1010
0101
0011
0000
,  // measure 46
0001
0100
1000
0100
0000
0100
0010
0000
0000
0000
0000
0000
,  // measure 47
0101
1010
0110
0000
,  // measure 48
1000
0100
0010
0100
0000
0010
0001
0000
0000
0000
0000
0000
,  // measure 49
1010
0110
0101
0000
,  // measure 50
0001
0010
1000
0010
0000
0100
1000
0000
0000
0000
0000
0000
,  // measure 51
0101
1010
1100
0011
,  // measure 52
1001
0110
1001
0000
,  // measure 53
1000
0000
0010
0100
0000
0001
0100
0000
0010
0000
0000
0000
,  // measure 54
1000
0000
0100
0010
0000
0001
0100
0000
0010
0000
0000
0000
,  // measure 55
0100
0000
0001
0100
0000
0010
1000
0000
0100
0000
0000
0000
,  // measure 56
0010
0000
0001
0100
0000
0010
1000
0000
0001
0000
0000
0000
,  // measure 57
1000
0000
0001
0100
0000
0010
1000
0000
0001
0010
0000
0100
,  // measure 58
1000
0000
0001
0100
0000
0001
0010
0000
0100
1000
0000
0010
,  // measure 59
1000
0001
0100
0010
1000
0100
0010
0001
1000
0010
0100
0001
,  // measure 60
2000
3002
0103
0000
,  // measure 61
0101
0001
1001
1000
,  // measure 62
1010
0110
0101
1001
,  // measure 63
1000
0000
0001
0100
0000
0010
1000
0000
0100
0010
0000
0001
,  // measure 64
1000
0000
0010
0100
0000
0001
0010
0000
0000
0011
0000
0001
,  // measure 65
1000
0000
0010
0100
0000
0001
0010
0000
0100
1000
0000
0001
,  // measure 66
0100
0010
1000
0100
0000
0010
0001
0000
0000
1100
0000
0100
,  // measure 67
1000
0000
0010
0100
0000
0001
0010
0000
0001
0100
0000
0010
,  // measure 68
1000
0100
0010
0001
0000
1000
0001
0000
0000
1001
0000
0000
,  // measure 69
1010
0000
0000
0101
0000
0000
1100
0000
0010
0001
0000
0001
,  // measure 70
0100
0000
0100
0010
0000
0010
1000
0000
1000
0100
0000
0000
,  // measure 71
0110
0000
0000
0011
0000
0000
0101
0000
0010
1000
0000
1000
,  // measure 72
0100
0000
0100
0010
0000
0010
0001
0100
0001
1000
0000
0000
,  // measure 73
1010
0000
0000
0110
0000
0000
0101
0000
0010
1000
0100
0010
,  // measure 74
0001
0000
1000
0100
0000
1000
0010
0000
0100
0001
1000
0010
,  // measure 75
0100
0001
0010
0100
1000
0100
0010
0001
0100
0010
1000
0001
,  // measure 76
0010
0110
2002
3003
;
