#TITLE:Abyss of Time;
#SUBTITLE:(Wayang Kulit);
#ARTIST:Akitaka Tohyama;
#TITLETRANSLIT:;
#SUBTITLETRANSLIT:;
#ARTISTTRANSLIT:Akitaka Tohyama;
#GENRE:;
#CREDIT:;
#BANNER:[Punctuations] - Abyss of Time (Wayang Kulit)-bn.png;
#BACKGROUND:[Punctuations] - Abyss of Time (Wayang Kulit)-bg.png;
#LYRICSPATH:;
#CDTITLE:;
#MUSIC:[Punctuations] - Abyss of Time (Wayang Kulit).mp3;
#OFFSET:-0.470000;
#SAMPLESTART:53.430000;
#SAMPLELENGTH:13.275000;
#SELECTABLE:YES;
#BPMS:0.000000=145.000000
;
#STOPS:
;
#BGCHANGES:;
#KEYSOUNDS:;
#ATTACKS:;

//---------------dance-single - ----------------
#NOTES:
     dance-single:
     :
     Hard:
     9:
     0.643814,0.619671,0.017071,0.469448,0.661494,471.000000,2.000000,55.000000,0.000000,0.000000,0.000000,0.643814,0.619671,0.017071,0.469448,0.661494,471.000000,2.000000,55.000000,0.000000,0.000000,0.000000:
0000
0000
0000
0000
,
0000
0000
0000
0000
,
0000
0000
0000
0000
,
0000
0000
0000
0000
,
0000
0000
0000
0000
,
0000
0000
0000
0000
,
0000
0000
0000
0000
,
0000
0000
0000
0000
,
0001
0000
0010
0000
0100
0000
0000
1000
0000
0010
0000
0100
0001
0000
0100
0000
,
0010
0000
0100
0000
0001
0000
0000
1000
0000
0010
0000
0100
0001
0000
0001
0000
,
0010
0000
0100
0000
1000
0000
0000
0010
0000
0100
0000
0001
1000
0000
1000
0000
,
0010
0000
0100
0000
0001
0000
0000
0010
0000
0100
0000
1000
0001
0000
0001
0000
,
1000
0000
0100
0000
0010
0000
0000
0001
0000
0100
0000
0010
1000
0000
0010
0000
,
0100
0000
0010
0000
1000
0000
0000
0001
0000
0100
0000
0010
1000
0000
1000
0000
,
0100
0000
0010
0000
0001
0000
0000
0100
0000
0010
0000
1000
0001
0000
0001
0000
,
0100
0000
0010
0000
1000
0000
0000
0100
0010
0000
0100
0000
1000
0000
1000
0000
,
0001
0000
0100
0000
1000
0000
0100
0001
0000
0100
0000
0010
1000
0000
1000
0000
,
0010
0000
0100
0000
0001
0000
1000
0100
0000
0010
0000
0100
0001
0000
0001
0000
,
0100
0000
1000
0000
0100
0000
0010
0001
0000
0100
0000
0010
1000
0000
1000
0000
,
0001
0000
0010
0000
0100
0000
0010
0100
0000
1000
0000
0001
0100
0000
0100
0010
,
1000
0000
0010
0000
0001
0000
0010
1000
0000
0010
0000
0100
0001
0000
0001
0000
,
0100
0000
0010
0000
1000
0000
0001
0010
0000
0100
0000
0010
1000
0000
1000
0000
,
0010
0000
0001
0000
0010
0000
0100
1000
0000
0010
0000
0100
0001
0000
0001
0000
,
1000
0000
0100
0000
0010
0000
0001
0010
0001
0000
1000
0000
0001
0000
0010
0000
,
0200
0000
1300
0010
0200
0000
0301
0000
,
1000
0020
0100
1030
0002
0000
1003
0000
,
0002
0000
1003
0100
2000
0000
3100
0000
,
0100
0020
1000
0130
0002
0000
1003
0000
,
2000
0000
0000
0010
0000
0000
3001
0000
0002
0000
0000
0010
0000
0000
1003
0000
,
2000
0000
0000
0100
0000
0000
3001
0000
0002
0000
0000
0100
0000
0000
1003
0000
,
2000
0000
0000
3200
0000
0000
0301
0000
0020
0000
0000
0230
0000
0000
0301
0000
,
1000
0000
0010
1000
0000
0010
0000
0100
0000
0001
0000
1000
0100
0000
1000
0100
,
0010
0000
0001
0010
0000
0010
0100
0000
0100
1000
0000
0010
0100
0000
0001
0000
,
1000
0000
0100
0010
0000
0010
0001
0000
0100
0010
0000
1000
0100
0000
1000
0100
,
1000
0001
0000
0010
0000
0100
1000
0000
0001
0010
0000
0010
0100
0000
1000
0000
,
0001
0000
1000
0100
0000
0100
0010
0000
0010
0001
0000
0001
1000
0000
1000
0100
,
1000
0000
1000
0100
0000
0100
0010
0000
0010
0001
0000
0100
0010
0000
1000
0000
,
0001
0000
0010
0100
0000
0100
1000
0000
0010
0100
0000
0001
0010
0000
0001
0010
,
0001
1000
0000
0100
0000
0010
0001
0000
1000
0100
0000
0100
0010
0000
0001
0000
,
1000
0000
0001
0100
0000
0010
0000
1000
0000
0010
0000
0100
0001
0000
1000
0100
,
0010
0000
0001
0010
0000
0010
1000
0000
1000
0010
0000
0010
0100
0000
1000
0000
,
0001
0000
0001
0100
0000
0100
1000
0000
1000
0100
0000
0100
0010
0000
1000
0010
,
1000
0001
0000
0100
0000
0010
1000
0000
1000
0001
0000
0001
0010
0000
0001
0000
,
1000
0000
0001
0010
0000
0010
1000
0000
1000
0010
0000
0010
0001
0000
0001
0010
,
0100
0000
1000
0100
0000
0100
0001
0000
0001
0100
0000
0100
0010
0000
0001
0000
,
1000
0000
1000
0010
0000
0010
0001
0000
0001
0010
0000
0010
0100
0000
0001
0100
,
0001
1000
0000
0010
0000
0100
0001
0000
0001
1000
0000
1000
0100
0000
1000
0000
,
1000
0000
0001
0100
0000
0010
0000
1000
0000
0010
0000
0100
0001
0000
1000
0100
,
0020
0000
0001
1000
0200
0030
1000
0001
,
0020
0300
1000
0001
0200
0030
0001
1000
,
0302
0000
0023
1000
2030
0000
3200
0001
,
0302
0000
0023
1000
2030
0000
3200
0000
,
2300
0000
0010
0100
0002
3000
0100
0010
,
2000
0003
0100
0010
0002
3000
0010
0100
,
2003
0000
3200
0001
0302
0000
0023
0001
,
0032
0000
0000
0000
0203
0000
1000
0000
2300
0000
0000
0000
3001
0000
0010
0001
,
0020
0000
0000
0000
0031
0000
0001
0100
0020
0000
0000
0000
1030
0000
1000
0001
,
0200
0000
0000
0000
0301
0000
0000
0001
0020
0000
0000
0000
0031
0000
0001
0000
,
0200
0000
1000
1000
0000
0000
0001
0001
0000
0000
0010
0010
0000
0000
0301
1000
,
0200
0000
0010
0010
0000
0000
1300
0010
0200
0000
0010
0010
0300
0000
0001
0010
,
0200
0000
1300
0010
0200
0000
0301
1000
,
0020
0000
1030
1000
0200
0000
1300
1000
,
0020
0000
0001
0001
0000
0000
1000
1000
0000
0000
0100
0100
0000
0000
1030
0001
,
0020
0000
0001
0001
0000
0000
0130
0000
2000
0000
0010
0010
0000
0000
3010
0000
,
2020
0000
0000
0030
,
0001
0000
0000
0010
0000
0000
0100
0000
0001
0000
0000
0010
0000
0000
3001
0000
,
1001
0000
0000
0000
;

//---------------dance-single - ----------------
#NOTES:
     dance-single:
     :
     Medium:
     6:
     0.465789,0.450670,0.085354,0.358487,0.375558,330.000000,10.000000,42.000000,0.000000,0.000000,0.000000,0.465789,0.450670,0.085354,0.358487,0.375558,330.000000,10.000000,42.000000,0.000000,0.000000,0.000000:
0000
0000
0000
0000
,
0000
0000
0000
0000
,
0000
0000
0000
0000
,
0000
0000
0000
0000
,
0000
0000
0000
0000
,
0000
0000
0000
0000
,
0000
0000
0000
0000
,
0000
0000
0000
0000
,
0001
0000
0010
0000
0100
0000
0000
1000
0000
0010
0000
0000
0100
0000
0000
0000
,
0010
0000
0100
0000
0001
0000
0000
0100
0000
0010
0000
0000
1000
0000
0000
0000
,
0001
0000
0010
0000
0100
0000
0000
0010
0000
0100
0000
0000
1000
0000
0000
0000
,
0010
0000
0100
0000
0001
0000
0000
0010
0000
0100
0000
0000
1000
0000
1000
0000
,
0001
0000
0100
0000
0010
0000
0000
1000
0000
0100
0000
0000
0010
0000
0000
0000
,
0100
0000
0010
0000
0100
0000
0000
0001
0000
0100
0000
0000
1000
0000
0000
0000
,
0100
0000
0010
0000
0001
0000
0000
0100
0000
0010
0000
0000
0100
0000
0000
0000
,
0100
0010
0100
0000
1000
0100
0010
0100
,
0001
0000
0010
0000
0100
0000
0000
0010
0000
0100
0000
0010
0001
0000
0000
0000
,
1000
0000
0010
0000
0100
0000
0000
0010
0000
0100
0000
0010
1000
0000
0000
0000
,
0100
0000
1000
0000
0100
0000
0000
0001
0000
0100
0000
0010
0100
0000
0000
0000
,
1000
0000
0100
0000
0001
0000
0000
0100
0000
1000
0000
0001
0100
0000
0100
0000
,
1000
0000
0100
0000
0010
0000
0000
0100
0000
0010
0000
0100
0001
0000
0000
0000
,
0001
0000
0100
0000
0010
0000
0000
0100
0000
0010
0000
0100
0001
0000
0000
0000
,
0010
0000
0001
0000
0010
0000
0000
1000
0000
0010
0000
0100
0010
0000
0000
0000
,
0001
0010
0100
0000
1000
1000
0001
0010
,
0200
0000
1300
0010
0200
0000
0301
0000
,
1000
0002
1000
1003
0002
0000
1003
0000
,
0002
0000
1003
0100
2000
0000
3100
0000
,
0100
0002
0100
0103
0002
0000
0103
0000
,
2000
0000
0000
3010
0000
0000
0010
0000
0002
0000
0000
0013
0000
0000
0010
0000
,
2000
0000
0000
3100
0000
0000
0100
0000
0002
0000
0000
0103
0000
0000
0100
0000
,
2000
0000
0000
3100
0000
0000
0001
0000
0002
0000
0000
0103
0000
0000
1000
0000
,
2000
0000
0000
3001
,
0011
0000
0000
0001
0000
0000
0100
0000
0000
0010
0000
0000
1000
0000
0001
0000
,
1000
0000
0000
0010
0000
0000
0100
0000
0000
0001
0000
0000
1000
0000
0010
0000
,
0100
0001
0000
0010
0000
0000
0100
0000
0000
0010
0000
0000
1000
0000
0010
0000
,
0001
0000
0000
0100
0000
0000
0010
0000
0000
0100
0000
0000
0001
0000
0100
0000
,
1000
0000
0000
0100
0000
0000
0010
0000
0000
1000
0000
0000
0001
0000
1000
0000
,
0010
0000
0000
1000
0000
0000
0001
0000
0000
0100
0000
0000
0010
0000
1000
0000
,
0001
1000
0000
0100
0000
0000
1000
0000
0000
0100
0000
0000
0001
0000
0100
0000
,
0010
0000
0000
0100
0000
0010
0000
0100
0000
1000
0000
0001
0010
0000
0100
0000
,
1000
0000
0000
1000
0000
0000
0010
0000
0000
0100
0000
0000
0001
0000
1000
0000
,
0001
0000
0000
0100
0000
0000
0010
0000
0000
1000
0000
0000
0001
0000
0100
0000
,
0010
1000
0000
0100
0000
0000
0010
0000
0000
0100
0000
0000
0001
0000
0100
0000
,
1000
0000
0000
0010
0000
0000
0100
0000
0000
0010
0000
0000
1000
0000
0010
0000
,
0001
0000
0000
0010
0000
0000
0100
0000
0000
0001
0000
0000
1000
0000
0001
0000
,
0100
0000
0000
0001
0000
0000
1000
0000
0000
0010
0000
0000
0100
0000
0001
0000
,
1000
0001
0000
0010
0000
0000
0001
0000
0000
0010
0000
0000
1000
0000
0010
0000
,
0100
0000
0000
0010
0000
0100
0000
0010
0000
0001
0000
1000
0001
0000
1000
0000
,
0020
0100
0001
0130
,
2000
3010
0020
0130
,
0002
1000
0010
1003
,
2000
3010
0002
0103
,
1000
0010
0002
0100
,
1000
0103
2000
3010
,
0020
0001
1000
0031
,
2000
0000
3001
0000
0002
0000
1003
0010
,
0200
0000
0000
0000
0301
0000
0000
0100
0020
0000
0000
0000
1030
0000
0000
0001
,
0200
0000
0000
0000
0301
0000
0000
0001
0020
0000
0000
0000
0031
0000
0000
0000
,
0201
0000
1000
0000
0001
0000
0010
0300
,
1200
0000
0010
0300
0201
0000
0310
0000
,
0201
0000
0310
1000
0200
0000
0310
0001
,
2000
0000
3001
0001
0200
0000
0310
0000
,
0120
0000
0001
0000
1000
0000
0001
0030
,
2100
3010
0102
0013
,
2200
0000
0000
0300
,
0001
0000
0000
0001
0000
0000
0000
0000
0010
0000
0000
0010
0000
0000
3000
0000
,
1001
0000
0000
0000
;

//---------------dance-single - ----------------
#NOTES:
     dance-single:
     :
     Easy:
     4:
     0.359707,0.338002,0.076819,0.367023,0.000000,243.000000,9.000000,43.000000,0.000000,0.000000,0.000000,0.359707,0.338002,0.076819,0.367023,0.000000,243.000000,9.000000,43.000000,0.000000,0.000000,0.000000:
0000
0000
0000
0000
,
0000
0000
0000
0000
,
0000
0000
0000
0000
,
0000
0000
0000
0000
,
0000
0000
0000
0000
,
0000
0000
0000
0000
,
0000
0000
0000
0000
,
0000
0000
0000
0000
,
0002
0010
1000
0013
,
2000
0001
0100
3001
,
0002
0100
1000
0103
,
0020
0130
0200
0310
,
2000
0100
0001
3100
,
0002
1000
0010
1003
,
2000
0010
0001
3010
,
0100
0010
0100
0000
0001
0010
0100
0000
,
1000
0010
0100
0000
0010
0100
0001
0000
,
1000
0010
0100
0000
0010
0100
0010
0000
,
1000
0010
0100
0000
0001
0100
0010
0000
,
1000
0100
0001
0000
0001
0100
1000
0000
,
1000
0100
0010
0000
0100
0010
0001
0000
,
0001
0100
0010
0000
0100
0010
0100
0000
,
0010
1000
0001
0000
1000
0010
0100
0000
,
0001
0010
0100
0000
1000
0000
1001
0000
,
0002
0103
0002
0103
,
1000
0001
1000
0000
0002
0000
1003
0000
,
2000
3010
2000
3010
,
0100
0001
0100
0000
0002
0000
0103
0000
,
0010
1000
0001
0100
,
0010
1000
0001
0100
,
0002
0010
0100
1000
,
2000
0000
0003
3000
,
0001
0000
0001
0010
0000
0010
0100
0000
,
1000
0000
0010
0100
0000
0100
0001
0000
,
0000
0101
0000
0100
0000
0010
1000
0000
,
0001
0000
0100
0010
0000
0010
1000
0000
,
1000
0000
0100
0010
0000
0010
0001
0000
,
0010
0000
0100
1000
0000
1000
0010
0000
,
0000
0110
0000
1000
0000
0001
0100
0000
,
0010
0000
0100
0010
0100
0001
0100
0000
,
0101
0000
1000
0010
0000
0100
0001
0000
,
0001
0000
0100
0010
0000
1000
0001
0000
,
0000
1010
0000
0010
0000
0100
0001
0000
,
1000
0000
0010
0100
0000
0010
1000
0000
,
0001
0000
0001
0100
0000
0010
1000
0000
,
0100
0000
0010
0001
0000
0100
0010
0000
,
0000
0110
0000
0100
0000
0010
1000
0000
,
0100
0000
0010
0100
0010
0001
1000
0000
,
0020
0100
0000
0130
,
2000
3000
0020
0130
,
0002
1000
0000
1003
,
2000
3000
0002
0003
,
2000
3000
0002
0100
,
0000
0103
2000
3010
,
0020
0001
0000
0031
,
2000
3001
0002
1003
,
0200
0300
0020
1030
,
0002
0103
0020
0130
,
0002
0010
0000
0013
,
0200
0300
0020
0030
,
2000
3000
0200
0010
,
0000
0310
0020
0031
,
0002
1000
0000
1003
,
2000
3010
0002
0103
,
0202
0000
0000
0303
,
0101
0000
0101
0000
,
0010
0000
0000
0000
;

//---------------dance-single - ----------------
#NOTES:
     dance-single:
     :
     Beginner:
     2:
     0.202411,0.225335,0.051212,0.315810,0.000000,123.000000,6.000000,37.000000,0.000000,0.000000,0.000000,0.202411,0.225335,0.051212,0.315810,0.000000,123.000000,6.000000,37.000000,0.000000,0.000000,0.000000:
// measure 0
0000
0000
0000
0000
,  // measure 1
0000
0000
0000
0000
,  // measure 2
0000
0000
0000
0000
,  // measure 3
0000
0000
0000
0000
,  // measure 4
0000
0000
0000
0000
,  // measure 5
0000
0000
0000
0000
,  // measure 6
0000
0000
0000
0000
,  // measure 7
0000
0000
0000
0000
,  // measure 8
0002
0000
0003
0000
,  // measure 9
2000
0000
3000
0000
,  // measure 10
0002
0000
0003
0000
,  // measure 11
0020
0030
0200
0300
,  // measure 12
2000
0000
3000
0000
,  // measure 13
0002
0000
0003
0000
,  // measure 14
2000
0000
3000
0000
,  // measure 15
0100
0100
0101
0000
,  // measure 16
1000
0010
0000
0010
,  // measure 17
0000
0100
0000
0100
,  // measure 18
0000
0001
0000
0001
,  // measure 19
0000
1000
0000
1000
,  // measure 20
1000
0010
0000
0010
,  // measure 21
0000
0100
0000
0100
,  // measure 22
0000
0001
0000
0001
,  // measure 23
0100
0100
0010
0010
,  // measure 24
2000
3000
2000
3000
,  // measure 25
1000
1000
1000
0000
,  // measure 26
0002
0003
0002
0003
,  // measure 27
0001
0001
0002
0003
,  // measure 28
2000
3000
0002
0003
,  // measure 29
2000
3000
0002
0003
,  // measure 30
0200
0300
0020
0030
,  // measure 31
2000
0000
3000
0000
,  // measure 32
0101
0001
0001
0000
,  // measure 33
1000
1000
1000
0000
,  // measure 34
0001
0100
0001
0000
,  // measure 35
1000
0010
1000
0000
,  // measure 36
0001
0001
0001
0000
,  // measure 37
0100
0100
0100
0000
,  // measure 38
0010
1000
0010
0000
,  // measure 39
0100
0001
0100
0100
,  // measure 40
1001
1000
1000
0000
,  // measure 41
0001
0001
0001
0000
,  // measure 42
0001
1000
0001
0000
,  // measure 43
1000
0001
1000
0000
,  // measure 44
0010
0010
0010
0000
,  // measure 45
0100
0100
0100
0000
,  // measure 46
0001
0100
0001
0000
,  // measure 47
1000
0010
1000
1000
,  // measure 48
0020
0000
0030
0000
,  // measure 49
2000
3000
0020
0030
,  // measure 50
0200
0000
0300
0000
,  // measure 51
0200
0000
0300
0000
,  // measure 52
0001
0000
0001
0000
,  // measure 53
0001
0000
1000
0000
,  // measure 54
0020
0000
0030
0000
,  // measure 55
0020
0000
0030
0000
,  // measure 56
0220
0000
0330
0000
,  // measure 57
0002
0003
0020
0030
,  // measure 58
0200
0000
0300
0000
,  // measure 59
0200
0000
0300
0000
,  // measure 60
1000
0000
1000
0000
,  // measure 61
0100
0000
0100
0000
,  // measure 62
0020
0000
0030
0000
,  // measure 63
0002
0000
1003
0000
,  // measure 64
2002
0000
0000
0000
,  // measure 65
3003
0000
0000
0000
,  // measure 66
1001
0000
0000
0000
;
