#TITLE:@( '_J')==@;
#SUBTITLE:;
#ARTIST:w_tre;
#TITLETRANSLIT:;
#SUBTITLETRANSLIT:;
#ARTISTTRANSLIT:;
#GENRE:;
#CREDIT:;
#BANNER:[Punctuations] - @( '_J')==@.png;
#BACKGROUND:[Punctuations] - @( '_J')==@-bg.png;
#LYRICSPATH:;
#CDTITLE:;
#MUSIC:[Punctuations] - @( '_J')==@.ogg;
#OFFSET:0.000000;
#SAMPLESTART:29.547001;
#SAMPLELENGTH:14.164000;
#SELECTABLE:YES;
#DISPLAYBPM:99.000000;
#BPMS:0.000000=99
;
#STOPS:
;
#BGCHANGES:;
#KEYSOUNDS:;
#ATTACKS:;

//---------------dance-single - ----------------
#NOTES:
     dance-single:
     :
     Easy:
     2:
     0.217155,0.221439,0.065733,0.049300,0.000000,171.000000,8.000000,6.000000,0.000000,0.000000,0.000000,0.217155,0.221439,0.065733,0.049300,0.000000,171.000000,8.000000,6.000000,0.000000,0.000000,0.000000:
// measure 0
0000
0000
0000
0000
,  // measure 1
1001
0100
0100
0002
,  // measure 2
0000
0003
1001
0010
,  // measure 3
0010
2000
0000
3000
,  // measure 4
0101
1000
1000
0200
,  // measure 5
0000
0300
1010
0001
,  // measure 6
0001
1000
0100
0010
,  // measure 7
1001
0010
0010
2000
,  // measure 8
0001
3010
1001
0100
,  // measure 9
0100
0002
1000
0103
,  // measure 10
1010
0001
0001
0020
,  // measure 11
0100
1030
0101
1000
,  // measure 12
1000
0001
0010
0100
,  // measure 13
0010
0001
1000
0010
,  // measure 14
0000
1000
1000
0100
,  // measure 15
0010
0001
0000
0010
,  // measure 16
0100
1000
0001
0100
,  // measure 17
0000
0001
0010
0000
,  // measure 18
0000
1000
0100
0000
0010
0000
0001
0000
,  // measure 19
1000
0001
0010
0100
,  // measure 20
0000
1000
1000
0100
,  // measure 21
0010
0001
0000
0100
,  // measure 22
0010
1000
0001
0100
,  // measure 23
0000
0001
0010
0000
,  // measure 24
0000
1000
0001
0000
0100
0000
0010
0000
,  // measure 25
0000
1000
0001
0010
,  // measure 26
0100
1000
0001
0100
,  // measure 27
0001
0010
0100
1000
,  // measure 28
0001
0100
0010
1000
,  // measure 29
0100
0010
0100
1000
,  // measure 30
0010
0100
0001
0010
,  // measure 31
0000
0001
1000
0010
,  // measure 32
1000
0001
0010
0100
,  // measure 33
1000
0010
0100
0001
,  // measure 34
1000
0010
0010
1000
,  // measure 35
0100
0100
0010
0001
,  // measure 36
0000
1000
0100
0010
,  // measure 37
0001
0000
1000
0001
,  // measure 38
1000
0001
1000
0100
,  // measure 39
0000
1000
0001
0010
,  // measure 40
0100
1000
1000
0001
,  // measure 41
0100
0010
1000
0100
,  // measure 42
0000
1000
0010
0100
,  // measure 43
0001
0010
0001
1000
,  // measure 44
0100
1000
0010
0000
,  // measure 45
0010
0100
0001
1000
,  // measure 46
0100
0010
0001
1000
,  // measure 47
0001
0010
0100
1000
,  // measure 48
0000
0001
0100
0010
,  // measure 49
1000
0000
0000
0000
;

//---------------dance-single - ----------------
#NOTES:
     dance-single:
     :
     Medium:
     5:
     0.329840,0.301962,0.394400,0.000000,0.225958,233.000000,48.000000,0.000000,0.000000,0.000000,0.000000,0.329840,0.301962,0.394400,0.000000,0.225958,233.000000,48.000000,0.000000,0.000000,0.000000,0.000000:
// measure 0
0000
0000
0000
0000
,  // measure 1
1001
0000
0000
0001
0000
0100
0001
0000
0000
1100
0000
0000
,  // measure 2
0001
0000
0000
0010
0000
0000
1001
0000
0000
1000
0000
0010
,  // measure 3
1000
0011
1000
0100
,  // measure 4
1001
0000
0000
0010
0000
0100
1000
0000
0000
0101
0000
0000
,  // measure 5
0010
0000
0000
1000
0000
0000
1001
0000
0000
0010
0000
0100
,  // measure 6
0001
1000
0100
0000
0010
0000
0001
0000
,  // measure 7
1001
0000
0000
0001
0000
0100
0010
0000
0000
1100
0000
0000
,  // measure 8
0001
0000
0000
0010
0000
0000
1001
0000
0000
1000
0000
0010
,  // measure 9
0100
0000
0000
0101
0000
0000
0001
0000
1000
0100
0000
0000
,  // measure 10
1001
0000
0000
0100
0000
0010
1000
0000
0000
1100
0000
0000
,  // measure 11
0010
0000
0001
0100
0000
0000
1001
0000
0000
0010
0000
0100
,  // measure 12
0001
0010
0100
0000
1000
0000
0010
0000
,  // measure 13
0110
0001
0010
0100
,  // measure 14
0000
1000
1000
0100
,  // measure 15
0010
0001
0000
0100
,  // measure 16
0001
1000
0010
0100
,  // measure 17
0000
0001
0010
0000
,  // measure 18
0000
0100
1000
0000
0001
0000
0010
0000
,  // measure 19
0001
0100
0010
1000
,  // measure 20
0000
0000
0000
0001
0010
0100
1000
0000
0000
0100
0000
0000
,  // measure 21
0010
0001
0000
0010
,  // measure 22
0100
0000
0000
1000
0000
0000
0010
0000
0000
0100
0000
0000
0001
0000
0000
0000
,  // measure 23
0000
1000
0100
0000
,  // measure 24
0000
1000
0001
0000
0010
0000
0100
0000
,  // measure 25
1000
0000
0000
0011
0000
1000
0000
0000
0100
0010
0000
0000
,  // measure 26
1100
0000
0000
0001
0000
0000
0100
0000
0000
1010
0000
0001
,  // measure 27
0100
0000
0001
1000
0000
0000
0101
0000
0010
1000
0001
0000
,  // measure 28
0010
0000
0000
1100
0000
0000
0001
0010
0100
1000
0000
0000
,  // measure 29
0101
0000
0000
0010
0000
1000
0001
0000
0000
0110
0000
1000
,  // measure 30
0000
0000
0010
0100
0000
0000
0101
0000
0000
0011
0000
0000
,  // measure 31
1010
0000
0000
0001
0000
0100
0000
0000
0010
1000
0000
0000
,  // measure 32
1100
0000
0000
0010
0000
0000
0001
0000
0000
1010
0000
0100
,  // measure 33
0001
0000
0000
1001
0000
0000
0100
0000
0000
0001
0100
0010
,  // measure 34
0100
0000
0000
1001
0000
0000
1000
0100
0010
0100
0000
0000
,  // measure 35
1001
0000
0000
0010
1000
0000
0001
0000
0000
0110
0000
1000
,  // measure 36
0000
0000
0001
0100
0000
0000
0010
0000
0000
1000
0000
0000
,  // measure 37
1001
0000
0000
1010
0000
0000
0100
0000
0001
0100
0000
0000
,  // measure 38
1001
0000
0000
0100
0000
0000
0010
0000
0000
1001
0000
0100
,  // measure 39
0001
0000
1000
0001
0000
0000
0011
0000
0100
1000
0001
0000
,  // measure 40
0100
0000
0000
1010
0000
0001
0000
1000
0100
0010
0000
0000
,  // measure 41
0011
0000
0000
0001
0000
1000
0010
0000
0000
0110
0000
0001
,  // measure 42
0000
0000
0010
0100
0000
0000
1100
0000
0000
1010
0000
0000
,  // measure 43
0011
0000
0000
1000
0000
0001
0100
0000
0001
1000
0000
0000
,  // measure 44
0101
0000
0000
0010
0000
0000
1000
0000
0000
1001
0000
0010
,  // measure 45
0100
0000
0000
1000
0000
0000
0110
0000
0000
0001
0000
1000
,  // measure 46
0100
0000
0000
0010
0000
0001
0000
1000
0001
0100
0000
0000
,  // measure 47
0011
0000
0000
0100
0000
0000
1001
0000
0000
0100
0000
1000
,  // measure 48
0000
0000
0001
0100
0000
0000
0010
0000
0000
1000
0000
0000
,  // measure 49
1001
0000
0000
0000
;

//---------------dance-single - ----------------
#NOTES:
     dance-single:
     :
     Hard:
     7:
     0.449569,0.483139,0.082167,0.008217,0.710741,372.000000,10.000000,1.000000,8.000000,0.000000,0.000000,0.449569,0.483139,0.082167,0.008217,0.710741,372.000000,10.000000,1.000000,8.000000,0.000000,0.000000:
// measure 0
0000
0000
0000
0000
,  // measure 1
1001
0000
0000
0001
0000
0100
0001
0000
0010
0100
0000
0000
,  // measure 2
0001
0000
0000
0100
0000
0000
1001
0000
0000
1000
0000
0010
,  // measure 3
1000
0000
0100
0010
0000
0000
0001
0000
1000
0100
0001
0000
,  // measure 4
0110
0000
0000
0010
0000
0100
1000
0000
0001
0100
0000
0000
,  // measure 5
0010
0000
0000
0010
0000
0000
1001
0000
0000
0001
0000
0100
,  // measure 6
0001
0010
0100
0000
1000
0000
0010
0000
,  // measure 7
1001
0000
0000
0001
0000
0100
0010
0000
1000
0100
0000
0000
,  // measure 8
0001
0000
0000
0010
0000
0000
1001
0000
0000
1000
0000
0010
,  // measure 9
0100
0001
0000
1100
0000
0000
0001
0000
1000
0010
1000
0001
,  // measure 10
0010
0000
0000
0100
0000
1000
0001
0000
0000
1000
0001
0010
,  // measure 11
0001
0000
0100
0100
0010
0000
1001
0000
0000
1000
0000
0010
,  // measure 12
0100
0000
0000
0001
0000
0000
0010
0000
0001
0100
0001
0000
1000
0000
0010
0000
0100
0000
0001
0000
0000
0000
0000
0000
,  // measure 13
1001
0010
0100
0001
,  // measure 14
0000
1000
1000
0100
,  // measure 15
0010
0001
0000
0010
,  // measure 16
0100
1000
0001
0100
,  // measure 17
0000
0001
1000
0000
,  // measure 18
0000
1000
0001
0000
0100
0000
0010
0000
,  // measure 19
1000
0100
0001
0010
,  // measure 20
0000
0000
0000
0100
1000
0001
0100
0000
0000
0010
0000
0000
,  // measure 21
1000
0100
0000
0010
,  // measure 22
0100
0000
0000
1000
0000
0000
0010
0000
0000
0100
0000
0000
0001
0000
0000
0000
,  // measure 23
0000
0000
0000
0010
0000
0000
0100
0000
0000
0000
0000
1000
,  // measure 24
0100
0000
0000
1000
0000
0000
0001
0000
1000
0010
1000
0000
0001
0000
0100
0000
0100
0000
0010
0000
0000
0000
0000
0000
,  // measure 25
0000
0000
1000
0000
0001
0000
0010
0000
0001
0000
1000
0000
0010
0000
0100
0000
0010
0000
0001
0000
0000
0010
0000
0000
,  // measure 26
1000
0000
0000
0100
0000
0000
0001
0000
0100
0000
1000
0000
0010
0000
0000
0100
0001
0000
1000
0000
0100
0000
0000
0000
,  // measure 27
1000
0000
0000
0100
0000
0000
0010
0000
0000
0001
0000
0000
1000
0000
0000
0000
0010
0000
0000
0000
1000
0000
0000
0000
0001
0000
0000
0000
0010
0000
0000
0000
0100
0000
0000
0000
1000
0000
0000
0000
0001
0000
0000
0000
1000
0000
0000
0000
,  // measure 28
0010
0000
0000
0100
0000
0000
0100
0000
0000
0000
0000
0000
0100
0000
0001
0000
1000
0000
0100
0000
0000
1000
0000
0000
,  // measure 29
0010
0000
0000
0000
0000
0000
0000
0000
0000
0000
0000
0000
0000
0000
0000
0000
0000
0000
0000
0000
0000
0000
0000
0000
0100
0000
0000
0000
0000
0000
0000
0000
0000
0000
0000
0000
0000
0000
0000
0000
0000
0000
0000
0000
0000
0000
0001
0000
0000
0000
0000
0000
0000
0000
0000
0000
0000
0010
0000
0000
0000
0000
0000
0000
0000
0000
0001
0000
0000
0000
0000
0000
0000
0000
0000
0000
0000
0000
1000
0000
0000
0000
0000
0000
0000
0000
0000
0000
0000
0010
0000
0000
0000
0000
0000
0000
0100
0000
0000
0000
0000
0000
0000
0000
0000
0000
0000
0000
0000
0000
0000
0000
0001
0000
0000
0000
0000
0000
0000
0000
0000
0000
0000
0000
0000
0000
0000
0000
0001
0000
0000
0000
0000
0000
0000
0000
0000
0000
0000
0000
0000
0000
0000
0000
0001
0000
0000
0000
0000
0000
0000
0000
0000
0000
0000
0000
0000
0000
0000
0000
1000
0000
0000
0000
0000
0000
0000
0000
0000
0000
0000
0000
0000
0000
0000
0000
1000
0000
0000
0000
0000
0000
0000
0000
0000
0000
0000
0000
0000
0000
0000
0000
,  // measure 30
1000
0000
0100
0000
0100
0000
0100
0010
0001
0010
0100
0000
1000
0000
0000
0000
0000
0000
0010
0000
0000
0000
0000
0000
,  // measure 31
0100
0000
0001
0000
1000
0000
0001
0000
1000
0000
0100
0000
0010
0000
0000
0001
0000
0000
0100
0000
0000
0010
0000
0000
,  // measure 32
0010
0000
0000
0000
0000
0000
0000
0000
0000
0000
0000
0000
0000
0000
0000
0000
0000
0000
0000
0000
0000
0000
0000
0000
0000
0000
0000
0000
0000
0000
0000
0000
1000
0000
0000
0000
0000
0000
0000
0000
0000
0000
0000
0000
0000
0000
0000
0000
0100
0000
0000
0000
0000
0000
0000
0000
0000
0000
0000
0000
0000
0000
0000
0000
1000
0000
0000
0000
0000
0000
0000
0000
0000
0000
0000
0000
0000
0000
0000
0000
0001
0000
0000
0000
0000
0000
0000
0000
0000
0000
0000
0000
0000
0000
0000
0000
1000
0000
0000
0000
0000
0000
0000
0000
0000
0000
0000
0000
0100
0000
0000
0000
0000
0000
0000
0000
0000
0000
0000
0000
0010
0000
0000
0000
0000
0000
0000
0000
0000
0000
0000
0000
0001
0000
0000
0000
0000
0000
0000
0000
0000
0000
0000
0000
1000
0000
0000
0000
0000
0000
0000
0000
0000
0000
0100
0000
0000
0000
0000
0000
0000
0000
0000
0010
0000
0000
0000
0000
0000
0000
0000
0000
0000
0001
0000
0000
0000
0000
0000
0000
0000
0000
0000
1000
0000
0000
0000
0000
0000
0000
0000
0000
,  // measure 33
0100
0010
0001
1000
0100
0010
0001
0000
0000
0000
0000
0000
MMMM
0000
0000
0000
0000
0000
0001
0000
0100
0000
0010
0000
,  // measure 34
0100
0000
0000
0001
0000
0000
0001
0000
0000
0000
0000
0000
1000
0000
0100
0000
0010
0000
0100
0000
0000
1000
0000
0000
,  // measure 35
1000
0000
0000
0000
0000
0000
0000
0000
0010
0000
1000
0000
0100
0000
0010
0000
0001
1000
0100
0010
0001
0000
0000
0000
0000
0000
0000
0000
0000
0000
0000
0000
,  // measure 36
0100
0000
1000
0000
0001
0000
0010
0000
0001
1000
0001
0000
0100
0000
0010
0000
0010
0000
1000
0000
0000
0000
0000
0000
,  // measure 37
1001
0000
0000
MMMM
0000
0000
0100
0000
0001
0100
0000
0001
,  // measure 38
0100
0000
0000
0000
0000
0000
0000
0000
0001
0000
0000
0000
0100
0000
0000
0000
0000
0000
0001
0000
0000
0000
0000
0000
0100
0000
0000
0000
0001
0000
0000
0000
0100
0000
0000
0000
0001
0000
0000
0000
0000
0100
0000
0001
0000
0000
0000
0000
,  // measure 39
0100
0001
0000
0100
0001
0000
0000
0000
0010
0000
0000
0000
0000
0000
0100
0000
1000
0000
0001
0000
0010
0000
0000
0000
,  // measure 40
0001
0000
0100
0010
0000
0100
0010
0000
0100
0001
0010
0100
,  // measure 41
0000
0000
0000
0000
0000
0000
0000
0000
0001
0000
0000
0000
0000
0000
0000
1000
0000
0000
0100
0000
0000
0010
0000
0000
0001
0000
1000
0000
0010
0000
1000
0000
0001
0000
0010
0000
0100
0000
0000
0000
0000
0000
0000
0000
0010
0000
0000
0000
,  // measure 42
0000
0000
0100
1000
0001
0010
0001
1000
0010
1000
0001
1000
,  // measure 43
0000
0000
0000
0000
0000
0000
0000
0000
0000
0000
0000
0000
0000
0000
0000
0000
0000
0000
0000
0000
0000
0000
0000
0000
0010
0000
0000
0000
0000
0000
0000
0000
0000
0000
0000
0000
0000
0000
0000
0000
0000
0000
0000
0000
0000
0000
0000
0000
0100
0000
0000
0000
0000
0000
0000
0000
0000
0000
0000
0000
0000
0000
0000
0000
0000
0000
0000
0000
0000
0000
0001
0000
0000
0000
0000
0000
0000
0000
0000
0000
0000
0000
0000
0000
0000
0000
0000
0000
0000
0000
0000
0010
0000
0000
0000
0000
0000
0000
0000
0000
0000
0000
0000
0000
0000
0000
0000
0000
0000
0100
0000
0000
0000
0000
0000
0000
0000
0000
0000
0000
0000
0000
0000
0000
0000
0000
0000
0000
1000
0000
0000
0000
0000
0000
0000
0000
0000
0000
0000
0000
0000
0000
0000
0000
0001
0000
0000
0000
0000
0000
0000
0000
0000
0000
0000
0000
0000
0000
0000
0000
0100
0000
0000
0000
0000
0000
0000
0000
0000
0000
0000
0000
0000
0000
0000
0000
0010
0000
0000
0000
0000
0000
0000
0000
0000
0000
0000
0000
0000
0000
0000
0000
,  // measure 44
1000
0000
0000
0000
0001
0000
0000
0000
0010
0000
0000
0000
0100
0000
0000
0010
0000
0000
0001
0000
0000
1000
0000
0000
0020
0000
0000
0000
0000
0000
0000
0000
0000
0000
0000
0000
0000
0000
0000
0000
0000
0000
0000
0000
0000
0000
0000
0000
,  // measure 45
0030
0100
0001
0010
0000
0100
0010
0000
0100
0001
0000
0100
,  // measure 46
1000
0010
0001
1000
0100
0001
1000
0001
0010
1000
0010
0100
,  // measure 47
1000
0000
0001
0000
0010
0000
0100
0000
1000
0000
0001
0000
1000
0000
0000
0000
0001
0100
0001
0000
0000
0000
1000
0000
,  // measure 48
0000
0000
0010
0000
0010
0000
0100
0000
0001
0010
0001
0000
0010
0000
0000
0000
0100
0000
1000
0100
0010
0001
1000
0001
,  // measure 49
1000
0000
0000
0000
;
