#VERSION:0.81;
#TITLE:Zip;
#SUBTITLE:;
#ARTIST:Jun Chikuma;
#TITLETRANSLIT:;
#SUBTITLETRANSLIT:;
#ARTISTTRANSLIT:;
#GENRE:;
#ORIGIN:;
#CREDIT:;
#BANNER:;
#BACKGROUND:;
#PREVIEWVID:;
#JACKET:;
#CDIMAGE:;
#DISCIMAGE:;
#LYRICSPATH:;
#CDTITLE:;
#MUSIC:Zip.ogg;
#OFFSET:-0.239161;
#SAMPLESTART:56.319977;
#SAMPLELENGTH:12.000000;
#SELECTABLE:YES;
#BPMS:0.000=137.000;
#STOPS:;
#DELAYS:;
#WARPS:;
#TIMESIGNATURES:0.000=4=4;
#TICKCOUNTS:0.000=4;
#COMBOS:0.000=1;
#SPEEDS:0.000=1.000=0.000=0;
#SCROLLS:0.000=1.000;
#FAKES:;
#LABELS:0.000=Song Start;
#BGCHANGES:;
#KEYSOUNDS:;
#ATTACKS:
;

//---------------dance-single - ----------------
#NOTEDATA:;
#CHARTNAME:;
#STEPSTYPE:dance-single;
#DESCRIPTION:;
#CHARTSTYLE:;
#DIFFICULTY:Beginner;
#METER:1;
#RADARVALUES:0.119858,0.109266,0.009756,0.000000,0.000000,85.000000,1.000000,0.000000,0.000000,0.000000,0.000000,0.000000,0.000000,0.119858,0.109266,0.009756,0.000000,0.000000,85.000000,1.000000,0.000000,0.000000,0.000000,0.000000,0.000000,0.000000;
#CREDIT:;
#NOTES:
0000
0000
0000
0000
,
0000
0000
0000
0000
,
0000
0000
0000
0000
,
0000
0000
0000
0000
,
1000
0000
1000
0000
,
0001
0000
0001
0000
,
0100
0000
0100
0000
,
0010
0000
0010
0000
,
1000
0000
1000
0000
,
1000
0000
1000
0000
,
1000
0000
0000
0000
,
1000
0000
0000
0000
,
0001
0000
0001
0000
,
0001
0000
0001
0000
,
0001
0000
0000
0000
,
0001
0000
0000
0000
,
1000
0000
0000
0000
,
0010
0000
0000
0000
,
0100
0000
0000
0000
,
0001
0000
0000
0000
,
0010
0000
0000
0000
,
0100
0000
0000
0000
,
1000
0000
0000
0000
,
0001
0000
0000
0000
,
1000
0000
1000
0000
,
0001
0000
0001
0000
,
0100
0000
0100
0000
,
0010
0000
0010
0000
,
1000
0000
1000
0000
,
0100
0000
0100
0000
,
0010
0000
0010
0000
,
0001
0000
0001
0000
,
1000
0000
1000
0000
,
0010
0000
0010
0000
,
0100
0000
0000
0000
,
0100
0000
0000
0000
,
0001
0000
0001
0000
,
0010
0000
0010
0000
,
0100
0000
0000
0000
,
0100
0000
0000
0000
,
1000
0000
1000
0000
,
0001
0000
0000
0000
,
0001
0000
0001
0000
,
1000
0000
0000
0000
,
0010
0000
0010
0000
,
0100
0000
0000
0000
,
0100
0000
0100
0000
,
0010
0000
0000
0000
,
1000
0000
1000
0000
,
0001
0000
0001
0000
,
0010
0000
0010
0000
,
0100
0000
0100
0000
,
1000
0000
1000
0000
,
0010
0000
0010
0000
,
0100
0000
0100
0000
,
0001
0000
0001
0000
,
1001
0000
0000
0000
;

//---------------dance-single - ----------------
#NOTEDATA:;
#CHARTNAME:;
#STEPSTYPE:dance-single;
#DESCRIPTION:;
#CHARTSTYLE:;
#DIFFICULTY:Easy;
#METER:3;
#RADARVALUES:0.287102,0.338042,0.165850,0.331701,0.000000,155.000000,17.000000,34.000000,0.000000,0.000000,0.000000,0.000000,0.000000,0.287102,0.338042,0.165850,0.331701,0.000000,155.000000,17.000000,34.000000,0.000000,0.000000,0.000000,0.000000,0.000000;
#CREDIT:;
#NOTES:
0000
0000
0000
0000
,
0000
0000
0000
0000
,
0000
0000
0000
0000
,
0000
0000
0000
0000
,
1000
0000
0001
0100
,
0010
0000
0010
0000
,
0100
0000
0001
0010
,
0100
0000
0100
0000
,
1000
1000
0001
0001
,
0100
0100
0010
0010
,
1000
0000
1000
0000
,
0001
0000
0001
0000
,
1000
1000
0100
0100
,
0010
0010
0001
0001
,
0100
0000
0100
0000
,
0010
0000
0010
0000
,
0100
0001
0010
0000
,
0010
0100
1000
0000
,
1000
0010
0100
0000
,
0100
0001
1000
0000
,
1000
0100
0010
0000
,
0010
0001
0100
0000
,
0100
0010
0100
0000
,
0100
0001
1000
0000
,
0001
0010
2200
3300
,
1000
0010
0202
0303
,
0010
0001
2200
3300
,
0010
1000
0202
0303
,
0001
1000
2200
3300
,
1000
0001
0202
0303
,
0001
1000
2020
3030
,
1000
0001
0022
0033
,
0001
0100
0010
0010
,
1000
0100
0010
0010
,
0100
0000
0100
0000
,
1000
0000
1000
0000
,
0001
0100
0010
0010
,
0100
0001
0010
0010
,
0100
0000
0100
0000
,
1000
0000
1000
0000
,
0001
0100
0010
0000
,
0100
0100
0100
0000
,
0001
0010
0100
0000
,
1000
1000
1000
0000
,
0001
1000
0010
0000
,
0100
0100
0100
0000
,
0001
0010
0100
0000
,
0010
0010
0010
0000
,
0001
1000
2020
3030
,
1000
0001
0022
0033
,
0001
1000
2200
3300
,
1000
0001
0202
0303
,
1000
1000
2200
3300
,
0001
0001
0202
0303
,
1000
1000
2020
3030
,
0001
0001
0022
0033
,
2002
0000
0000
0000
,
0000
0000
0000
3003
;

//---------------dance-single - ----------------
#NOTEDATA:;
#CHARTNAME:;
#STEPSTYPE:dance-single;
#DESCRIPTION:;
#CHARTSTYLE:;
#DIFFICULTY:Medium;
#METER:6;
#RADARVALUES:0.379087,0.338042,0.009756,0.253654,0.000000,245.000000,1.000000,26.000000,0.000000,0.000000,0.000000,0.000000,0.000000,0.379087,0.338042,0.009756,0.253654,0.000000,245.000000,1.000000,26.000000,0.000000,0.000000,0.000000,0.000000,0.000000;
#CREDIT:;
#NOTES:
0000
0000
0000
0000
,
0000
0000
0000
0000
,
0000
0000
0000
0000
,
0000
0000
0000
0000
,
1000
0000
0001
0000
0100
0000
0010
0100
,
0001
0000
0010
0000
0100
0000
0010
0001
,
1000
0000
0010
0000
0100
0000
0010
1000
,
0001
0000
0010
0000
0100
0000
0010
0001
,
1000
0000
1000
0000
1000
0000
0001
0100
,
0010
0010
0010
0100
,
0001
1000
2000
3000
,
0001
0010
0020
0030
,
0001
0000
0001
0000
0001
0000
1000
0100
,
0010
0010
0010
0001
,
0100
0010
0020
0030
,
0100
0001
0002
0003
,
1000
0000
0001
1000
0001
0000
0000
1000
,
0010
0100
0010
0100
0001
1000
0001
0000
,
1000
0000
0100
0010
0100
0000
0000
0010
,
0100
0010
0100
1000
0010
1000
0010
0000
,
0100
0000
0001
0010
0001
0000
0000
0100
,
0010
0100
0001
0100
0010
0100
0001
0000
,
1000
0000
0100
0010
0100
0000
0000
0010
,
0100
0010
0100
1000
0001
1000
0001
0000
,
1000
0000
0010
0100
0200
0000
0300
0000
,
0001
0000
0100
0010
0020
0000
0030
0000
,
0100
0000
0001
0010
0020
0000
0030
0000
,
0100
0000
1000
0010
0020
0000
0030
0000
,
0100
0000
0001
0010
0200
0000
0300
0000
,
0100
0000
1000
0010
0200
0000
0300
0000
,
0001
0000
1000
0100
2000
0000
3000
0000
,
1000
0000
0001
0010
0002
0000
0003
0000
,
1000
0000
1000
0000
1000
0000
0001
0100
,
0010
0010
0010
0100
,
0001
0000
0010
0100
2000
0000
3000
0000
,
0001
0000
0010
0100
2000
0000
3000
0000
,
0001
0000
0001
0000
0001
0000
1000
0010
,
0100
0100
0100
0001
,
1000
0000
0100
0010
0002
0000
0003
0000
,
1000
0000
0100
0010
0002
0000
0003
0000
,
1000
0000
0010
0010
0010
0000
0000
0100
,
0001
0100
0001
0100
0001
0010
0100
0000
,
0010
0000
0001
0001
0001
0000
0000
1000
,
0010
1000
0010
1000
0010
0100
0001
0000
,
1000
0000
0100
0100
0100
0000
0000
1000
,
0001
1000
0001
1000
0001
0100
0010
0000
,
0100
0000
0001
0010
0001
0000
0000
0010
,
0100
0010
0100
0010
0100
1000
0001
0000
,
1000
0000
0001
0100
0020
0000
0030
0000
,
1000
0000
0001
0100
0020
0000
0030
0000
,
1000
0000
0010
0100
0002
0000
0003
0000
,
1000
0000
0010
0100
0002
0000
0003
0000
,
1000
0000
0100
0010
0200
0000
0300
0000
,
1000
0000
0100
0010
0200
0000
0300
0000
,
1000
0000
0001
0100
0002
0000
0003
0000
,
1000
0000
0001
0100
0002
0000
0003
0000
,
2002
0000
0000
0000
,
0000
0000
0000
3003
;

//---------------dance-single - ----------------
#NOTEDATA:;
#CHARTNAME:;
#STEPSTYPE:dance-single;
#DESCRIPTION:;
#CHARTSTYLE:;
#DIFFICULTY:Hard;
#METER:9;
#RADARVALUES:0.607654,0.563404,0.556087,0.370724,0.253654,341.000000,57.000000,38.000000,0.000000,0.000000,0.000000,0.000000,0.000000,0.607654,0.563404,0.556087,0.370724,0.253654,341.000000,57.000000,38.000000,0.000000,0.000000,0.000000,0.000000,0.000000;
#CREDIT:;
#NOTES:
0000
0000
0000
0000
,
0000
0000
0000
0000
,
0000
0000
0000
0000
,
0000
0000
0000
0000
,
1100
0000
0000
0000
0101
0000
0000
0000
1100
0000
0000
0001
1000
0000
0001
0000
,
0011
0000
0000
0000
1010
0000
0000
0000
0011
0000
0000
1000
0001
0000
1000
0000
,
0101
0000
0000
0000
0011
0000
0000
0000
0101
0000
0000
0001
0010
0000
0001
0000
,
1100
0000
0000
0000
1010
0000
0000
0000
1100
0000
0000
1000
0010
0000
1000
0000
,
0012
0000
0203
0000
0310
0000
1000
0100
,
0020
0230
2300
3001
,
1010
0000
0000
0000
0200
0001
0000
0000
0310
0000
0000
0010
1000
0000
0100
0000
,
0110
0000
0000
0000
0200
0010
0000
0000
1300
0000
0000
1000
0010
0000
0100
0000
,
0102
0000
0023
0000
0130
0000
1000
0001
,
0200
0320
0230
0301
,
1100
0000
0000
0000
0002
1000
0000
0000
0013
0000
0000
0010
0001
0000
0100
0000
,
0110
0000
0000
0000
0002
0100
0000
0000
1003
0000
0000
1000
0100
0000
0010
0000
,
1100
0000
1000
0100
0001
0000
0001
0100
,
1000
0010
0001
1000
0100
0001
1000
0000
,
0101
0000
0001
0100
1000
0000
1000
0100
,
0001
0010
1000
0001
0100
1000
0001
0000
,
1010
0000
1000
0010
0001
0000
0001
0010
,
1000
0100
0001
1000
0010
0001
1000
0000
,
0011
0000
0001
0010
1000
0000
1000
0010
,
0001
0100
1000
0001
0010
1000
0001
0000
,
1100
0000
0000
0000
0001
0200
0000
0000
0310
0000
0000
0010
0100
0000
0001
0000
,
0011
0000
0000
0000
0010
0200
0000
0000
1300
0000
0000
1000
0010
0000
0100
0000
,
0101
0000
0000
0000
0001
2000
0000
0000
3010
0000
0000
0010
1000
0000
0100
0000
,
0110
0000
0000
0000
0010
0002
0000
0000
0103
0000
0000
0100
0010
0000
0100
0000
,
1001
0000
0001
0000
1000
0100
0000
0000
0110
0000
0000
0010
0100
0000
1000
0000
,
1010
0000
0010
0000
0100
0001
0000
0000
0101
0000
0000
0001
0010
0000
0100
0000
,
0110
0000
0010
0000
0100
1000
0000
0000
1010
0000
0000
0010
0100
0000
0001
0000
,
0011
0000
0010
0000
0100
1000
0000
0000
1010
0000
0000
0010
0100
0000
0001
0000
,
1002
0000
0203
0000
0310
0000
1000
0100
,
0020
0230
2300
3001
,
1010
0000
0000
0000
2000
0010
0000
0000
3001
0000
0000
0001
0010
0000
0100
0000
,
0011
0000
0000
0000
0002
0100
0000
0000
1003
0000
0000
1000
0010
0000
0100
0000
,
0102
0000
2003
0000
3010
0000
1000
0100
,
0020
0230
2300
3001
,
1001
0000
0000
0000
2000
0100
0000
0000
3001
0000
0000
0001
1000
0000
0010
0000
,
0110
0000
0000
0000
0020
1000
0000
0000
0130
0000
0000
0100
0001
0000
1000
0000
,
1100
0000
1000
0001
1000
0000
0001
0100
,
1000
0001
0010
1000
0100
0010
0001
0000
,
1001
0000
0001
1000
0001
0000
1000
0100
,
0001
1000
0010
0001
0100
0010
1000
0000
,
1001
0000
1000
0001
1000
0000
0001
0010
,
1000
0001
0100
1000
0010
0100
0001
0000
,
1001
0000
0001
1000
0001
0000
1000
0010
,
0001
1000
0100
0001
0010
0100
1000
0000
,
1001
0000
0000
0000
1000
0200
0000
0000
0310
0000
0000
0010
0001
0000
0100
0000
,
0110
0000
0000
0000
0010
0200
0000
0000
0301
0000
0000
0001
0010
0000
0100
0000
,
1100
0000
0000
0000
0010
2000
0000
0000
3001
0000
0000
0001
0100
0000
0010
0000
,
0101
0000
0000
0000
0010
0002
0000
0000
1003
0000
0000
1000
0100
0000
0010
0000
,
1001
0000
1000
0000
0010
0100
0000
0000
0101
0000
0000
0001
0100
0000
0010
0000
,
1010
0000
1000
0000
0100
0010
0000
0000
0110
0000
0000
0010
0100
0000
1000
0000
,
1100
0000
1000
0000
0010
0100
0000
0000
0101
0000
0000
0001
0100
0000
0010
0000
,
0110
0000
0010
0000
1000
0100
0000
0000
0110
0000
0000
0010
0001
0000
0100
0000
,
2002
0000
0000
0000
,
0000
0000
0000
3003
;
