#TITLE:Special Stage;
#SUBTITLE:(Sonic the Hedgehog 2);
#ARTIST:Sonic Team;
#TITLETRANSLIT:;
#SUBTITLETRANSLIT:;
#ARTISTTRANSLIT:;
#CREDIT:;
#BANNER:;
#BACKGROUND:;
#LYRICSPATH:;
#CDTITLE:;
#MUSIC:16_-_Special_Stage.mp3;
#OFFSET:1.165;
#SAMPLESTART:30.600;
#SAMPLELENGTH:12.500;
#SELECTABLE:YES;
#BPMS:0.000=149.400;
#STOPS:;
#BGCHANGES:;

//---------------dance-single - ----------------
#NOTES:
     dance-single:
     :
     Easy:
     3:
     0.187,0.195,0.069,0.139,0.000: // measure 1
0000
0000
0000
0000
,  // measure 2
0000
0000
0000
0000
,  // measure 3
0000
1000
1000
0000
,  // measure 4
0000
0000
0000
0000
,  // measure 5
0000
0001
0000
1000
,  // measure 6
0000
0010
0000
0200
,  // measure 7
0300
0002
0003
2000
,  // measure 8
3000
0002
0003
2000
,  // measure 9
0000
0010
0000
0001
,  // measure 10
0000
0100
0000
3001
,  // measure 11
0000
0100
0000
0010
,  // measure 12
0000
1000
0000
0020
,  // measure 13
0000
1000
0000
0100
,  // measure 14
0000
1000
0000
0130
,  // measure 15
0000
1001
0000
0010
,  // measure 16
0000
1001
0000
0002
,  // measure 17
0000
0100
0000
0010
,  // measure 18
0000
1000
0000
0103
,  // measure 19
0000
0101
0000
0010
,  // measure 20
0000
1010
0000
0001
,  // measure 21
0000
1000
0000
0001
,  // measure 22
0000
1000
0000
0001
,  // measure 23
0000
1000
0000
0010
,  // measure 24
0000
0010
0000
1000
,  // measure 25
0000
1000
0000
1000
,  // measure 26
0000
0010
0000
0100
,  // measure 27
0100
0100
0000
0001
,  // measure 28
0001
0001
0000
1000
,  // measure 29
0000
1000
0000
0001
,  // measure 30
0001
0001
0000
1000
,  // measure 31
1000
0001
0001
1000
,  // measure 32
1000
0001
0000
2000
,  // measure 33
0000
0001
0000
0100
,  // measure 34
0000
0001
0000
3010
,  // measure 35
0000
1010
0000
0100
,  // measure 36
0000
0101
0000
0002
,  // measure 37
0000
0203
0000
0320
,  // measure 38
0000
2030
0000
3001
,  // measure 39
0000
1000
0000
0010
,  // measure 40
0000
0100
0000
0001
,  // measure 41
0000
1000
0000
0010
,  // measure 42
0000
0100
0000
0001
,  // measure 43
0000
1000
0000
0100
,  // measure 44
0000
0100
0000
0010
,  // measure 45
0000
0010
0000
0001
,  // measure 46
0000
0001
0000
1000
,  // measure 47
0000
1000
0000
0001
,  // measure 48
0000
0100
0000
0100
,  // measure 49
0000
0010
0000
0010
,  // measure 50
0000
1000
0000
1000
,  // measure 51
0000
0001
0000
0001
,  // measure 52
0000
0100
0000
0100
,  // measure 53
0000
0010
0000
0010
,  // measure 54
0000
1000
0000
1000
,  // measure 55
0000
0010
0000
0010
,  // measure 56
0000
2002
0000
0000
,  // measure 57
0000
3003
0000
0000
;

//---------------dance-single - ----------------
#NOTES:
     dance-single:
     :
     Medium:
     5:
     0.357,0.394,0.218,0.099,0.000:
0000
0000
0000
0000
,
0000
0000
0000
0000
,
0000
1000
2000
0000
,
0000
0000
3000
0000
,
0000
0000
0100
0000
0000
0000
0010
1000
,
0010
0100
0001
0020
,
0030
0200
0300
2000
,
3000
0002
0003
1000
,
0100
1000
0000
0001
0000
0100
0000
0010
,
0000
1000
0000
0010
0100
0010
1000
0000
,
0000
0100
0000
0010
,
0000
0001
0000
0100
,
0010
1000
0000
0010
0000
0100
0000
0010
,
0000
1000
0000
0010
0100
0010
1000
0000
,
0001
0100
0010
1000
,
0100
0100
0010
0001
,
0100
0010
0000
1000
0000
0010
0000
0100
,
0000
0001
0000
0010
0100
0010
0200
0000
,
0300
2000
3000
0002
,
0003
0100
0000
0100
,
0010
1000
0000
0010
0000
0100
0000
0001
,
0000
0100
0000
0010
1000
0010
1000
0000
,
0001
0000
1000
0001
1000
0000
0010
0000
,
0100
0000
0001
0100
0001
0000
1000
0000
,
1000
1001
1001
0010
,
0010
0110
0000
1000
,
1000
0101
0101
0010
,
0010
1001
0000
0100
,
0100
1001
1001
0010
,
0010
1001
0000
1100
,
1100
0001
0001
1100
,
1100
0001
0000
1000
,
0100
1000
0000
0010
0000
0100
0000
0001
,
0000
1000
0000
0010
0100
0010
0100
0000
,
0001
1000
0100
0010
,
0001
0100
0010
1000
,
0010
0100
0000
0010
0000
1000
0000
0010
,
0000
0100
0000
0010
1000
0010
0100
0000
,
0001
0000
0010
0000
0100
0000
1000
0001
,
0100
0010
1000
0100
,
0010
0100
0000
1000
0000
0100
0000
0010
,
0000
0100
0000
1000
0001
0100
0001
0000
,
0001
1000
0000
1000
,
1000
0001
0000
1000
,
0001
0100
0000
0010
0000
1000
0000
0001
,
0000
0100
0000
0010
1000
0000
0100
1000
,
0100
1000
0100
1000
0001
0000
0010
0100
,
0010
0000
1000
0000
0001
0000
1000
0100
,
1000
0000
0001
0000
0100
0000
0010
0100
,
0010
0000
1001
0000
0100
0000
1000
0001
,
1000
0000
1001
0000
1001
0000
0010
0100
,
0010
0000
1001
0000
0100
0000
1000
0100
,
1000
0000
1001
0000
1001
0000
0001
0100
,
0001
0000
0101
0000
0000
0000
0010
1000
,
0010
0000
0100
0001
0100
0000
0010
1000
,
0010
1001
0000
2002
,
0000
0000
0000
3003
;

//---------------dance-single - ----------------
#NOTES:
     dance-single:
     :
     Hard:
     7:
     0.507,0.483,0.238,0.417,0.238:
0000
0000
0000
1001
,
1000
0010
0100
0001
0000
0000
1000
0000
0000
0010
0000
0000
,
0000
1000
0002
0000
2000
0000
0000
0000
,
0000
0000
0000
0000
3003
0000
1000
0010
,
0001
0000
0001
0010
1000
0100
0010
0001
,
0010
0000
0000
0000
0100
0000
1000
0000
0100
0000
0000
0000
0010
0000
0000
0010
,
0000
0000
0001
0000
1000
0000
0000
1000
0000
0000
0010
0000
0100
0000
0000
0100
,
0000
0000
0001
0000
1000
0000
0000
1000
0000
0000
0010
0000
0100
0000
0000
0000
,
0001
0200
0000
0320
0000
2030
0000
3200
,
0000
0000
0320
0000
0000
0000
0031
0000
0100
0000
0010
0000
1000
0000
0000
1000
,
0000
0000
0010
0000
0100
0000
0000
0001
0000
0000
0000
0000
1000
0000
0000
1000
,
0000
0000
0010
0000
0100
0000
0000
0001
0000
0000
0000
0000
2000
0000
0000
0000
,
3010
0200
0000
0302
0000
0203
0000
0320
,
0000
2030
0000
3100
0001
0100
1000
0000
,
0000
0001
0100
0010
1000
0100
0010
0001
,
0100
0010
1000
0100
0010
0000
0002
0000
,
1003
0200
0000
2300
0000
3002
0000
0203
,
0000
0000
0302
0000
0000
0000
0013
0000
0100
0000
0010
0000
0100
0000
0000
1000
,
0000
0000
0010
0000
0100
0000
0000
0001
0000
0000
0000
0000
1000
0000
0000
0010
,
0000
0000
0100
0000
0001
0000
0000
0100
0000
0000
0000
0000
0002
0000
0000
0000
,
1003
0020
0000
0230
0000
0302
0000
2003
,
0000
3020
0000
1030
0001
1000
0010
0000
,
0000
0000
1000
0001
1000
0000
0000
0000
0000
0000
0001
0000
0001
0000
0000
0000
,
0000
0000
1000
0001
1000
0000
0000
0000
0000
0000
0000
0000
0001
0000
0010
0000
,
0001
0010
0000
0000
0100
0000
0000
0000
1100
0000
0000
0000
1000
0000
0001
0000
,
1000
0001
0000
0000
2002
0000
0000
0000
3003
0000
0000
0000
0001
0000
0100
0000
,
0010
1000
0000
0000
0001
0000
0100
0000
0010
1000
0000
0000
0001
0000
1000
0000
,
0010
1000
0000
0000
1001
0000
0000
0000
0000
0000
0000
0000
1000
0000
0100
0000
,
1000
0100
0000
0000
1100
0000
0000
0000
1001
0000
0000
0000
0001
0000
0100
0000
,
0010
1000
0000
0000
2020
0000
0000
0000
3030
0000
0000
0000
1000
0000
0100
0000
,
0010
0001
0000
0000
0010
0000
0100
0000
1000
0100
0000
0000
0010
0000
0001
0000
,
0010
0100
0000
0000
2200
0000
0000
0000
3300
0000
0000
0000
2000
0000
0000
0000
,
0001
0001
0000
0100
0000
0010
0000
0001
,
0000
0000
0100
0000
0000
0000
3001
0000
0100
0000
1000
0000
0100
0000
0000
0100
,
0000
0000
0001
0000
0100
0000
0000
0100
0000
0000
0000
0000
0010
0000
0000
1000
,
0000
0000
0010
0000
0100
0000
0000
0001
0000
0000
0000
0000
0200
0000
0000
0000
,
0010
0010
0000
0001
0000
0010
0000
1000
,
0000
0010
0000
0301
0100
1000
0100
0000
,
0000
0000
0001
1000
0001
0000
0000
0000
0000
0000
1000
0000
1000
0000
0000
0000
,
0000
0000
0001
1000
0001
0000
0000
0000
0000
0000
0000
0000
1000
0000
0000
0000
,
0001
0011
0000
0110
0000
1100
0000
1010
,
0000
0000
0101
0000
0000
0000
0100
0000
0010
0000
1000
0000
0100
0000
0000
0100
,
0000
0000
0010
0000
0001
0000
0000
0001
0000
0000
0000
0000
1000
0000
0000
1000
,
0000
0000
0010
0000
0100
0000
0000
0100
0000
0000
0000
0000
2001
0000
0000
0000
,
3010
0110
0000
0101
0000
1010
0000
0101
,
0000
1001
0000
1000
0100
0001
0100
0000
,
0000
0000
1000
0010
1000
0000
0000
0000
0000
0000
0001
0000
0001
0000
0000
0000
,
0000
0000
1000
0001
1000
0000
0000
0000
0000
0000
0000
0000
0001
0000
0010
0000
,
0100
1000
0000
0000
0100
0000
0000
0000
1001
0000
0000
0000
0001
0000
0100
0000
,
0010
1000
0000
0000
2000
0000
0000
0000
3000
0000
0000
0000
0001
0000
0100
0000
,
0010
1000
0000
0000
0100
0000
0010
0000
0001
0010
0000
0000
0100
0000
1000
0000
,
0100
0010
0000
0000
0022
0000
0000
0000
0033
0000
0000
0000
0001
0000
1000
0000
,
0001
1000
0000
0000
0010
0000
0000
0000
1001
0000
0000
0000
0100
0000
0010
0000
,
0001
0100
0000
0000
0020
0000
0000
0000
0030
0000
0000
0000
1000
0000
0010
0000
,
0100
0001
0000
0000
1000
0000
0010
0000
0100
0001
0000
0000
1000
0000
0010
0000
,
0100
0001
0000
0000
2002
0000
0000
0000
3003
0000
0000
0000
2002
0000
0000
0000
,
0000
0000
0000
0000
,
0000
3003
0000
0000
;

//---------------dance-single - ----------------
#NOTES:
     dance-single:
     :
     Challenge:
     9:
     0.636,0.659,0.109,0.476,0.431:
0000
0000
0000
1000
,
0001
0010
0100
1000
0000
0000
0001
0000
0000
2000
0000
0000
,
0000
3001
0200
0000
0320
0000
0000
0000
,
0000
0000
0000
0000
0000
0000
0000
0000
0030
0000
0000
0000
1000
0001
1000
0000
,
0001
0000
0100
0000
0001
0100
0001
0000
1000
0000
0010
0000
1000
0001
1000
0000
,
0001
0000
0100
0000
0010
1000
0010
0000
1000
0000
0001
0000
1000
0000
0000
0100
,
0000
0000
0001
0000
1000
0000
0000
0010
0000
0000
0001
0000
1000
0000
0000
0100
,
0000
0000
0001
0000
1000
0000
0000
0010
0000
0000
0001
0000
2000
0000
0000
0000
,
3010
0020
0000
0230
0000
0302
0000
0023
,
0000
0000
0230
0000
0000
0000
1300
0000
0010
0000
0100
0000
0001
0000
0000
1000
,
0000
0000
0001
0000
0100
0000
0000
0010
0000
0000
0000
0000
1000
0000
0000
0001
,
0000
0000
0100
0000
0010
0000
0000
1000
0000
0000
0001
0100
0002
0000
0000
0000
,
0100
0203
0000
0320
0000
2030
0000
3200
,
0000
0302
0000
0103
1000
0010
0100
0001
,
0100
0000
0010
0100
0010
0000
0100
0000
0001
0000
1000
0100
1000
0000
0001
0000
,
0100
0000
0010
1000
0010
0000
0100
0000
0001
0000
1000
0000
0200
0000
0000
0000
,
0310
0002
0000
2003
0000
3020
0000
0230
,
0000
0000
0302
0000
0000
0000
1003
0000
0100
0000
0001
0000
0100
0000
0000
0010
,
0000
0000
0001
1000
0001
0000
0000
1000
0000
0000
0000
0000
0001
0100
0010
1000
,
0000
0000
0001
0100
0001
0000
0000
1000
0000
0000
0000
0000
1002
0000
0000
0000
,
0100
0203
0000
0320
0000
2030
0000
3200
,
0000
0302
0000
0103
1000
0010
0100
0001
,
1000
0000
0001
0100
0010
0100
0001
0000
1000
0000
0010
0000
1000
0100
1000
0000
,
0001
0000
0010
0100
1000
0100
0010
0000
0001
0000
1000
0010
1000
0000
0010
0000
,
1000
0010
0000
0010
1000
0000
0000
0000
1010
0000
0000
0000
1000
0000
0001
0000
,
0100
0010
0000
0010
1000
0000
0001
0000
0100
0000
0000
0000
0010
0000
1000
0000
,
0100
0010
0000
0010
0001
0000
0010
0000
0100
1000
0000
0000
1000
0001
1000
0000
,
0001
0100
0000
0100
0010
1000
0010
0000
1000
0000
0001
0000
0100
0000
0100
0000
,
0010
1000
0000
0001
0100
0000
0000
0000
1001
0000
0000
0000
1000
0000
1000
0000
,
0001
0100
0000
0010
1000
0000
0001
0000
0100
0000
0000
0000
0001
0000
0001
0000
,
1000
0100
0000
0000
0010
0000
0010
0000
0001
0100
0000
0000
0010
0000
0010
0000
,
0100
0001
0000
0001
1000
0000
0010
1000
0010
0000
1000
0000
1002
0000
0000
0000
,
0100
0100
0000
0010
0000
1000
0000
0100
,
0000
0000
1000
0000
0000
0000
1003
0000
0010
0000
0100
0000
0001
0000
0000
0001
,
0000
0000
1000
0100
0010
0100
1000
0001
0000
0000
1000
0000
0001
0100
0010
1000
,
0000
0000
1000
0100
0010
0100
1000
0001
0000
0000
1000
0010
2000
0000
0000
0000
,
0001
3002
0000
0100
0000
1000
0000
0010
,
0000
0103
0000
1000
0100
0001
0100
1000
,
0010
0000
0001
0010
1000
0000
0010
0000
0100
0000
0001
0100
1000
0000
0100
0000
,
0001
0000
1000
0100
0010
0000
0100
0000
0001
0000
0100
1000
0200
0000
0000
0000
,
0010
0320
0000
0032
0000
2003
0000
3200
,
0000
0000
0302
0000
0000
0000
0103
0000
1000
0000
0010
0000
0100
0000
0000
0001
,
0000
0000
0100
0000
2010
0000
0000
3010
0000
0000
0000
0000
0002
0000
0000
0103
,
0000
0000
0010
0000
2000
0000
0000
3001
0000
0000
1000
0100
1000
0000
0000
0000
,
0001
2000
0000
3020
0000
2030
0000
3200
,
0000
0320
0000
0031
0100
0010
1000
0001
,
1000
0000
0100
0001
0100
0000
1000
0000
0001
0000
0010
1000
0010
0000
0001
0000
,
1000
0000
0100
0010
0100
0000
0001
0000
0100
0000
1000
0000
0001
0000
0100
0000
,
0010
1000
0000
0000
2010
0000
0000
0000
3001
0000
0000
0000
0100
0000
0010
0000
,
0100
0010
0000
0000
1001
0000
0000
0000
1001
0000
0000
0000
0010
0000
0100
0000
,
0010
0100
0000
0000
0010
0000
1000
0000
0010
1000
0000
0000
0010
0000
0100
0000
,
0010
0100
0000
0010
0100
1000
0100
0000
1001
0000
0000
0000
1000
0000
0100
0000
,
0010
0001
0000
0000
1200
0000
0000
0000
1300
0000
0000
0000
1000
0000
0100
0000
,
0010
0001
0000
0001
1000
0000
0010
0000
0100
0000
0000
0000
0001
0000
0100
0000
,
0010
1000
0000
0000
0001
0000
0100
0000
0010
1000
0000
0000
0001
0000
0100
0000
,
0010
0100
0000
0010
0100
0000
1000
0000
0001
0000
1000
0000
2002
0000
0000
0000
,
0000
0000
0000
0000
,
0000
0000
0000
3003
;

//---------------dance-double - ----------------
#NOTES:
     dance-double:
     :
     Hard:
     8:
     0.490,0.434,0.179,0.000,0.119:
10000000
01000000
10000000
01000000
00010000
01000000
00010000
01000000
,
10000000
00100000
10000000
00100000
00010000
00100000
00010000
00100000
,
10000000
00000000
00000000
01000000
00000000
00000000
00010000
00000000
00001000
00000000
00000000
00000010
00000000
00000000
00000001
00000000
,
00001000
00000000
00000000
00001100
00000000
00000000
00001000
00000000
00000001
00000000
00000000
00000101
00000000
00000000
00000001
00000000
,
00001000
00000000
00000100
00000010
00000000
00000001
00000000
00000100
,
00000000
00001000
00000000
00010000
00000000
00100000
10000000
00010000
,
01000000
00010000
10000000
01000000
10000000
00010000
01000000
00010000
,
10000000
01000000
00100000
00010000
00100000
01000000
10000000
00000000
,
00010000
00000000
01000000
00100000
00000000
10000000
00000000
01000000
,
00000000
00010000
00000000
00001000
00000000
00000010
00000001
00001000
,
00000100
00001000
00000001
00000100
00000001
00001000
00000100
00001000
,
00000001
00000100
00000010
00001000
00000010
00000100
00000001
00000000
,
00000010
00000000
00000001
00000010
00000000
00001000
00000000
00010000
,
00000000
00001000
00000000
01000000
00000000
00100000
10000000
01000000
,
00100000
00010000
01000000
01000000
00010000
00100000
01000000
01000000
,
10000000
00100000
01000000
01000000
00100000
10000000
01000000
01000000
,
01000000
00000000
10000000
01000000
00000000
00010000
00000000
00001000
,
00000000
00010000
00000000
00000100
00000000
00000010
00000001
00000100
,
00000010
00001000
00000100
00000100
00001000
00000010
00000100
00000100
,
00000001
00000010
00000100
00000100
00000010
00000001
00000100
00000100
,
00000100
00000000
00000010
00000000
00001000
00000010
00000000
00000000
00001010
00000000
00000000
00000000
00011000
00000000
00000000
00000000
,
01000000
00000000
00100000
00000000
10000000
01000000
00000000
00000000
11000000
00000000
00000000
00000000
00000000
00000000
00000000
00000000
,
00100000
00000000
00010000
00000000
01000000
00100000
00000000
00000000
01000000
00000000
00010000
00000000
00100000
01000000
00000000
00000000
,
00100000
00000000
00010000
00000000
01000000
00100000
00000000
00000000
10010000
00000000
00000000
00000000
00000000
00000000
00000000
00000000
,
00100000
00000000
01000000
00000000
00010000
01000000
00000000
00000000
01010000
00000000
00000000
00000000
00011000
00000000
00000000
00000000
,
00000010
00000000
00000100
00000000
00000001
00000010
00000000
00000000
00000011
00000000
00000000
00000000
00000000
00000000
00000000
00000000
,
00000100
00000000
00001000
00000000
00000010
00000100
00000000
00000000
00000010
00000000
00001000
00000000
00000100
00000010
00000000
00000000
,
00000100
00000000
00001000
00000000
00000010
00000100
00000000
00000000
00001001
00000000
00000000
00000000
00000000
00000000
00000000
00000000
,
00010000
00000000
00100000
01000000
00000000
10000000
00000000
00100000
,
00000000
00010000
00000000
00001000
00000000
00000100
00000001
00001000
,
00000010
00001000
00000001
00000010
00000001
00001000
00000010
00001000
,
00000001
00000010
00000100
00001000
00000100
00000010
00000001
00000000
,
00001000
00000000
00000010
00000100
00000000
00000001
00000000
00000010
,
00000000
00001000
00000000
00010000
00000000
01000000
10000000
00010000
,
00100000
00010000
10000000
00100000
10000000
00010000
00100000
00010000
,
10000000
00100000
01000000
00010000
01000000
00100000
10000000
00000000
,
01000000
00000000
10000000
01000000
00000000
00010000
00000000
00001000
,
00000000
00010000
00000000
00000010
00000000
00000100
00000001
00000010
,
00000100
00001000
00000010
00000010
00001000
00000100
00000010
00000010
,
00000001
00000100
00000010
00000010
00000100
00000001
00000010
00000010
,
00000010
00000000
00000001
00000010
00000000
00001000
00000000
00010000
,
00000000
00001000
00000000
00100000
00000000
01000000
10000000
00100000
,
01000000
00010000
00100000
00100000
00010000
01000000
00100000
00100000
,
10000000
01000000
00100000
00100000
01000000
10000000
00100000
00100000
,
00100000
00000000
01000000
00000000
00010000
01000000
00000000
00000000
01010000
00000000
00000000
00000000
00011000
00000000
00000000
00000000
,
00000010
00000000
00000100
00000000
00000001
00000010
00000000
00000000
00000011
00000000
00000000
00000000
00000000
00000000
00000000
00000000
,
00000100
00000000
00001000
00000000
00000010
00000100
00000000
00000000
00000010
00000000
00001000
00000000
00000100
00000010
00000000
00000000
,
00000100
00000000
00001000
00000000
00000010
00000100
00000000
00000000
00001001
00000000
00000000
00000000
00000000
00000000
00000000
00000000
,
00000100
00000000
00000010
00000000
00001000
00000010
00000000
00000000
00001010
00000000
00000000
00000000
00011000
00000000
00000000
00000000
,
01000000
00000000
00100000
00000000
10000000
01000000
00000000
00000000
11000000
00000000
00000000
00000000
00000000
00000000
00000000
00000000
,
00100000
00000000
00010000
00000000
01000000
00100000
00000000
00000000
01000000
00000000
00010000
00000000
00100000
01000000
00000000
00000000
,
00100000
00000000
00010000
00000000
01000000
00100000
00000000
00000000
10010000
00000000
00000000
00000000
00000000
00000000
00000000
00000000
;
