#TITLE:Pursuit;
#SUBTITLE:(Wanting to Find the Truth);
#ARTIST:岩垂徳行;
#TITLETRANSLIT:;
#SUBTITLETRANSLIT:;
#ARTISTTRANSLIT:Noriyuki Iwadare;
#GENRE:;
#CREDIT:;
#BANNER:Pursuit (Wanting to Find the Truth).png;
#BACKGROUND:Pursuit (Wanting to Find the Truth)-ng.png;
#LYRICSPATH:;
#CDTITLE:;
#MUSIC:Pursuit (Wanting to Find the Truth).ogg;
#OFFSET:-0.646000;
#SAMPLESTART:12.068299;
#SAMPLELENGTH:15.000007;
#SELECTABLE:YES;
#BPMS:0.000000=168.000000
,96.000000=84.000000
,112.000000=168.000000
;
#STOPS:
;
#BGCHANGES:;
#KEYSOUNDS:;
#ATTACKS:;

//---------------dance-single - ----------------
#NOTES:
     dance-single:
     :
     Beginner:
     3:
     0.195914,0.221294,0.026716,0.044526,0.000000,146.000000,3.000000,5.000000,0.000000,0.000000,0.000000,0.195914,0.221294,0.026716,0.044526,0.000000,146.000000,3.000000,5.000000,0.000000,0.000000,0.000000:
0000
0000
0000
0000
,
0000
0000
0000
0000
,
1001
0000
0000
0000
,
0010
0000
0000
0000
,
0000
1000
0000
0001
,
0000
0100
0000
0010
,
0000
0000
1000
0000
0000
0000
0000
0001
,
0000
0000
0000
1000
0000
1000
0000
0000
,
0010
0000
0100
0000
,
0010
0000
1000
0000
,
0001
0000
0100
0000
,
0001
0000
0010
0000
,
0100
0000
1000
0000
,
0100
0000
0010
0000
,
0001
0000
1000
0000
,
0001
0000
0000
1000
0000
1000
0000
0000
,
0001
0000
0100
0000
,
0010
0000
1000
0000
,
0100
0000
0010
0000
,
0001
0000
0100
0000
,
0001
0000
1000
0000
,
0100
0000
1000
0000
,
0010
0000
0100
0000
,
0001
0000
1000
0000
,
0002
0003
0000
1000
,
2000
3000
0000
0010
,
0020
0030
0000
0100
,
0200
0300
0000
0001
,
0001
0000
1000
0000
,
0100
0000
0010
0000
,
0001
0000
0100
0000
,
0001
0000
1000
0000
,
0010
0000
1000
0000
,
0001
0000
0100
0000
,
0001
0000
0010
0000
,
0100
0000
1000
0000
,
1001
0000
0000
0000
,
0000
0100
0100
0000
,
0010
0010
0010
0010
,
0010
0010
0010
0000
,
1000
1000
1000
1000
,
1000
1000
1000
0000
,
0001
0001
0001
0001
,
0001
0001
0001
0000
,
0100
0100
0100
0100
,
0100
0100
0100
0000
,
1001
0000
0000
0000
,
0000
0000
0000
0000
,
0010
0000
0010
0000
,
1000
0000
1000
0000
,
0001
0000
0100
0000
,
0010
0000
1000
0000
,
0001
0000
0000
0000
0100
0000
0000
0010
,
0000
0000
0000
0100
0000
0100
0000
0000
,
0010
0000
1000
0000
,
0001
0000
0100
0000
,
0001
0000
1000
0000
,
0100
0000
1000
0000
,
0010
0000
0100
0000
,
0001
0000
1000
0000
,
0100
0000
1000
0000
,
0010
0000
0000
0100
0000
0100
0000
0000
,
0010
0000
1000
0000
,
0001
0000
0100
0000
,
0001
0000
0010
0000
,
0100
0000
1000
0000
,
0100
0000
0010
0000
,
0001
0000
0100
0000
,
0010
0000
1000
0000
,
0001
0000
1000
0000
,
0002
0000
0000
0000
,
0003
0000
0000
0000
;

//---------------dance-single - ----------------
#NOTES:
     dance-single:
     :
     Easy:
     5:
     0.338397,0.331719,0.080147,0.044526,0.000000,252.000000,9.000000,5.000000,0.000000,0.000000,0.000000,0.338397,0.331719,0.080147,0.044526,0.000000,252.000000,9.000000,5.000000,0.000000,0.000000,0.000000:
0000
0000
0000
0000
,
0000
0000
0000
0000
,
0100
0100
0100
0100
,
0010
0010
0010
0010
,
1000
0100
0010
0001
,
0100
0010
1000
0001
,
0100
0000
0001
0000
0010
0000
0100
0010
,
0000
0000
0000
1001
0000
1001
0000
0000
,
0001
0000
0000
0100
0000
0010
0000
0000
,
1000
0000
0100
0000
0010
0000
0001
0100
,
0001
0100
0010
1000
,
0100
0000
0000
0010
0000
0000
0001
0000
,
0100
0010
1000
0100
,
0010
0001
0100
0010
,
1000
0100
0010
0001
,
1001
0000
0000
0110
0000
0110
0000
0000
,
0010
0000
0000
1000
0000
0100
0000
0000
,
0010
0000
0000
0001
0000
0100
0000
0000
,
0010
0000
0000
0100
0000
0010
0000
0000
,
1000
0001
0010
0100
,
1000
0000
0000
0010
0000
0100
0010
0100
,
0000
0001
0100
0001
0000
1000
0010
0000
,
1000
0000
0001
0000
0010
0000
0100
0010
,
0000
0100
1000
0010
,
0200
0000
0300
0001
,
0010
0100
2000
0000
,
0000
0000
3000
0010
,
0100
0000
0001
0000
0010
0000
0000
0100
,
0020
0000
0030
0100
,
1000
0000
0010
0000
0100
0000
0000
0002
,
0000
0000
0000
0000
,
0003
0000
1000
0000
0001
0000
0000
0100
,
0000
0000
0010
0000
0000
1000
0000
0000
,
0001
0000
1000
0000
0100
0000
0000
0010
,
0000
0000
0001
0000
0010
0000
0000
0100
,
0000
1000
0010
1000
,
0001
0100
0010
1000
,
0100
0010
0001
0100
,
0010
1000
0001
1000
,
0100
0010
1001
0000
,
0000
0000
0000
0010
,
0100
0001
1000
0010
,
0100
0000
0001
0000
0010
0000
0100
0010
,
0000
0001
1000
0010
,
0100
0000
0001
0000
0010
0000
0100
1000
,
0000
0010
1000
0100
,
0010
0000
0001
0000
0100
0000
0010
0100
,
0000
0001
0100
0001
,
1000
0000
0010
0000
1000
0000
0100
0010
,
0000
0000
0001
0000
0010
0000
0000
0001
,
0000
0000
0000
0100
0000
0000
0000
0010
,
0000
0000
1000
0010
,
0100
0001
0010
0001
,
0100
0010
1000
0001
,
0010
0100
1000
0010
,
1000
0001
0000
0010
,
0100
0000
1000
0001
0000
0000
0000
0100
,
0000
0100
0000
0000
0001
0000
0000
0100
,
0000
0010
0000
0000
1000
0000
0001
0000
,
0010
0000
0100
1000
0100
0000
1000
0000
,
0010
0000
0100
0000
0001
0000
0000
0100
,
0000
0000
0010
0000
1000
0000
0000
0001
,
0000
0010
0100
1000
,
0010
0100
0001
0010
,
0100
0000
1000
0000
1001
0000
0000
0110
,
0000
0110
0000
0000
0100
0000
0000
0001
,
0000
0010
0000
0000
0100
0000
0000
1000
,
0000
0010
0000
0000
0100
0000
0000
0001
,
0000
0010
0000
0000
0100
0000
1000
0000
,
0010
0000
0100
0000
0001
0000
0000
0010
,
0000
0100
0010
0100
0000
1000
0100
1000
,
0000
0010
0100
0000
0001
0000
0100
0000
,
0010
0000
1000
0001
0000
0000
0010
0000
,
0100
1000
0002
0000
,
0000
0000
0003
0000
;

//---------------dance-single - ----------------
#NOTES:
     dance-single:
     :
     Medium:
     7:
     0.479608,0.569042,0.284966,0.293871,0.040073,312.000000,32.000000,33.000000,0.000000,0.000000,0.000000,0.479608,0.569042,0.284966,0.293871,0.040073,312.000000,32.000000,33.000000,0.000000,0.000000,0.000000:
0000
0000
0000
0000
,
0000
0000
0000
0000
,
1000
0000
0000
0001
0000
0000
0100
0000
0000
0000
0010
0000
0000
0000
2000
0000
,
0000
0000
0000
3100
0000
0000
0000
0000
,
0010
0000
0000
0001
0000
0000
0100
0000
0000
0000
0010
0000
0000
0000
2000
0000
,
0000
0000
0000
3001
0000
0000
0000
0100
,
0000
0000
0001
0000
0010
0000
0100
1100
,
0000
1000
0000
0101
0000
0101
0000
0000
,
0010
0000
1000
0100
0000
0010
0001
0000
,
0100
0000
0010
0100
0000
0001
1000
0100
,
1000
0000
0100
0010
0000
0001
0010
0000
,
0001
0000
0100
0010
0000
1000
0010
0000
,
0100
0000
0001
0100
0000
0001
1000
0000
,
0100
0000
0010
0100
0000
0010
0001
0000
,
0100
0000
0010
1000
0000
0100
1000
0001
,
1001
0000
0000
0110
0000
0110
0000
0000
,
0010
0000
1000
0010
0000
0100
0001
0000
,
0010
0000
0100
0010
0000
0001
0100
0001
,
1000
0000
0100
0010
0000
0100
1000
0000
,
0010
0200
0302
0023
,
0130
0000
0000
1000
0000
0100
1000
0010
,
0000
0100
0010
1000
0000
0001
0100
0000
,
0002
0000
0023
0000
0230
0000
1300
0100
,
0000
0010
0000
0001
0010
0001
1000
0010
,
0200
0000
0000
0300
0000
0002
2003
3200
,
0320
0000
0000
0000
0030
0002
0203
0320
,
2030
0000
3000
0100
2000
0000
0000
0000
0000
0000
3020
0000
0230
0000
0302
0000
,
2003
0000
0000
3200
0000
0000
0000
0000
0000
0000
0000
0000
0300
1000
0100
0010
,
0002
0000
0000
1003
0000
0000
0020
0000
,
0000
0130
0000
0010
1000
0000
0100
0000
,
0010
0000
0000
0001
0000
0100
0010
0000
,
1000
0000
0000
0100
0000
1000
0100
0000
,
0010
0100
0010
0000
0001
0010
0001
0000
,
0100
0010
0100
0000
0010
1000
0010
0000
,
1000
0100
1000
0000
0001
0010
0001
0000
,
0010
0100
0010
0000
0100
1000
0100
0000
,
0000
1000
0100
1000
0100
1000
0100
1000
,
0000
0001
0010
0001
0010
0001
0010
0000
,
0011
1010
0110
0101
,
0011
0000
0010
0002
0000
0000
0103
0000
,
0110
0011
1100
1010
,
0110
0000
0100
0020
0000
0000
1030
0000
,
0110
0101
0011
0110
,
1010
0000
0010
2000
0000
0000
3100
0000
,
1100
0011
0101
0110
,
1100
0000
0010
0002
0000
0000
0103
0000
,
0010
0000
0000
1000
0000
0000
0100
0000
0000
0000
0010
0000
0000
0000
0002
0000
,
0000
0000
0000
0103
0000
0000
0000
0000
,
0010
0000
0000
0100
0000
0000
0001
0000
0000
0000
0010
0000
0000
0000
0200
0000
,
0000
0000
0000
1300
0000
0000
0000
0000
,
0010
0000
0000
1000
0000
0000
0100
0000
0000
0000
1000
0000
0000
0000
0002
0000
,
0000
0000
0000
0103
0000
0000
0000
0010
,
0000
0000
1000
0000
0100
0000
0010
0011
,
0000
0001
0000
0101
0000
0101
0000
0000
,
0001
0000
0100
0010
0000
1000
0100
0000
,
0010
0000
0001
0010
0000
0001
0100
0010
,
1000
0000
0100
1000
0000
0010
0100
0000
,
0001
0000
0100
0001
0000
1000
0100
0000
,
0010
0000
0001
0010
0000
0001
0100
0000
,
0010
1000
0100
0010
,
0001
0000
0100
0001
0000
1000
0100
1000
,
1100
0000
0000
0101
0000
0101
0000
0000
,
0001
0000
0010
0100
0000
1000
0100
0000
,
0010
0000
0001
0100
0000
0010
1000
0100
,
1000
0000
0010
0100
0000
0001
1000
0000
,
0001
0010
0100
1000
,
0010
0000
0100
0010
0000
0100
0001
1000
,
0000
0001
0010
0100
0000
1000
0100
0000
,
0010
0000
0001
0000
1000
0000
0001
0100
,
0000
0010
0000
1000
0100
0010
0001
1000
,
0002
0000
0000
0000
,
0003
0000
0000
0000
;

//---------------dance-single - ----------------
#NOTES:
     dance-single:
     :
     Hard:
     9:
     0.692061,0.769409,0.222630,0.178104,0.182557,499.000000,25.000000,20.000000,0.000000,0.000000,0.000000,0.692061,0.769409,0.222630,0.178104,0.182557,499.000000,25.000000,20.000000,0.000000,0.000000,0.000000:
0000
0000
0000
0000
,
0000
0000
0000
0000
,
1100
0000
0000
1000
0100
0000
0010
0000
0000
0000
0001
0000
0100
0000
0001
0000
,
0000
0010
0100
1000
0000
0100
1000
0000
,
0101
0000
0000
0001
0100
0000
0001
0000
0000
0000
1000
0000
0100
0000
0010
0000
,
0000
0100
0010
0001
0000
0100
0001
2000
,
0000
0000
3010
0000
0100
0000
0001
0101
,
0000
1000
0001
0000
0010
0000
0011
0000
0000
0000
0220
0000
0000
0000
0330
0000
,
0010
0001
0100
0001
1000
0001
0010
0100
,
1000
0010
0100
0001
0010
0100
1000
0001
,
1000
0100
0010
0001
0100
0001
0010
0100
,
1000
0010
0100
0010
0100
0001
0010
0001
,
1000
0001
0010
0100
1000
0001
0100
0001
,
0010
0100
1000
0100
0010
0001
0100
0010
,
1000
0001
0010
0100
1000
0010
0100
0010
,
1010
0000
0000
0101
0000
0101
0001
1000
,
0100
0010
0100
1000
0010
0100
0001
0010
,
0100
1000
0001
1000
0010
0100
0001
0100
,
0010
1000
0100
0010
0100
1000
0010
0100
,
0001
0010
0001
0010
0100
1000
0100
0010
,
0001
0100
0001
1000
0001
0010
0100
2000
,
0000
3100
0010
0001
0000
1000
0001
0000
,
0100
0010
1000
0010
0100
0001
1000
0002
,
0000
0000
1003
0000
0001
0000
0010
0000
0100
0000
1000
0000
0001
1000
0001
1000
,
0002
0000
1000
0000
0103
0010
1000
0100
,
2000
0000
0010
0000
3001
0100
0010
1000
,
0200
0000
0000
1300
0200
0000
0000
0000
0310
0000
0001
0000
0100
0000
0010
0000
,
2000
0000
0000
0000
0000
0000
3020
0000
0000
0000
0000
0000
0000
0000
0130
0000
0000
0000
0001
0000
1000
0000
0001
0000
0010
0000
0001
1000
0001
1000
0001
1000
,
0010
0000
0100
0110
0000
0010
1010
0000
,
1000
1100
0000
0100
0011
0000
0101
0000
,
0001
1000
0100
0010
0100
1000
0010
0100
,
0001
1000
0001
0010
0001
0100
0010
0000
,
0100
0010
0100
0000
0001
0000
1000
0000
0010
1000
0010
0000
1000
0000
0001
0000
,
0010
0100
0010
0000
0001
0000
0100
0000
0010
1000
0010
0000
1000
0000
0001
0000
,
0010
0001
0010
0000
0100
0000
1000
0000
0010
1000
0010
0000
1000
0000
0001
0000
,
0010
0100
0010
0000
0001
0000
1000
0000
0010
0000
1000
0000
0001
1000
0001
0000
,
0000
0010
0100
1000
0100
0010
0001
0010
,
0000
0001
0011
0010
0110
0100
1100
1000
,
0010
1000
0010
0000
0100
0000
0001
0000
1000
0001
0010
0000
0100
0000
1000
0000
,
0100
0010
0100
0000
0010
0000
0002
0000
0000
0000
0000
0000
0103
0000
0000
0000
,
0010
1000
0010
0000
0100
0000
0001
0000
0010
0100
0010
0000
0100
0000
1000
0000
,
0010
0100
0010
0000
1000
0000
0002
0000
0000
0000
0000
0000
0103
0000
0000
0000
,
0001
0100
0001
0000
1000
0000
0100
0000
1000
0100
1000
0000
0001
0000
0010
0000
,
0001
0010
0001
0000
0010
0000
0200
0000
0000
0000
0000
0000
1300
0000
0000
0000
,
0010
1000
0010
0000
1000
0000
0001
0000
0100
0001
0100
0000
0001
0000
0010
0000
,
0100
0010
0100
0000
1000
0000
0002
0000
0000
0000
0000
0000
0103
0000
0000
0000
,
0101
0000
0000
1000
0001
0000
0010
0000
0000
0000
0100
0000
0010
0000
0001
0000
,
0000
1000
0010
0100
0000
0010
1000
0000
,
1001
0000
0000
0100
0001
0000
0010
0000
0000
0000
0100
0000
1000
0000
0100
0000
,
0000
0010
0001
0100
0000
0010
1000
0000
,
1010
0000
0000
1000
0010
0000
0100
0000
0000
0000
0001
0000
0010
0000
0100
0000
,
0000
1000
0100
0010
0000
0001
0010
0200
,
0000
0000
1300
0000
0100
0000
0010
0011
,
0000
0010
0001
0000
1000
0000
1001
0000
0000
0000
2002
0000
0000
0000
3003
0000
,
0100
0010
1000
0001
0100
0001
1000
0001
,
0010
0100
1000
0100
0010
0001
0100
0010
,
1000
0001
0100
0001
0010
0100
1000
0100
,
0010
0001
0100
0010
1000
0010
0100
0001
,
0010
0001
0010
0100
1000
0010
0100
0010
,
1000
0001
0100
0010
1000
0001
0010
0100
,
1000
0100
0010
0001
0100
0001
0010
0100
,
0110
0000
0000
0011
0000
1001
1000
0001
,
0100
0001
0010
0100
1000
0010
0100
0001
,
1000
0001
0100
0001
0010
0100
1000
0100
,
0010
0001
0100
0010
1000
0010
0100
0001
,
1000
0001
0010
0100
1000
0100
0010
0001
,
2000
0000
0000
0000
0000
3000
0001
0000
0000
0000
0100
0000
0001
0000
1000
0000
,
0000
0100
0010
0001
0000
1000
0010
0000
,
0100
0010
1000
0100
0010
0001
1000
0100
,
0000
0000
1000
0000
0001
0000
1000
0000
0100
0000
0010
0000
0001
1000
0001
1000
,
0002
0000
0000
0000
,
0000
0000
0000
0000
,
0003
0000
0000
0000
;

//---------------dance-single - ----------------
#NOTES:
     dance-single:
     :
     Challenge:
     12:
     1.000000,1.000000,0.204820,0.890520,0.819278,692.000000,23.000000,100.000000,0.000000,0.000000,0.000000,1.000000,1.000000,0.204820,0.890520,0.819278,692.000000,23.000000,100.000000,0.000000,0.000000,0.000000:
// measure 0
0000
0000
0000
0000
,  // measure 1
0000
0000
0000
0000
,  // measure 2
1001
0000
1000
0100
1000
0000
0100
0010
0100
0000
0010
0001
0010
0000
0001
0100
,  // measure 3
0001
0000
0100
0010
1000
0000
0010
0100
0010
0000
1000
0001
0100
0000
0001
1000
,  // measure 4
0001
0000
0010
0100
1000
0000
0100
0010
0001
0000
0010
0001
1000
0000
0001
0100
,  // measure 5
0010
0000
1000
0010
0100
0000
0001
1000
0001
0000
0100
0001
0010
0000
0100
1000
,  // measure 6
0100
0000
0010
0001
1000
0000
0001
0100
0010
0000
0010
0100
0010
0000
0110
0000
,  // measure 7
0000
1000
0010
0000
0100
0000
0001
0100
0001
0000
1000
0001
0010
0100
1000
0010
,  // measure 8
0200
0310
1000
0002
0103
0002
0013
0100
,  // measure 9
2000
3100
0010
0001
1000
0001
0200
0320
,  // measure 10
2030
3001
0100
0001
0010
0100
1000
0100
,  // measure 11
0010
0001
1000
0002
0103
0001
0020
0130
,  // measure 12
2000
3010
0100
0020
1030
0001
0200
0301
,  // measure 13
0020
0031
2000
3100
0020
0130
2000
3010
,  // measure 14
0200
0301
1000
0001
0100
0001
0010
0100
,  // measure 15
0110
0000
0000
0000
1000
0000
1001
0000
0000
0000
1000
0001
0100
0001
0010
0000
,  // measure 16
0200
0000
0310
0000
0001
0000
0200
0000
0301
0000
2000
0000
3001
0000
0010
0100
,  // measure 17
2000
3010
0100
0020
1030
0002
0103
0002
,  // measure 18
0023
0130
1000
0200
0310
0200
0310
0001
,  // measure 19
2000
3001
0200
0301
2000
3010
0200
0310
,  // measure 20
2000
0000
3010
0000
0100
0000
0002
0000
1003
0000
0002
0000
0023
0000
0230
0300
,  // measure 21
1100
0000
0020
0000
0032
0003
0012
0000
1003
0000
0002
0000
0203
0000
0310
0000
,  // measure 22
2000
3010
0200
0301
0020
0130
2000
3200
,  // measure 23
0300
0000
0010
0000
0001
0000
1000
0000
0001
0100
0001
1000
0001
0010
0100
1000
,  // measure 24
0020
0000
0000
0000
0000
0030
0100
0010
1000
0000
0100
0000
0010
0000
0001
0000
0100
0000
0010
0000
1000
0000
0100
0000
0010
0000
0001
0000
0010
0000
0100
0000
,  // measure 25
2000
0100
0000
3100
1000
0010
0100
0001
0001
1000
0001
0010
0100
1000
0100
0010
,  // measure 26
0002
0000
0000
0000
0003
0000
0100
0001
0100
0000
0010
0000
1000
0000
0100
0000
0000
0000
0010
0000
0100
0000
0010
0000
0001
0000
0010
0000
0001
0000
1000
0000
,  // measure 27
0010
0000
0100
0000
0000
0000
0100
0000
0010
0000
1000
0000
0001
0000
0100
0000
0000
0000
0001
0000
1000
0000
0001
0000
0010
0000
0100
1000
0100
0010
0001
1000
,  // measure 28
0001
0100
0010
1010
0000
1000
1010
0100
,  // measure 29
0001
0011
0000
0010
1100
0100
0011
0000
,  // measure 30
1000
0001
0100
0001
0010
0100
1000
0010
,  // measure 31
0100
0010
1000
0001
0100
0001
1000
0100
,  // measure 32
0010
0001
0010
0001
0100
0010
1000
0010
0100
0001
0100
0001
1000
0001
0010
0100
,  // measure 33
1000
0100
1000
0100
0010
0100
1000
0001
0100
0010
0100
0010
1000
0010
0100
0001
,  // measure 34
1000
0001
1000
0001
0100
0010
0100
0010
1000
0010
1000
0010
0100
0001
0100
0001
,  // measure 35
0010
0001
1000
0100
0010
0100
1000
0001
0010
0100
1000
0010
0100
0001
0010
0100
,  // measure 36
0010
0000
0100
0010
0100
1000
0001
0100
0001
1000
0001
0010
0100
1000
0100
0000
,  // measure 37
0000
1000
0110
0010
0011
0001
1001
1000
,  // measure 38
0010
1000
0010
0100
0001
1000
0001
1000
0001
0010
0100
0010
0100
1000
0100
0010
,  // measure 39
0001
0010
0001
1000
0001
0100
0002
0000
0000
0000
0000
0000
0103
0000
0000
0000
,  // measure 40
0010
1000
0010
0100
0001
1000
0001
0010
0100
1000
0100
0010
0001
0100
0001
1000
,  // measure 41
0001
0010
0100
1000
0010
0100
0020
0000
0000
0130
0010
0000
1000
0000
0000
0000
,  // measure 42
0001
1000
0001
0100
0001
0010
0100
1000
0100
0010
0001
1000
0001
0100
0010
1000
,  // measure 43
0010
0100
0001
1000
0001
0010
0200
0000
0000
0000
0000
0000
1300
0000
0000
0000
,  // measure 44
0100
1000
0010
0100
0001
1000
0001
0010
0100
1000
0100
0010
0001
1000
0001
0100
,  // measure 45
0010
1000
0010
0100
0001
1000
0001
0010
0001
0010
0001
0010
0001
0000
0000
0000
,  // measure 46
1001
0000
0000
0001
1000
0000
0100
0000
0000
0000
0010
0000
0000
0000
2002
0000
,  // measure 47
0000
0000
3003
0110
0000
0000
0000
0000
,  // measure 48
0101
0000
0001
0100
0010
0000
1000
0001
1000
0000
0100
0010
0001
0000
0010
0100
,  // measure 49
1000
0000
0001
1000
0010
0000
1000
0100
1000
0000
0001
0010
0100
0000
0010
0001
,  // measure 50
0100
0000
0010
0100
0001
0000
1000
0010
1000
0000
0001
1000
0100
0000
0010
0001
,  // measure 51
0010
0000
0100
1000
0001
0000
1000
0010
1000
0000
0001
0100
0010
0000
0100
0001
,  // measure 52
0100
0000
0010
1000
0001
0000
1000
0100
0010
0000
0001
0010
0100
0000
1100
0000
,  // measure 53
0000
1000
0100
0000
0010
0000
0001
1000
0001
0000
0010
0001
0010
0100
1000
0010
,  // measure 54
0200
0301
0010
0200
1300
0020
1030
0001
,  // measure 55
2000
3100
0010
0001
0100
0010
0200
0302
,  // measure 56
0023
0130
1000
0010
1000
0001
1000
0100
,  // measure 57
0010
0001
0100
0020
0130
0001
2000
3010
,  // measure 58
2000
3100
0010
0002
0013
0100
2000
3010
,  // measure 59
0200
0301
0020
0130
0020
0031
0200
0310
,  // measure 60
2000
3001
1000
0100
0010
0001
0010
0100
,  // measure 61
1100
0000
0000
0000
1000
0000
1001
0000
0000
0000
0001
0100
0010
0100
0001
0000
,  // measure 62
2000
0000
3010
0000
1000
0000
0002
0000
0013
0000
0200
0000
0310
0000
0001
0100
,  // measure 63
0020
1030
0001
2000
3100
0020
0031
0200
,  // measure 64
0320
1030
0100
0020
0031
0010
0200
1300
,  // measure 65
0020
0130
0001
0100
0020
1030
0200
0310
,  // measure 66
0002
0000
0013
0000
0100
0000
2000
0000
3100
0000
0020
0000
0230
0000
2300
3000
,  // measure 67
0110
0000
0200
0000
0302
0003
1002
0000
1003
0000
0020
0000
2030
0000
3100
0000
,  // measure 68
0020
0031
0020
0130
2000
3001
0200
0302
,  // measure 69
0003
0000
1000
0000
0010
0000
0100
0000
0001
0010
0001
1000
0100
0010
0001
1000
,  // measure 70
0002
0000
0000
0000
,  // measure 71
0000
0000
0000
0000
,  // measure 72
0003
0000
0000
0000
;
