#VERSION:0.83;
#TITLE:Piano Sonata D No. 4;
#SUBTITLE:;
#ARTIST:Tenpei Sato;
#TITLETRANSLIT:;
#SUBTITLETRANSLIT:;
#ARTISTTRANSLIT:;
#GENRE:;
#ORIGIN:;
#CREDIT:;
#BANNER:Piano Sonata D No.4-bn.png;
#BACKGROUND:Piano Sonata D No.4-bg.png;
#PREVIEWVID:;
#JACKET:Piano Sonata D No.4-jacket.png;
#CDIMAGE:;
#DISCIMAGE:;
#LYRICSPATH:;
#CDTITLE:cdtitle.png;
#MUSIC:Piano Sonata D No 4.ogg;
#OFFSET:-6.331001;
#SAMPLESTART:89.425003;
#SAMPLELENGTH:18.500000;
#SELECTABLE:YES;
#BPMS:0.000=156.000;
#STOPS:;
#DELAYS:;
#WARPS:;
#TIMESIGNATURES:0.000=4=4;
#TICKCOUNTS:0.000=4;
#COMBOS:0.000=1;
#SPEEDS:0.000=1.000=0.000=0;
#SCROLLS:0.000=1.000;
#FAKES:;
#LABELS:0.000=Song Start;
#BGCHANGES:;
#KEYSOUNDS:;
#ATTACKS:
;

//---------------dance-single - ----------------
#NOTEDATA:;
#CHARTNAME:;
#STEPSTYPE:dance-single;
#DESCRIPTION:;
#CHARTSTYLE:;
#DIFFICULTY:Hard;
#METER:8;
#RADARVALUES:0.515208,0.589776,0.392639,0.552603,0.189048,496.000000,442.000000,54.000000,76.000000,0.000000,0.000000,0.000000,0.000000,0.000000,0.515208,0.589776,0.392639,0.552603,0.189048,496.000000,442.000000,54.000000,76.000000,0.000000,0.000000,0.000000,0.000000,0.000000;
#CREDIT:;
#NOTES:
0000
0000
0000
0000
,
0000
0000
0000
0000
,
0000
0000
0000
0000
,
0000
0000
0000
0000
,
0000
0000
0000
0000
,
1001
0000
1000
0100
1000
0001
0010
0001
,
0100
0000
0010
1000
0010
1000
0010
0000
1001
0000
0000
0000
0001
0000
0010
0000
,
0001
0000
1000
0000
0100
0000
1000
0000
0010
0000
0100
0001
0100
0000
0001
0000
,
0011
0000
0001
0010
1000
0010
0001
0010
,
0100
0000
1000
0010
1000
0010
1000
0000
1010
0000
0000
0000
1000
0000
0010
0000
,
0001
0000
0010
0000
1000
0000
0010
0000
0100
0000
0001
1000
0001
1000
0001
0000
,
0020
0000
0000
0000
,
0030
0000
0100
0010
0100
0000
0000
0000
1001
0000
0000
0000
0100
0000
0110
0000
,
0010
0100
0101
0001
1000
0100
0001
0100
,
0001
1000
0010
1000
0010
0001
0100
0010
,
0100
0000
0010
0000
1000
0000
0001
0100
0002
0000
0000
0000
0003
0000
2100
0000
,
0000
0000
3010
0000
0000
0102
0000
0000
,
0013
0000
0100
0010
0100
0010
0100
0000
0100
0000
1000
0000
0010
0000
1020
0000
,
0000
0000
0130
0000
0000
0021
0000
0000
,
0130
0000
0010
0100
0010
0100
0010
0000
0010
0000
0001
0100
0001
0000
0201
0000
,
0000
0000
0310
0000
0000
1200
0000
0000
,
0310
0000
0001
1000
0001
1000
0001
0000
0001
0000
0100
0000
0010
0000
0120
0000
,
0000
0000
1030
0000
0000
2001
0000
0000
,
3100
0000
0010
0001
0010
0001
0010
0000
0010
0000
0001
0000
1000
0000
1200
0000
,
0000
0000
0310
0000
0001
0201
0000
0000
,
0310
0000
1000
0001
1000
0001
1000
0000
1000
0000
0001
0000
0100
0000
0102
0000
,
0000
0000
1003
0000
0100
0210
0000
0000
,
0310
0000
0001
0100
0001
0100
0001
0000
0001
0000
1000
0000
0001
0000
0021
0000
,
0000
0000
0130
0000
0100
2100
0000
0000
,
3010
0000
0100
0010
0100
0010
0100
0000
0100
0000
0001
0000
1000
0000
2010
0000
,
0000
0000
3001
0000
0010
0021
0000
0000
,
0130
0000
1000
0100
1000
0100
1000
0000
1000
0000
0100
0000
0010
0000
0001
0000
,
1000
0001
0100
1000
0100
1000
0100
0001
,
0010
1000
0010
0001
0010
0100
0010
0100
,
2000
0000
3001
0200
0000
0310
2000
0000
,
3002
0023
0230
2300
,
3001
0100
0001
1000
0100
1000
0010
0100
,
0001
0010
0100
1000
0001
0010
0100
1000
,
0002
0000
0000
0203
0000
0000
0320
0000
,
1030
0100
0010
0001
1000
0010
0100
0001
0010
0100
1000
0010
,
2000
0000
0000
3200
0000
0000
0320
0000
,
0031
0100
0001
1000
0100
0010
0100
1000
0001
0010
0100
1000
,
0002
0000
0000
2003
0000
0000
3020
0000
,
0000
0230
0320
2030
,
3001
0000
0100
0101
0000
0000
2002
0000
,
3003
0000
2200
0000
3300
0000
1000
0001
,
0200
0000
0000
0302
0000
0000
0023
0000
,
0032
0000
0203
0000
0320
0000
1030
0001
,
2000
0000
0000
3200
0000
0000
0320
0000
,
0032
0000
2003
0000
3020
0000
0230
0300
,
0101
0000
0000
1001
0000
0000
2200
0000
,
3300
1000
0100
0010
,
0011
0000
0000
0000
0000
0000
1001
0000
0000
0000
1000
0001
1000
0001
1000
0001
,
0000
2002
0000
3003
,
0010
0000
1000
0000
0010
0000
0100
0000
0010
0000
0010
0000
0100
0000
0001
1000
,
0001
0021
0230
2300
,
3020
0000
0000
0000
0130
0000
0101
0000
0000
0000
0011
0000
0000
0000
0100
0010
,
0100
0000
1000
0010
0100
0001
1000
0001
,
0010
0000
0001
0000
0100
0000
0010
0000
0100
0000
0100
0000
0010
0000
1000
0001
,
1000
2100
3002
0203
,
0320
0000
0000
1000
1000
0000
0030
0000
,
0001
0010
0100
1000
0010
0100
0001
1000
,
0001
0000
1000
0000
0100
0000
1000
0000
0001
0000
0001
0000
0010
0000
0100
1000
,
0100
1200
0302
0203
,
1300
0000
0001
0000
0100
0000
0001
0000
1000
0000
1000
0000
0100
0000
0010
0100
,
0010
0021
2030
3020
,
0031
0100
0010
1000
0000
1000
0100
0010
,
0001
1000
0000
1000
0001
0100
0010
0100
,
0001
0010
0100
1000
0000
1100
0000
1010
,
0000
0000
0101
0000
0000
0000
0011
0000
0000
0000
0220
0000
0330
0000
1000
0001
,
1000
0010
0100
0001
0010
0100
1000
0001
,
0010
0100
0010
0001
1000
0100
0010
0001
,
0100
0010
1000
0100
0000
1100
0000
0011
,
0000
0000
0101
0000
0000
0000
1010
0000
0000
0000
2002
0000
3003
0000
0001
0100
,
0001
0010
1000
0001
0100
1000
0001
0010
,
1000
0010
0100
0010
0011
0000
1100
0000
,
0000
1001
0000
0000
0101
0000
0000
0110
,
0000
1010
0000
0000
;

//---------------dance-single - ----------------
#NOTEDATA:;
#CHARTNAME:;
#STEPSTYPE:dance-single;
#DESCRIPTION:;
#CHARTSTYLE:;
#DIFFICULTY:Medium;
#METER:6;
#RADARVALUES:0.399910,0.449353,0.392639,0.319928,0.029084,385.000000,331.000000,54.000000,44.000000,0.000000,0.000000,0.000000,0.000000,0.000000,0.399910,0.449353,0.392639,0.319928,0.029084,385.000000,331.000000,54.000000,44.000000,0.000000,0.000000,0.000000,0.000000,0.000000;
#CREDIT:;
#NOTES:
// measure 0
0000
0000
0000
0000
,  // measure 1
0000
0000
0000
0000
,  // measure 2
0000
0000
0000
0000
,  // measure 3
0000
0000
0000
0000
,  // measure 4
0000
0000
0000
0000
,  // measure 5
0101
0000
0001
0100
0001
0000
1000
0000
,  // measure 6
0100
0000
0010
0010
0011
0000
0001
1000
,  // measure 7
0001
0000
0100
0000
0010
1000
0010
1000
,  // measure 8
1001
0000
1000
0100
1000
0000
0001
0000
,  // measure 9
0010
0000
0100
0100
1100
0000
1000
0001
,  // measure 10
1000
0000
0010
0000
0100
0001
0100
0001
,  // measure 11
2000
0000
0000
0000
,  // measure 12
3000
0000
1001
0000
0100
0001
0100
0010
,  // measure 13
0000
0010
1000
0000
1000
0001
1000
0001
,  // measure 14
1000
0100
0010
0001
0010
0002
0000
0000
,  // measure 15
0000
0000
0000
0000
0003
0000
0000
2010
,  // measure 16
0000
0000
3100
0000
0010
0002
0000
0000
,  // measure 17
1003
0000
0000
1000
0001
1000
0000
0102
,  // measure 18
0000
0000
1003
0000
0001
0020
0000
0000
,  // measure 19
0130
1000
0100
1000
0100
0000
0000
1002
,  // measure 20
0000
0000
0103
0000
0010
2000
0000
0000
,  // measure 21
3001
0000
0000
0100
0010
0100
0000
2010
,  // measure 22
0000
0000
3001
0000
1000
0200
0000
0000
,  // measure 23
0310
0001
1000
0001
1000
0000
0000
1020
,  // measure 24
0000
0000
0130
0000
0001
2000
0000
0000
,  // measure 25
3001
0000
0000
1000
0100
1000
0000
1002
,  // measure 26
0000
0000
0103
0000
0010
2000
0000
0000
,  // measure 27
3100
0010
0001
0010
0001
0000
0000
2100
,  // measure 28
0000
0000
3010
0000
0100
0020
0000
0000
,  // measure 29
1030
0000
0000
0001
1000
0001
0000
1020
,  // measure 30
0000
0000
0130
0000
0001
2000
0000
0000
,  // measure 31
3001
0010
0100
0010
0100
1000
0100
1000
,  // measure 32
0000
1000
0010
0001
0010
1000
0010
0100
,  // measure 33
0001
1000
0001
0000
0010
0100
0010
0000
,  // measure 34
0002
0000
0000
0023
0000
0000
0230
0000
,  // measure 35
1300
0010
0001
0010
,  // measure 36
1010
0000
0000
0101
0000
0000
1001
0000
,  // measure 37
0001
0010
0001
0010
0100
1000
0100
1000
,  // measure 38
0002
0000
0000
0203
0000
0000
0302
0000
,  // measure 39
1003
0000
0000
1000
0100
0000
0000
0100
0010
0000
0000
0010
0001
0000
0000
0001
,  // measure 40
2000
0000
0000
3020
0000
0000
2030
0000
,  // measure 41
3001
0000
0000
0001
0010
0000
0000
0010
0100
0000
0000
0100
1000
0000
0000
1000
,  // measure 42
0002
0000
0000
2003
0000
0000
3002
0000
,  // measure 43
0103
0010
1000
0001
,  // measure 44
0001
0000
0000
0011
0000
0000
2002
0000
,  // measure 45
3003
0000
0220
0000
0330
0000
0100
0010
,  // measure 46
0200
0000
0000
0302
0000
0000
2003
0000
,  // measure 47
3010
0000
0001
0000
0010
0000
1000
0001
,  // measure 48
2000
0000
0000
3200
0000
0000
0320
0000
,  // measure 49
0031
0010
1000
0010
,  // measure 50
0011
0000
0000
1100
0000
0000
2002
0000
,  // measure 51
3003
0001
0100
0010
,  // measure 52
1010
0000
0000
1100
0000
0100
0010
0100
,  // measure 53
0010
0220
0000
0330
,  // measure 54
1000
0000
0001
0010
0001
0100
0000
0100
,  // measure 55
0010
1010
0011
1010
,  // measure 56
1000
0000
0001
0010
0001
0000
0010
0100
,  // measure 57
0010
1100
0101
1100
,  // measure 58
0001
0000
1000
0010
1000
0001
0000
0001
,  // measure 59
0010
0110
1001
1010
,  // measure 60
0100
0000
0001
0010
0000
0011
0000
0101
,  // measure 61
0100
0010
1000
0001
,  // measure 62
1000
0010
1000
0000
0001
0010
0000
0010
,  // measure 63
0100
0000
1000
0001
0000
0001
1000
0000
,  // measure 64
0010
0100
0010
0000
0100
0001
0000
0001
,  // measure 65
1000
0000
0010
1000
0000
1000
0100
0000
,  // measure 66
0010
0001
0010
0100
0000
1000
0010
1000
,  // measure 67
0010
0100
0000
0001
0010
0000
0001
0000
,  // measure 68
0010
0000
0100
1100
0000
1010
0000
0011
,  // measure 69
0000
0101
0000
0110
0000
1001
0000
0000
,  // measure 70
0010
1000
0001
0100
0000
0001
0010
0001
,  // measure 71
1000
0100
0000
0010
0001
0000
0010
0000
,  // measure 72
0001
0000
0100
0101
0000
1100
0000
1010
,  // measure 73
0000
0011
0000
0110
0000
1001
0000
0000
,  // measure 74
0100
0000
0100
0001
0000
0001
1000
0000
,  // measure 75
0100
0010
0110
0110
,  // measure 76
0000
1100
0000
0000
1001
0000
0000
0101
,  // measure 77
0000
1001
0000
0000
;

//---------------dance-single - ----------------
#NOTEDATA:;
#CHARTNAME:;
#STEPSTYPE:dance-single;
#DESCRIPTION:;
#CHARTSTYLE:;
#DIFFICULTY:Easy;
#METER:4;
#RADARVALUES:0.259682,0.280846,0.079982,0.298115,0.000000,250.000000,239.000000,11.000000,41.000000,0.000000,0.000000,0.000000,0.000000,0.000000,0.259682,0.280846,0.079982,0.298115,0.000000,250.000000,239.000000,11.000000,41.000000,0.000000,0.000000,0.000000,0.000000,0.000000;
#CREDIT:;
#NOTES:
// measure 0
0000
0000
0000
0000
,  // measure 1
0000
0000
0000
0000
,  // measure 2
0000
0000
0000
0000
,  // measure 3
0000
0000
0000
0000
,  // measure 4
0000
0000
0000
0000
,  // measure 5
1000
0001
0001
0010
,  // measure 6
0001
1000
0000
0001
,  // measure 7
0001
0100
0010
1000
,  // measure 8
0001
1000
1000
0001
,  // measure 9
0010
0001
0000
0100
,  // measure 10
0100
0010
1000
0100
,  // measure 11
2000
0000
0000
0000
,  // measure 12
3000
0000
0000
0000
0001
0000
0000
0100
,  // measure 13
0000
0010
1000
0100
,  // measure 14
0010
0001
2000
0000
,  // measure 15
0000
0000
0000
0000
3000
0000
0000
0002
,  // measure 16
0000
0000
0103
0000
0000
0200
0000
0000
,  // measure 17
0310
0000
0000
0000
0010
0000
0000
2000
,  // measure 18
0000
0000
3001
0000
0000
0002
0000
0000
,  // measure 19
1003
0000
0000
0000
0010
0000
0010
0200
,  // measure 20
0000
0000
0301
0000
0000
0002
0000
0000
,  // measure 21
1003
0000
0000
0000
0001
0000
0000
2000
,  // measure 22
0000
0000
3100
0000
0000
0200
0000
0000
,  // measure 23
0310
0000
0000
0000
0001
0000
0000
0200
,  // measure 24
0000
0000
0310
0000
0000
0020
0000
0000
,  // measure 25
1030
0000
0000
0001
0000
0100
0000
0002
,  // measure 26
0000
0000
1003
0000
0000
2000
0000
0000
,  // measure 27
3001
0000
0000
0000
1000
0000
0000
0200
,  // measure 28
0000
0000
0310
0000
0000
0200
0000
0000
,  // measure 29
1300
0000
1000
0000
0100
0000
0100
0020
,  // measure 30
0000
0000
0031
0000
0000
0002
0000
0000
,  // measure 31
1003
0000
0010
0000
0010
0100
0100
0200
,  // measure 32
0000
0301
0001
1000
,  // measure 33
1000
0100
0010
0001
,  // measure 34
1000
0000
0000
1010
0000
0000
1000
0000
,  // measure 35
0001
0100
0001
0100
,  // measure 36
0001
0000
0000
0011
0000
0000
0001
0000
,  // measure 37
1000
0100
0010
0001
,  // measure 38
2000
0000
3020
0000
,  // measure 39
0130
0001
1000
0001
,  // measure 40
2000
0000
3200
0000
,  // measure 41
0310
0001
1000
0001
,  // measure 42
0200
0000
0320
0000
,  // measure 43
1030
0100
1000
0001
,  // measure 44
0100
0000
0000
0010
0000
0000
0110
0000
,  // measure 45
0000
0000
1001
0000
0000
0000
0001
0001
,  // measure 46
0002
0000
0023
0000
,  // measure 47
0130
1000
0001
1000
,  // measure 48
0002
0000
0203
0000
,  // measure 49
0310
1000
0001
1000
,  // measure 50
1100
0000
0000
1100
0000
0000
1001
0000
,  // measure 51
0000
0001
0100
0010
,  // measure 52
1000
0000
0000
1000
0000
0000
1000
0000
,  // measure 53
0000
2002
0000
3003
,  // measure 54
0001
0100
0100
0010
,  // measure 55
0010
1000
0100
0010
,  // measure 56
0002
0000
0000
0100
0203
0000
0000
0010
,  // measure 57
0320
1030
0001
1000
,  // measure 58
1000
0100
0100
0010
,  // measure 59
0010
0001
0100
0010
,  // measure 60
2000
0000
0000
0100
0000
0100
0000
0100
,  // measure 61
3100
0010
0001
0010
,  // measure 62
0100
0000
1000
0000
1000
0001
0000
0001
,  // measure 63
1000
0010
0100
0001
,  // measure 64
0001
0000
0010
0000
0001
1000
0000
1000
,  // measure 65
0001
0100
0010
1000
,  // measure 66
0100
0000
0010
0020
0000
0000
0031
0000
,  // measure 67
0100
0200
0000
0000
0310
0000
1000
0000
,  // measure 68
0001
0000
0100
0100
0000
0010
0000
1000
,  // measure 69
0000
0001
0000
1000
0000
0200
0000
0000
,  // measure 70
1300
0000
0010
0020
0000
0000
0130
0000
,  // measure 71
0001
0002
0000
0000
1003
0000
0100
0000
,  // measure 72
0010
0000
0001
0001
0000
0100
0000
0010
,  // measure 73
0000
1000
0000
0001
0000
0200
0000
0000
,  // measure 74
0301
0000
0000
0010
0000
0000
0100
0000
,  // measure 75
1000
1000
0010
0110
,  // measure 76
0000
1000
0000
0000
1100
0000
0000
0001
,  // measure 77
0000
0011
0000
0000
;
