#VERSION:0.81;
#TITLE:Let Mom Sleep;
#SUBTITLE:;
#ARTIST:長沼英樹;
#TITLETRANSLIT:;
#SUBTITLETRANSLIT:;
#ARTISTTRANSLIT:Hideki Naganuma;
#GENRE:;
#ORIGIN:;
#CREDIT:;
#BANNER:Let Mom Sleep - Hideki Naganumabn.png;
#BACKGROUND:Let Mom Sleep - Hideki Naganumabg.png;
#PREVIEWVID:;
#JACKET:Let Mom Sleep - Hideki Naganumajacket.png;
#CDIMAGE:;
#DISCIMAGE:;
#LYRICSPATH:Let Mom Sleep - Hideki Naganuma.lrc;
#CDTITLE:encorerebirth.png;
#MUSIC:Let Mom Sleep - Hideki Naganuma.ogg;
#OFFSET:0.000;
#SAMPLESTART:42.148;
#SAMPLELENGTH:15.764;
#SELECTABLE:YES;
#BPMS:0.000=136.500;
#STOPS:190.000=0.440;
#DELAYS:;
#WARPS:;
#TIMESIGNATURES:0.000=4=4;
#TICKCOUNTS:0.000=4;
#COMBOS:0.000=1;
#SPEEDS:0.000=1.000=0.000=0;
#SCROLLS:0.000=1.000;
#FAKES:;
#LABELS:0.000=Song Start;
#BGCHANGES:;
#KEYSOUNDS:;
#ATTACKS:
;

//---------------dance-single - Spork!----------------
#NOTEDATA:;
#CHARTNAME:;
#STEPSTYPE:dance-single;
#DESCRIPTION:Spork!;
#CHARTSTYLE:;
#DIFFICULTY:Beginner;
#METER:3;
#RADARVALUES:0.176,0.223,0.315,0.088,0.000,95.000,36.000,10.000,0.000,0.000,0.000,0.000,0.000,0.176,0.223,0.315,0.088,0.000,95.000,36.000,10.000,0.000,0.000,0.000,0.000,0.000;
#CREDIT:Spork!;
#NOTES:
0000
0000
0000
0000
,
0000
0000
0000
0000
,
0000
0000
0000
0000
,
0000
0000
0000
0000
,
1001
0000
0000
0000
,
0100
0000
0000
0000
,
1001
0000
0000
0000
,
0020
0000
0030
0000
,
0110
0000
0110
0000
,
0110
0110
0000
0000
,
0001
0000
1000
0000
,
0002
0000
0003
0000
,
1001
0000
0000
0000
,
0001
0000
0000
0000
,
0010
0000
0000
0000
,
0100
0000
0000
0000
,
1001
0000
0000
0000
,
1000
0000
0000
0000
,
0010
0000
0000
0000
,
0100
0000
0000
0000
,
0110
0000
0000
0000
,
0100
0000
0010
0000
,
0100
0110
0000
1001
,
1000
0000
0001
0000
,
1001
0000
0000
0000
,
0001
0000
1000
0000
,
0010
0000
0000
0000
0000
1001
0000
0000
,
0000
0000
0000
0000
0000
1001
0000
0000
,
0000
0000
0000
0000
,
0110
0000
0110
0000
,
0110
0110
0000
0000
,
1000
0000
0001
0000
,
2000
0000
3000
0000
,
1001
1001
1001
0000
,
0100
0000
0100
0000
,
1001
1001
1001
0000
,
0001
0000
1000
0000
,
0110
0110
0110
0000
,
0001
0000
0001
0000
,
0110
0000
0110
0000
,
0010
0000
0100
0000
,
0020
0000
0030
0000
,
1000
0000
0000
0000
,
0001
0000
0000
0000
,
1000
0000
0000
0000
,
0001
0000
0000
0000
,
0010
0000
0001
0000
,
1000
0000
1000
0100
,
0000
1000
0000
0001
,
0001
0001
0000
0001
,
0000
0000
0000
0100
,
0000
0000
0000
0010
,
0000
0000
0000
1000
,
0000
0000
0000
0001
,
0000
0001
0000
1000
,
0000
2002
3003
0100
,
0000
0100
0000
0010
,
0000
0220
0330
0000
,
0000
0002
0000
1003
,
0000
0000
0000
1001
,
0000
0110
0000
1001
,
1001
0000
0000
0100
,
0000
0010
0000
0200
,
0000
0300
0000
1001
;

//---------------dance-single - Spork!----------------
#NOTEDATA:;
#CHARTNAME:;
#STEPSTYPE:dance-single;
#DESCRIPTION:Spork!;
#CHARTSTYLE:;
#DIFFICULTY:Easy;
#METER:5;
#RADARVALUES:0.306,0.335,0.324,0.131,0.000,193.000,37.000,15.000,0.000,0.000,0.000,0.000,0.000,0.306,0.335,0.324,0.131,0.000,193.000,37.000,15.000,0.000,0.000,0.000,0.000,0.000;
#CREDIT:Spork!;
#NOTES:
0000
0000
0000
0000
,
0000
0000
0000
0000
,
0000
0000
0000
0000
,
0000
0000
0000
0000
,
1010
0010
1000
0100
,
0010
0010
0001
0100
,
0101
0100
0001
0010
,
0200
0000
0310
0010
,
0011
0001
0101
0100
,
0110
1001
0001
1000
,
0001
0001
1000
1000
,
0002
0000
0003
0001
,
1001
1000
0100
1000
,
0010
0010
0010
0000
,
0100
0001
0010
0000
,
0010
0001
0100
0010
,
1001
0001
0010
0001
,
0100
0100
0100
0000
,
0010
1000
0100
0000
,
0100
1000
0010
0100
,
0110
1000
0002
0003
,
0110
0001
2000
3000
,
0010
1001
0010
1001
,
0100
0100
0200
0300
,
1010
0100
0001
0010
,
0001
1000
0100
0010
,
0011
0000
0100
0000
0000
1001
0000
0000
,
0100
0000
0010
0000
0000
1001
0000
0000
,
1000
0100
0010
0000
,
1100
1000
1010
0010
,
0110
1001
1000
0001
,
1000
1000
0001
0001
,
2000
0000
3000
1000
,
1001
0110
1001
1000
,
0200
0300
0200
0310
,
1001
0110
1001
0001
,
0100
0100
0020
0130
,
0110
1001
0110
0100
,
0002
0003
0002
1003
,
0110
1000
0110
1000
,
0001
0001
0001
0001
,
1000
0000
0000
0000
,
1000
0000
0100
0000
,
1000
0000
0001
0000
,
0100
0000
0001
0000
,
1000
0000
0001
0000
,
0010
0001
0100
0000
,
0100
0001
0010
1001
,
1000
0100
0000
0100
,
1000
0020
0000
0130
,
0000
0100
0000
0010
,
0000
0010
0000
1000
,
0000
1000
0000
0001
,
0000
0001
1000
0100
,
0000
0100
0000
0000
1000
0000
0010
0000
,
0000
0010
0000
0100
0000
0000
0100
0000
,
0000
0100
0000
0000
0001
0000
0010
0000
,
0000
0010
0000
0100
0000
0000
0200
0000
,
0000
1300
1000
0020
,
0000
0130
0000
0101
,
0001
0011
0010
0110
,
1001
1000
0001
1000
,
1000
0001
0001
2000
,
0000
3000
1000
1001
;

//---------------dance-single - Spork!----------------
#NOTEDATA:;
#CHARTNAME:;
#STEPSTYPE:dance-single;
#DESCRIPTION:Spork!;
#CHARTSTYLE:;
#DIFFICULTY:Challenge;
#METER:9;
#RADARVALUES:0.644,0.586,0.411,0.315,0.368,432.000,47.000,36.000,38.000,0.000,0.000,0.000,0.000,0.644,0.586,0.411,0.315,0.368,432.000,47.000,36.000,38.000,0.000,0.000,0.000,0.000;
#CREDIT:Spork!;
#NOTES:
0000
0000
0000
0000
,
0000
0000
0000
0000
,
0000
0000
0000
0000
,
0000
0000
0000
0000
0000
0000
0000
0000
0000
0000
0010
0000
1000
0001
0000
0000
,
1M02
0000
0013
0100
1000
0010
0100
0001
,
0010
0001
0000
0001
1000
0000
0010
0000
0100
0010
0000
0100
0000
0100
0000
0000
,
M201
0000
0310
0100
0001
1000
0100
0010
,
0200
0000
0000
0000
0000
0000
0000
0000
0300
0000
0110
0000
0000
0011
0000
0000
,
1M01
0001
0010
0010
1M01
1000
0100
0100
,
10M1
0000
1MM1
0000
1000
1000
0001
0001
,
1000
0000
0001
0000
1000
0000
0001
0000
1000
0010
1000
0010
0100
0001
0100
0001
,
2000
0000
0000
0000
0000
0000
0000
0000
3000
0000
0100
0000
1000
0001
0000
0000
,
10M2
0000
0000
0000
0100
0000
0000
1000
0003
0000
0001
0000
0010
0000
0100
0000
,
0020
0000
0001
0000
0100
0000
0000
1000
0030
0000
0011
0000
0000
0000
0001
0000
,
2000
0000
0000
0000
0010
0000
0000
0001
3000
0000
1000
0000
0100
0000
0010
0000
,
0020
0000
0100
0000
0001
0000
0000
1000
0030
0000
0010
0000
0001
1000
0000
0000
,
20M1
0000
0000
0000
0100
0000
0000
0010
3000
0000
0100
0000
0010
0000
1000
0000
,
0020
0000
0100
0000
1000
0000
0000
0001
0030
0000
1010
0000
0000
0000
1000
0000
,
0002
0000
0000
0000
0010
0000
0000
0100
0003
0000
0001
0000
0100
0000
0010
0000
,
0020
0000
0100
0000
1000
0000
0000
0001
0030
0000
0110
0000
0000
0101
0000
0000
,
10M1
0000
0001
0010
1000
0010
0001
0100
,
0010
0000
1000
0001
1000
0000
0010
0000
0001
0000
0010
0000
1000
0001
0000
0000
,
0001
0000
101M
0000
1000
0000
M011
0001
,
0100
0000
0100
0000
0100
0020
0000
0030
,
1M01
0000
0000
0000
0010
0000
0000
0100
0000
0000
0010
0000
1000
0000
0001
0000
,
1000
0000
0100
0000
0001
0000
0000
0100
0000
0000
0020
0000
0100
0000
0130
0000
,
0010
0000
0000
0000
0001
0000
0000
0100
0000
0000
10M1
0000
0001
0000
1000
0000
,
0001
0000
0010
0000
1000
0000
0000
0010
0000
0000
011M
0000
0100
0010
0000
0000
,
0001
0000
0100
0000
1000
0000
0000
0100
0000
0000
0010
0000
0100
0010
0100
0000
,
10M1
0001
0100
0100
10M1
1000
0010
0010
,
1M01
0000
1MM1
0000
0001
0001
1000
1000
,
0010
0000
0100
0000
0010
0000
0100
0000
0001
0010
0001
0010
0100
1000
0100
1000
,
0002
0000
0000
0000
0000
0000
0000
0000
0003
0000
0010
0000
0001
1000
0000
0000
,
210M
3000
02M1
0300
M012
0003
0010
0100
,
0001
0000
0010
0000
0001
0000
1000
0000
0010
0000
0110
0000
0000
0101
0000
0000
,
M012
0003
1M20
0030
210M
3000
0100
0010
,
0100
0001
0010
0100
1000
0002
0100
0003
,
M102
0003
12M0
0300
201M
3000
0010
0100
,
1000
0000
0010
0000
1000
0000
0001
0000
0010
0000
0100
0000
1000
0001
0000
0000
,
M110
0100
1000
1000
011M
0100
0001
0001
,
1000
0100
1000
0100
0010
0001
0010
0001
,
0200
0000
0000
0000
0000
0000
0000
0000
0310
0100
0010
0100
0010
0100
0010
0100
,
0001
0010
0100
1000
0010
1001
0100
0010
,
0001
0000
0100
0001
0100
0000
0010
0000
1000
0000
0110
0000
1000
0000
0001
0000
,
1000
0100
0010
0001
1000
0110
0001
0010
,
0100
0000
0010
0001
0010
0000
0001
0000
0100
0000
1001
0000
0010
0000
1000
0000
,
0200
0000
1000
0010
0001
0010
0300
0010
,
0000
0010
0001
0010
0001
1000
0000
0010
0000
0000
0000
0000
M210
0000
0000
0000
,
0001
0010
1000
0010
0300
0010
0100
0001
,
1000
0000
0001
0000
0010
0000
0200
0000
0000
0000
0300
0000
1000
0001
1000
0001
,
1000
0000
0010
0000
0100
0000
0001
0000
0010
0000
0001
0000
1000
0000
0100
1000
,
0100
1000
0010
0100
0001
1000
0010
1000
,
0100
0000
0010
0000
0001
0000
1000
0000
0001
0000
0100
0000
0010
0100
0010
1000
,
0010
1000
0001
1000
0002
0000
0000
0000
2003
0000
0000
0000
3001
0100
0000
1000
,
0000
0000
1000
0100
0000
0001
0000
0000
0001
0000
1000
0000
0001
0010
0000
1000
,
0000
0000
0020
0000
0000
0000
0130
0000
0010
0100
0000
0000
1000
0010
0000
0001
,
0000
0000
0001
0010
0000
1000
0000
0010
0100
0010
0000
0000
1000
0100
0000
0001
,
0000
0000
0200
0000
0000
0000
2300
0000
0001
0000
3000
0000
0010
0000
0100
0010
,
0100
0000
0001
0000
0010
0001
0000
0100
0000
0010
0000
0010
0200
0000
0000
0000
,
0310
0000
0000
1000
0000
1000
0000
0001
1000
0001
0000
0000
011M
0000
0010
0000
,
0001
0001
M110
0010
1000
1000
1M01
0000
,
1MM1
0000
0010
0010
0100
0100
0001
0010
,
0100
0000
1000
0000
0010
0100
0010
0100
0001
1000
0001
1000
0200
0000
0000
0000
,
0000
0000
0000
0000
0300
0000
0010
0000
0001
1000
0000
0000
1M01
0000
0000
0000
;

//---------------dance-single - Spork!----------------
#NOTEDATA:;
#CHARTNAME:;
#STEPSTYPE:dance-single;
#DESCRIPTION:Spork!;
#CHARTSTYLE:;
#DIFFICULTY:Medium;
#METER:7;
#RADARVALUES:0.434,0.446,0.315,0.236,0.092,284.000,36.000,27.000,0.000,0.000,0.000,0.000,0.000,0.434,0.446,0.315,0.236,0.092,284.000,36.000,27.000,0.000,0.000,0.000,0.000,0.000;
#CREDIT:Spork!;
#NOTES:
// measure 0
0000
0000
0000
0000
,  // measure 1
0000
0000
0000
0000
,  // measure 2
0000
0000
0000
0000
,  // measure 3
0000
0000
0000
0000
0000
1000
0001
0000
,  // measure 4
1001
0000
1000
0000
0001
0100
0010
0000
,  // measure 5
0200
0310
1000
0001
,  // measure 6
1001
0000
1000
0000
0100
1000
0010
0000
,  // measure 7
0020
0000
0000
0000
0000
0000
0000
0000
0030
0000
0100
0000
0000
0100
0000
0000
,  // measure 8
0101
0010
1001
0010
,  // measure 9
1100
0110
0200
0320
,  // measure 10
0031
1000
0001
1000
0001
0001
1000
1000
,  // measure 11
0020
0000
0000
0000
0030
1000
0001
0000
,  // measure 12
1001
0000
1000
0100
1000
0010
0100
0010
,  // measure 13
1000
0001
0010
0000
0000
0000
0000
0010
,  // measure 14
0001
0100
0010
0100
0001
0000
0000
0000
,  // measure 15
1000
0000
0001
0000
1000
0000
0000
0010
0000
0000
1000
0000
0001
0000
0000
0000
,  // measure 16
1001
0000
0001
0010
0001
0100
0010
0100
,  // measure 17
0001
1000
0010
0000
0000
0000
0000
0010
,  // measure 18
0100
0010
1000
0001
0010
0000
0000
0000
,  // measure 19
0100
0000
0010
0000
0100
0000
0000
0010
0000
0000
0001
0000
0000
1000
0000
0000
,  // measure 20
1001
0000
1000
0100
0010
0001
0000
0000
,  // measure 21
0000
0000
0001
1000
0001
0000
0010
0000
0100
0000
1000
0000
0000
0000
1000
0000
,  // measure 22
0010
1001
0100
1001
,  // measure 23
0010
0000
0010
0000
0010
0200
0000
0300
,  // measure 24
1001
0000
0000
0000
1000
0000
0000
0010
0000
0000
1000
0000
0100
0000
0000
0000
,  // measure 25
0100
0000
0010
0000
0100
0000
0000
1000
0000
0000
0002
0000
0000
0000
0003
0000
,  // measure 26
0100
0000
0000
0000
0001
0000
0000
0010
0000
0000
1001
0000
0000
0000
0000
0000
,  // measure 27
1000
0000
0001
0000
0100
0000
0000
0010
0000
0000
0110
0000
0000
0000
0000
0000
,  // measure 28
0010
0000
1000
0000
0100
0000
0000
1000
0000
0000
0001
0000
1000
0000
0000
0000
,  // measure 29
0011
0100
1001
0100
,  // measure 30
1010
0110
0200
0320
,  // measure 31
1030
0001
1000
0001
1000
1000
0001
0001
,  // measure 32
0020
0000
0000
0000
0030
0001
1000
0000
,  // measure 33
1010
0000
0011
0000
1010
0000
1000
0100
,  // measure 34
0020
0000
0000
0000
0031
0000
0100
0000
0010
0000
0100
0000
0000
0100
0000
0000
,  // measure 35
0101
1100
0101
0001
,  // measure 36
1000
0100
1000
0010
1000
0002
0000
0013
,  // measure 37
0011
0000
1010
0000
0011
0000
0001
0100
,  // measure 38
0020
0000
1030
0100
0020
0000
0130
0000
,  // measure 39
1100
0010
1001
0010
,  // measure 40
0100
0100
0100
0100
,  // measure 41
0000
0000
0000
0000
,  // measure 42
0001
0000
0000
0000
0010
0000
0000
0010
0000
0000
0000
0000
0001
0000
0000
0000
,  // measure 43
1000
0000
0001
0000
1000
0000
0000
1000
0000
0000
0000
0000
0010
0000
0000
0000
,  // measure 44
1000
0000
0000
0000
0100
0000
0000
0100
0000
0000
0000
0000
1000
0000
0000
0000
,  // measure 45
0010
0000
0100
0000
0010
0000
0000
0010
0000
0000
1000
0000
0001
0000
0000
0000
,  // measure 46
1000
0000
0001
0000
0020
0000
0000
0030
,  // measure 47
0001
0000
1000
0000
0200
0300
1001
0000
,  // measure 48
1000
0100
0010
0100
,  // measure 49
0100
0000
0100
0020
0000
0030
0001
0100
,  // measure 50
0001
0000
0100
0010
0100
0000
0010
1000
,  // measure 51
0010
0000
0100
0000
1001
0000
1000
0100
,  // measure 52
1000
0000
0100
0010
0100
0000
1000
0100
,  // measure 53
0010
0000
0001
0000
2000
0000
0000
0000
3002
0000
0000
0000
0103
0000
0000
0100
,  // measure 54
0000
0000
0010
0000
0000
0010
0000
0000
0000
0000
0000
0000
1000
0000
0000
1000
,  // measure 55
0000
0000
0002
0000
0000
0000
0023
0000
0000
0000
0030
0000
0100
0000
0000
0100
,  // measure 56
0000
0000
0010
0000
0000
0010
0000
0000
0000
0000
0000
0000
0001
0000
0000
0001
,  // measure 57
0000
2000
0000
3002
0000
0003
0100
0001
,  // measure 58
1000
0001
0001
0020
,  // measure 59
0000
0030
0000
0011
,  // measure 60
0100
1001
0100
1010
,  // measure 61
0110
0000
0020
0000
0230
0000
0301
1000
,  // measure 62
0001
1000
0100
0100
0010
0010
0200
0000
,  // measure 63
0000
0000
0300
1000
0001
0000
1001
0000
;

//---------------dance-single - Spork!----------------
#NOTEDATA:;
#CHARTNAME:;
#STEPSTYPE:dance-single;
#DESCRIPTION:Spork!;
#CHARTSTYLE:;
#DIFFICULTY:Hard;
#METER:8;
#RADARVALUES:0.509,0.502,0.333,0.271,0.201,338.000,38.000,31.000,0.000,0.000,0.000,0.000,0.000,0.509,0.502,0.333,0.271,0.201,338.000,38.000,31.000,0.000,0.000,0.000,0.000,0.000;
#CREDIT:Spork!;
#NOTES:
// measure 0
0000
0000
0000
0000
,  // measure 1
0000
0000
0000
0000
,  // measure 2
0000
0000
0000
0000
,  // measure 3
0000
0000
0000
0000
0000
0000
0000
0000
0000
0000
0100
0000
1000
0001
0000
0000
,  // measure 4
1002
0000
0103
0010
0100
0001
0010
0100
,  // measure 5
1000
0100
0000
0100
1000
0000
0010
0000
1000
0001
0000
0100
0000
0100
0000
0000
,  // measure 6
0120
0000
1030
0001
1000
0010
0100
0001
,  // measure 7
0020
0000
0000
0000
0000
0000
0000
0000
0030
0000
0100
0000
0000
0010
0000
0000
,  // measure 8
1100
0000
1000
0001
0101
0000
0001
0010
,  // measure 9
0110
0000
1001
0000
0001
0001
1000
1000
,  // measure 10
0001
0010
0100
1000
0001
0010
1000
0100
,  // measure 11
0002
0000
0000
0000
0000
0000
0000
0000
0003
0000
0010
0000
0001
1000
0000
0000
,  // measure 12
1001
0000
1000
0100
1000
0010
1000
0001
,  // measure 13
0100
0000
0100
0000
0100
0000
0000
0010
0000
0000
0110
0000
0000
0000
0010
0000
,  // measure 14
2000
0000
0000
0000
0100
0000
0000
0001
3000
0000
0020
0000
0000
0000
0130
0000
,  // measure 15
0010
0000
0010
0000
0010
0000
0000
0100
0000
0000
0010
0000
0001
1000
0000
0000
,  // measure 16
1001
0000
0001
0100
0001
0010
0001
1000
,  // measure 17
0010
0000
0010
0000
0010
0000
0000
0100
0000
0000
0001
0000
0010
0000
0001
0000
,  // measure 18
0002
0000
0000
0000
0010
0000
0000
1000
0003
0000
0200
0000
0000
0000
1300
0000
,  // measure 19
0001
0000
0001
0000
0001
0000
0000
1000
0000
0000
0010
0000
0000
0100
0000
0000
,  // measure 20
1010
0000
1000
0100
0001
0100
1000
0010
,  // measure 21
1000
0001
0100
1000
0100
0001
1000
0100
,  // measure 22
0010
1001
0010
1001
,  // measure 23
0100
0000
0100
0000
0100
0020
0000
0030
,  // measure 24
0101
0000
0000
0000
0001
0000
0000
0010
0000
0000
0001
0000
1000
0000
0010
0000
,  // measure 25
1000
0000
0100
0000
0010
0000
0000
0001
0000
0000
2000
0000
0020
0000
3000
0000
,  // measure 26
1030
0000
0000
0000
0100
0000
0000
1000
0000
0000
0110
0000
0000
0000
0100
0000
,  // measure 27
0010
0000
0001
0000
0100
0000
0000
0001
0000
0000
0110
0000
0000
0000
0010
0000
,  // measure 28
0100
0000
0001
0000
1000
0000
0000
0100
0000
0000
1000
0000
0001
1000
0001
0000
,  // measure 29
0101
0000
0001
1000
1100
0000
1000
0010
,  // measure 30
0110
0000
1001
0000
1000
1000
0001
0001
,  // measure 31
1000
0100
0010
0001
1000
0100
0001
0010
,  // measure 32
2000
0000
0000
0000
0000
0000
0000
0000
3000
0000
0100
0000
1000
0001
0000
0000
,  // measure 33
0101
0000
1100
0000
0101
0000
0001
0010
,  // measure 34
0200
0000
0000
0000
1300
0000
0010
0000
0200
0000
0001
0000
0300
0001
0000
0000
,  // measure 35
0011
0000
1010
0000
0011
0000
0010
0010
,  // measure 36
0001
0010
0100
1000
0010
2002
0000
3003
,  // measure 37
1100
0000
0101
0000
1100
0000
1000
0010
,  // measure 38
0200
0000
0000
0000
0301
0000
0010
0000
0200
0000
0000
0000
1300
0001
0000
0000
,  // measure 39
0110
0001
0110
1000
,  // measure 40
0001
1000
0001
1000
0010
0100
0010
0100
,  // measure 41
0002
0000
1003
1000
,  // measure 42
0001
0010
0001
0100
,  // measure 43
0010
1000
0100
0000
,  // measure 44
1000
0010
1000
0100
,  // measure 45
0010
0001
0100
0100
,  // measure 46
0020
0000
0000
0000
0100
0000
0000
1000
0030
0000
1000
0000
0001
0000
1000
0000
,  // measure 47
0100
0000
1000
0000
0010
0000
0000
0100
0000
0000
0000
0000
0210
0000
0000
0000
,  // measure 48
0010
0000
0000
0001
0300
0000
0001
0000
1000
0000
0001
0000
0010
0000
0100
0000
,  // measure 49
0010
0100
0010
2002
0000
3003
0001
0000
,  // measure 50
0000
0100
0000
0010
,  // measure 51
0000
1000
0000
1000
,  // measure 52
0000
0100
0000
0010
,  // measure 53
0000
0000
0000
0000
0002
0000
0000
0000
2003
0000
0000
0000
3001
0100
0000
0010
,  // measure 54
0000
0000
0100
0001
0000
1000
0000
0000
0001
0000
0000
0000
1000
0100
0000
0010
,  // measure 55
0000
0000
0020
0000
0000
0000
0230
0000
0000
0000
0300
0000
1000
0010
0000
0100
,  // measure 56
0000
0000
0010
1000
0000
0001
0000
0000
1000
0000
0000
0000
0001
0010
0000
0100
,  // measure 57
0000
0000
2000
0000
0000
0000
3002
0000
0000
0000
0003
0000
1000
0000
0001
1000
,  // measure 58
0001
0000
1000
0000
0001
0010
0000
0100
0000
0100
0000
0010
0200
0000
0000
0000
,  // measure 59
0010
1300
0001
0011
,  // measure 60
0100
0010
1010
0000
1000
0100
0110
0000
,  // measure 61
1001
0000
0001
0001
1000
1000
0001
0010
,  // measure 62
0100
1000
0001
0100
1000
0010
0002
0000
,  // measure 63
0000
0000
0000
0000
0003
0000
0100
0000
0001
1000
0000
0000
1001
0000
0000
0000
;
