#TITLE:Ice Crusher;
#SUBTITLE:;
#ARTIST:Chuck E. Meyers;
#TITLETRANSLIT:;
#SUBTITLETRANSLIT:;
#ARTISTTRANSLIT:;
#GENRE:;
#CREDIT:;
#BANNER:[Not Rhythm Games] - Ice Crusher.png;
#BACKGROUND:[Not Rhythm Games] - Ice Crusher-bg.png;
#LYRICSPATH:;
#CDTITLE:cdtitle.png;
#MUSIC:[Not Rhythm Games] - Ice Crusher.mp3;
#OFFSET:-0.163929;
#SAMPLESTART:76.021004;
#SAMPLELENGTH:12.387000;
#SELECTABLE:YES;
#BPMS:0.000000=155.000000
;
#STOPS:
;
#BGCHANGES:;
#KEYSOUNDS:;
#ATTACKS:;

//---------------dance-single - ----------------
#NOTES:
     dance-single:
     :
     Challenge:
     10:
     0.871281,1.000000,0.767165,1.000000,0.525508,550.000000,100.000000,145.000000,84.000000,0.000000,0.000000,0.871281,1.000000,0.767165,1.000000,0.525508,550.000000,100.000000,145.000000,84.000000,0.000000,0.000000:
0000
0000
0000
0000
,
0000
0000
0000
0000
,
0000
0000
0000
0000
,
0000
0000
0000
0000
,
0011
0000
0000
0011
0000
0000
1001
0000
0000
0000
1000
0000
0010
0000
1000
0000
,
1001
0000
0000
1001
0000
0000
1100
0000
0000
0000
1000
0000
0001
0000
0100
0001
,
M1M2
0000
0000
0000
0000
0000
00M0
0000
0M10
0000
00M0
0000
0000
0000
1003
0100
,
21MM
0000
0000
00M0
0M1M
00M0
3000
0000
,
0001
0000
0000
0001
0000
0000
1000
0000
0000
0000
1000
0000
0010
0000
0100
0001
,
M1M2
0000
0000
0100
0000
0000
1000
0000
0000
0000
0010
0000
0013
0000
0001
1000
,
0MM2
0000
0100
0000
,
0200
0003
0020
0300
,
2030
0000
0000
0000
3010
1000
0010
1000
0001
1000
0001
1000
0100
1000
0100
1000
,
0001
0010
0100
1000
0001
0100
0010
1000
0010
0100
0001
0100
0010
1000
0001
0010
,
MM11
0000
0000
0011
0000
0000
1001
0000
0000
0000
1000
0000
0100
0000
0010
0000
,
1M01
0000
0000
1001
0000
0000
1100
0000
0000
0000
0010
0000
0001
0000
0000
0000
,
1010
0000
0000
0110
0000
0000
0101
0000
0000
0000
0001
0000
0100
0010
1000
0001
,
0010
0000
0000
1100
0000
0000
0101
0000
0000
0000
0001
0000
0100
0000
0010
0000
,
1M1M
0000
0000
1010
0000
0000
1001
0000
0000
0000
1000
0000
0100
0000
0010
0000
,
MM11
0000
0000
0001
0010
0000
0001
0000
1000
0000
0010
0000
1000
0000
0100
0000
,
0010
0000
0000
0010
0001
0000
0100
0000
0010
0000
0000
0010
1000
0000
0100
0000
,
0110
0000
0000
0010
0001
0000
0100
0000
0010
0000
0000
0010
1000
0000
0001
0000
,
0021
0001
0001
0031
,
0012
0000
0103
0000
2010
0000
0100
3000
,
1002
0000
0000
1000
0000
0000
1000
0000
0000
0000
1003
0000
0001
0000
1000
0000
,
01M0
0000
0000
0100
0000
0000
0100
0000
0000
0000
0100
0000
0010
0000
0100
0000
,
1000
0000
0000
1000
0000
0000
1000
0000
0100
0000
0001
0000
0100
0000
1000
0000
,
0010
0000
0000
0010
0200
0300
0010
0000
0100
0000
0001
0000
0010
0000
1000
0000
,
0010
0000
0000
0010
0000
0000
0010
0000
0001
0000
1000
0000
0002
0003
0200
0300
,
0020
0030
0000
0010
0000
0000
0010
0000
0100
0000
1000
0000
0200
0300
0001
0000
,
0100
0000
0000
0100
0000
0000
0100
0000
0010
0000
1000
0000
0100
0000
0010
0000
,
0011
0000
0000
0011
0000
0000
0011
0000
0000
0000
0001
0000
0001
0000
1000
0000
,
1010
0000
0000
1010
0000
0000
1010
0000
0000
0000
1000
0010
0100
0001
0100
0001
,
2000
0000
0000
0010
0000
0000
3020
0000
0000
0000
0130
0001
1000
0001
1000
0001
,
0020
0000
0000
0100
0000
0000
0230
0000
0000
0000
1300
0000
0002
0000
0103
0000
,
0201
0300
0000
0001
0100
0000
0001
0000
0100
0000
0001
0000
0010
0000
0100
0000
,
2000
3000
0000
1000
0100
0000
1000
0000
0200
0300
0001
0000
0100
0000
1000
0000
,
0020
0030
0000
0100
0001
0000
1000
0000
0001
0000
0010
0000
0100
0000
1000
0000
,
1010
0000
0000
0101
0000
0000
0011
0000
1001
0000
0000
1100
0000
0000
1010
0000
,
0001
0100
0001
1000
0100
1000
0001
0100
0010
1000
0010
0100
0001
0100
0010
1000
,
0100
1000
0001
1000
0100
1000
0001
1000
0100
1000
0010
1000
0100
1000
0010
1000
,
2MM1
3001
0012
0013
,
0002
0000
0003
0200
0000
0000
0320
0000
2030
0000
0000
3002
0000
0000
1003
0010
,
2M1M
0000
3100
0000
0012
0000
0103
0001
,
2000
0000
0000
3200
0000
0000
2300
0000
3001
0000
0100
0010
1000
0000
0010
0000
,
M21M
0310
2010
3010
,
2000
0000
0000
3020
0000
0000
0032
0000
0023
0000
2030
0000
3200
0000
0310
0000
,
MM21
0000
0001
0000
0032
0023
0032
0023
,
0130
0000
1000
0010
0000
0100
0001
0000
1000
0100
0010
0100
1000
0001
0010
0000
,
MM21
0000
0000
0032
0000
0000
0203
0000
1300
0000
0200
0000
0302
0000
0023
0000
,
0230
0000
0300
0002
0000
0000
0203
0000
1300
0000
0020
0000
2030
0000
3200
0000
,
0320
0000
0000
2030
0000
0000
3020
0000
0031
0000
0200
0000
0302
0000
2003
0000
,
3020
0000
0000
0032
0000
0000
0023
0000
1030
0000
0200
0000
0320
0000
0031
0000
,
2MM2
0000
3003
2200
0000
3300
2002
3003
0001
0000
0200
0300
0220
0330
2020
3030
,
2002
0000
3003
0202
0000
0303
2002
3003
1000
0000
0200
0300
0220
0330
0022
0033
,
2002
0000
3003
2020
0000
3030
2002
3003
0001
0000
0020
0030
0220
0330
2200
3300
,
2002
0000
3003
0022
0000
0033
2002
3003
0001
0000
0202
0303
0220
0330
0000
0000
,
1MM2
0000
1003
0010
1000
0100
0001
0100
,
1000
0010
0100
0001
1000
0100
2000
3002
,
1003
0000
0010
1000
0MM0
1000
0200
0000
1000
0000
1300
0000
0001
0100
0001
0000
,
1000
0000
0100
0010
MM00
0010
0002
0000
0103
0000
0010
1000
0010
0000
1000
0001
,
2000
0000
3010
2000
00MM
3100
2000
0000
0010
0000
3010
0000
1000
0001
1000
0000
,
0200
0000
0310
0002
MM00
0013
0200
0000
0310
0000
0001
1000
0001
0000
0100
0000
,
0020
0000
0031
0M20
0000
1030
002M
0000
1030
0000
1000
0000
0100
0010
0001
0000
,
0200
0000
1300
02M0
0000
0301
M200
0000
0310
0000
1000
0001
1000
0000
0001
0000
,
2MM0
0001
3000
0001
0200
0000
0300
0000
,
0002
1000
0003
1000
0200
0000
0300
0000
,
2000
0001
3000
0001
0200
0000
0300
0000
,
0101
0000
0000
0101
0000
0000
1001
0000
0000
0000
1010
0000
1010
0000
MMMM
0000
,
1100
0000
0000
1100
0000
0000
1001
0000
0000
0000
0011
0000
0011
0000
MMMM
0000
,
2000
0100
3000
0100
0020
0000
0030
0000
,
0002
0100
0003
0100
0020
0000
0030
0000
,
0101
0000
0100
0001
0000
1000
0010
0000
1000
0000
1010
0000
1001
0000
MMMM
0000
,
1100
0000
1000
0100
0000
0010
0001
0000
0100
0000
0101
0000
1001
0000
MMMM
0000
,
1010
0000
0010
0100
0000
0001
1000
0000
0100
0000
1100
0000
0011
0000
MMMM
0000
,
0011
0000
0010
0100
0000
1000
0001
0000
0100
0000
0101
0000
1010
0000
MMMM
0000
,
1010
0000
000M
1100
0000
00M0
0101
0000
M000
0011
0000
0M00
1001
0000
0000
0000
,
0001
0000
0010
0000
110M
0000
1000
0100
0010
0100
0010
0100
M001
0100
0010
0100
,
0010
0100
1000
0100
001M
0100
0010
0100
0001
0100
1000
0100
10M0
0001
0100
0010
,
2M02
0000
0000
0000
,
0000
0000
0000
0000
,
3003
0000
0000
0000
;

//---------------dance-single - ----------------
#NOTES:
     dance-single:
     :
     Hard:
     9:
     0.675105,0.807825,0.291523,0.813195,0.287687,472.000000,38.000000,106.000000,44.000000,0.000000,0.000000,0.675105,0.807825,0.291523,0.813195,0.287687,472.000000,38.000000,106.000000,44.000000,0.000000,0.000000:
0000
0000
0000
0000
,
0000
0000
0000
0000
,
0000
0000
0000
0000
,
0000
0000
0000
0000
,
0001
0000
0000
0001
0000
0000
0100
0000
0000
0000
1000
0000
0100
0000
0001
0000
,
1000
0000
0000
1000
0000
0000
0100
0000
0000
0000
0010
0000
0001
0000
1000
0001
,
20M0
0000
0000
0000
0000
0000
0000
0000
0010
0000
0000
0000
0000
0000
3001
1000
,
0M02
0000
0010
0003
,
1000
0000
0000
1000
0000
0000
0010
0000
0000
0000
0100
0000
0001
0000
1000
0001
,
2MM0
0000
0000
0001
0000
0000
0001
0000
0000
0000
0010
0000
3010
0000
1000
0001
,
2M00
0000
0100
0000
,
0200
3000
0020
0300
,
0032
0000
0103
0001
0010
0001
0100
0010
,
1010
1000
0100
0100
0010
0010
0001
0100
,
1MM1
0000
0000
0001
0000
0000
0100
0000
0000
0000
1000
0000
0100
0000
0001
0000
,
M010
0000
0000
0010
0000
0000
0100
0000
0000
0000
1000
0000
0010
0000
0000
0000
,
0M01
0000
0000
0010
0000
0000
1000
0000
0000
0000
0100
0000
1000
0001
1000
0001
,
10M0
0000
0000
0010
0000
0000
0100
0000
0000
0000
0001
0000
1000
0000
0100
0000
,
011M
0000
0000
0100
0000
0000
1000
0000
0000
0000
0010
0000
1000
0000
0001
0000
,
1M01
0000
0000
1000
0010
0000
1000
0000
0100
0000
0010
0000
0001
0000
1000
0000
,
0020
0000
0000
2030
0000
0000
3002
0000
0023
0000
0000
2030
0000
0000
3002
0000
,
02M3
0000
0000
2300
0000
0000
3002
0000
0203
0000
0000
0302
0000
0000
0023
0000
,
0032
0010
0010
0013
,
0012
0103
2010
3100
,
1002
0000
0000
1000
0000
0000
1000
0000
0000
0000
0103
0000
0001
0000
0100
0000
,
M001
0000
0000
0001
0000
0000
0001
0000
0000
0000
1000
0000
0100
0000
1000
0000
,
0100
0000
0000
0100
0000
0000
0100
0000
0000
0000
1000
0000
0100
0000
0010
0000
,
0001
0000
0000
0001
0000
0000
0001
0000
0000
0000
1000
0000
0001
0000
1000
0000
,
0010
0000
0000
0010
0000
0000
0010
0000
0000
0000
0001
0000
0010
0000
1000
0000
,
0100
0000
0000
0100
0000
0000
0100
0000
0000
0000
0001
0000
0100
0000
1000
0000
,
0010
0000
0000
0010
0000
0000
0010
0000
0000
0000
1000
0000
0100
0000
0010
0000
,
0011
0000
0000
0011
0000
0000
0011
0000
0000
0000
0001
0000
1000
0000
0001
0000
,
0101
0000
0000
0101
0000
0000
0101
0000
0000
0000
0100
0000
0010
0000
1000
0000
,
0002
0000
0000
0023
0000
0000
0230
0000
,
2300
0000
0000
3020
0000
0000
0130
0000
,
0101
0000
0000
0100
0001
0000
0100
0000
0001
0000
0010
0000
0100
0000
1000
0000
,
0100
0000
0000
1000
0100
0000
1000
0000
0100
0000
0010
0000
0001
0000
0100
0000
,
0010
0000
0000
1000
0001
0000
1000
0000
0001
0000
0010
0000
0100
0000
1000
0000
,
0010
0000
0000
1000
0000
0000
0100
0000
0010
0000
0000
0001
0000
0000
1000
0000
,
0010
0000
1000
0001
1000
0000
0100
0000
0010
0000
0001
1000
0001
0000
0100
0000
,
0010
1000
0010
0100
0010
0001
0010
1000
,
1MM2
0103
2010
3001
,
2000
0000
0000
3002
0000
0000
2003
0000
3002
0000
0000
0023
0000
0000
0130
0010
,
MM02
0103
1020
0130
,
0020
0000
0000
2030
0000
0000
3200
0000
0310
0000
0001
1000
0001
0000
0100
0000
,
M21M
0301
0012
1003
,
0002
0000
0000
0203
0000
0000
0302
0000
0203
0000
2300
0000
3200
0000
0302
0000
,
MM23
0000
0001
0000
0032
0023
0032
0023
,
0230
0000
0000
2300
0000
0000
3002
0000
0203
0000
0320
0000
2030
0000
3001
0000
,
0011
0000
0000
0010
0000
0000
0001
0000
1000
0000
0001
0000
0010
0000
0100
0000
,
1000
0000
0000
1000
0000
0000
0010
0000
1000
0000
0100
0000
0010
0000
0100
0000
,
1000
0000
0000
1000
0000
0000
0001
0000
0100
0000
0010
0000
1000
0000
0100
0000
,
0010
0000
0000
0010
0000
0000
0001
0000
0100
0000
0010
0000
1000
0000
0000
0000
,
1MM2
0000
0000
0203
0000
0000
2300
0000
3100
0000
2000
0000
3200
0000
0302
0000
,
0023
0000
0000
2030
0000
0000
3020
0000
0031
0000
0020
0000
0032
0000
0203
0000
,
0320
0000
0000
0032
0000
0000
0023
0000
1030
0000
0020
0000
2030
0000
3200
0000
,
0302
0000
0000
0203
0000
0000
0302
0000
0103
0000
2000
0000
3020
0000
0030
0000
,
2MM1
0000
3100
0010
0100
0010
0001
0100
,
0010
0100
0001
1000
0100
1000
0002
2003
,
3010
0000
1000
0001
0MM0
1000
0002
0000
1003
0000
0001
0000
0100
0000
0010
0000
,
1000
0000
0100
0010
M00M
0100
0020
0000
0031
0000
0010
0000
0100
0000
1000
0000
,
0010
0000
0100
0010
M00M
0100
0020
0000
1030
0000
0010
0000
0001
0000
0010
0000
,
1000
0000
0001
1000
0MM0
0001
2000
0000
3100
0000
0001
0000
0100
0000
1000
0000
,
0010
0000
0010
1000
0M0M
1000
0200
0000
0301
0000
0001
0000
0100
0000
1000
0000
,
0010
0000
0100
0001
M0M0
0001
0020
0000
1030
0000
0010
0000
0001
0000
0000
0000
,
2000
0001
3000
0001
0200
0000
0300
0000
,
0002
1000
0003
1000
0200
0000
0300
0000
,
2000
0001
3000
0001
0200
0000
0300
0000
,
0102
0000
0000
0100
0000
0000
1000
0000
0000
0000
0010
0000
0013
0000
0000
0000
,
2100
0000
0000
0100
0000
0000
0001
0000
0000
0000
0010
0000
3010
0000
0000
0000
,
2000
0100
3000
0100
0020
0000
0030
0000
,
0002
0100
0003
0100
0020
0000
0030
0000
,
1001
0000
0000
0001
0100
0000
0001
0000
1000
0000
0001
0000
0011
0000
0000
0000
,
1001
0000
0000
1000
0100
0000
1000
0000
0001
0000
1000
0000
1010
0000
0000
0000
,
0110
0000
0000
0010
0100
0000
0010
0000
1000
0000
0001
0000
0011
0000
0000
0000
,
0110
0000
0000
0010
0100
0000
0010
0000
0001
0000
1000
0000
1010
0000
0000
0000
,
1001
0000
0000
1100
0000
0000
1010
0000
0000
0110
0000
0000
0101
0000
0000
0000
,
0001
0000
0010
0000
010M
0000
1000
0001
1000
0000
0010
0000
M100
0001
0100
0000
,
0010
0000
0100
1000
01M0
0000
0001
0000
0010
0100
0010
0000
M001
0000
0100
0000
,
2MM2
0000
0000
0000
,
0000
0000
0000
0000
,
3003
0000
0000
0000
;

//---------------dance-single - ----------------
#NOTES:
     dance-single:
     :
     Medium:
     7:
     0.492082,0.497123,0.299194,0.414269,0.184120,356.000000,39.000000,54.000000,0.000000,0.000000,0.000000,0.492082,0.497123,0.299194,0.414269,0.184120,356.000000,39.000000,54.000000,0.000000,0.000000,0.000000:
// measure 0
0000
0000
0000
0000
,  // measure 1
0000
0000
0000
0000
,  // measure 2
0000
0000
0000
0000
,  // measure 3
0000
0000
0000
0000
,  // measure 4
1000
0000
0000
1000
0000
0000
0100
0000
0000
0000
0010
0000
0001
0000
0010
0000
,  // measure 5
0001
0000
0000
0001
0000
0000
0100
0000
0000
0000
0010
0000
1000
0000
0000
0000
,  // measure 6
2002
0003
0200
3300
,  // measure 7
2002
3000
0200
0303
,  // measure 8
0001
0000
0000
0100
0000
0000
0001
0000
0000
0000
0010
0000
0100
0000
0000
0000
,  // measure 9
2001
0000
0000
0001
0000
0000
0001
0000
0000
0000
0010
0000
3010
0000
0000
0000
,  // measure 10
2001
0000
0100
0000
,  // measure 11
0200
3000
0020
0300
,  // measure 12
0032
0000
0013
0001
0100
0010
1000
0000
,  // measure 13
1200
0320
0032
1003
,  // measure 14
1001
0000
0000
1000
0000
0000
0010
0000
0000
0000
1000
0000
0001
0000
1000
0000
,  // measure 15
0001
0000
0000
0001
0000
0000
0010
0000
0000
0000
0100
0000
1000
0000
0000
0000
,  // measure 16
0010
0000
0000
0100
0000
0000
0001
0000
0000
0000
1000
0000
0100
0000
0010
0000
,  // measure 17
0001
0000
0000
0100
0000
0000
0010
0000
0000
0000
1000
0000
0010
0000
1000
0000
,  // measure 18
0100
0000
0000
0100
0000
0000
0010
0000
0000
0000
0001
0000
1000
0000
0001
0000
,  // measure 19
1000
0010
0100
0001
,  // measure 20
1000
1000
0001
0001
,  // measure 21
1000
1000
0100
0100
,  // measure 22
0012
0010
0010
0013
,  // measure 23
0012
0103
2010
3100
,  // measure 24
2002
0000
0000
3003
,  // measure 25
0220
0000
0000
0330
,  // measure 26
0001
0000
0000
1000
0000
0000
0001
0000
0000
0000
1000
0000
0100
0000
0000
0000
,  // measure 27
1000
0000
0000
0001
0000
0000
1000
0000
0000
0000
0010
0000
0100
0000
0000
0000
,  // measure 28
0001
0000
0000
0010
0000
0000
0001
0000
0000
0000
0100
0000
0010
0000
0000
0000
,  // measure 29
1000
0000
0000
0100
0000
0000
1000
0000
0000
0000
0001
0000
0100
0000
0000
0000
,  // measure 30
0010
0000
0000
1000
0000
0000
0010
0000
0000
0000
1000
0000
0100
0000
0000
0000
,  // measure 31
0011
0000
0000
0011
0000
0000
0011
0000
0000
0000
0001
0000
0100
0000
0000
0000
,  // measure 32
1010
0000
0000
1010
0000
0000
1010
0000
0000
0000
1000
0000
0100
0000
0000
0000
,  // measure 33
2000
0000
0000
3020
0000
0000
0032
0000
,  // measure 34
0023
0000
0000
2030
0000
0000
3100
0000
,  // measure 35
0110
0000
0100
0000
0100
0010
0001
0100
,  // measure 36
0010
0000
0010
0000
0010
1000
0100
0010
,  // measure 37
0100
0000
0100
0000
0100
1000
0010
0100
,  // measure 38
0001
0000
0000
0001
0000
0000
0100
0000
0010
0000
0000
0010
0000
0000
1000
0000
,  // measure 39
0100
0000
0000
0100
0000
0000
0010
0000
0001
0000
0000
0001
0000
0000
1000
0000
,  // measure 40
0010
0100
0010
0100
0001
1000
0001
1000
,  // measure 41
0200
0300
2002
3003
,  // measure 42
0001
0000
0000
0010
0000
0000
0001
0000
1000
0000
0000
0010
0000
0000
1000
0000
,  // measure 43
0200
0300
2002
3003
,  // measure 44
1000
0000
0000
0001
0000
0000
0010
0000
0001
0000
1000
0000
0100
0000
0000
0000
,  // measure 45
0020
0030
2002
3003
,  // measure 46
0001
0000
0000
0100
0000
0000
0010
0000
1000
0000
0000
0100
0000
0000
1000
0000
,  // measure 47
0020
0000
0000
0000
0130
0010
0100
0010
,  // measure 48
1000
0000
0000
0001
0000
0000
0010
0000
0100
0000
1000
0000
0001
0000
0100
0000
,  // measure 49
0001
0000
0000
0001
0000
0000
0010
0000
0000
0000
0001
0000
0010
0000
0100
0000
,  // measure 50
1000
0000
0000
1000
0000
0000
0010
0000
0000
0000
1000
0000
0010
0000
0100
0000
,  // measure 51
0001
0000
0000
0001
0000
0000
0100
0000
0000
0000
0001
0000
0010
0000
0100
0000
,  // measure 52
1000
0000
0000
1000
0000
0000
0100
0000
0000
0000
0010
0000
0001
0000
0000
0000
,  // measure 53
0001
0000
0000
0011
0000
0000
1001
0000
0000
0000
0001
0000
0100
0000
0010
0000
,  // measure 54
1000
0000
0000
1010
0000
0000
1001
0000
0000
0000
1000
0000
0001
0000
0100
0000
,  // measure 55
0001
0000
0000
0101
0000
0000
1001
0000
0000
0000
0001
0000
0010
0000
0100
0000
,  // measure 56
1000
0000
0000
1100
0000
0000
1001
0000
0000
0000
1000
0000
0001
0000
0000
0000
,  // measure 57
1002
0000
0103
0010
0100
0010
1000
0001
,  // measure 58
1000
0001
0010
0100
0010
0100
1000
0001
,  // measure 59
1000
0000
0000
0100
0000
0000
1000
0000
0000
0000
0001
0000
1000
0000
0001
0000
,  // measure 60
1000
0000
0000
0010
0000
0000
1000
0000
0000
0000
0001
0000
0010
0000
0000
0000
,  // measure 61
0001
0000
0000
0100
0000
0000
0010
0000
0000
0000
1000
0000
0100
0000
0010
0000
,  // measure 62
0001
0000
0000
1000
0000
0000
0010
0000
0000
0000
1000
0000
0100
0000
0000
0000
,  // measure 63
0010
0000
0000
0011
0000
0000
1001
0000
0000
0000
1000
0000
0001
0000
0100
0000
,  // measure 64
0010
0000
0000
1010
0000
0000
1001
0000
0000
0000
0100
0000
0010
0000
0000
0000
,  // measure 65
2002
3000
0200
0303
,  // measure 66
2002
0003
0200
3300
,  // measure 67
2002
3000
0200
0303
,  // measure 68
0001
0000
0000
0001
0000
0000
0100
0000
0000
0000
0010
0000
0010
0000
0000
0000
,  // measure 69
1000
0000
0000
1000
0000
0000
0100
0000
0000
0000
0010
0000
0010
0000
0000
0000
,  // measure 70
2002
3000
0200
0303
,  // measure 71
2002
0003
0200
3300
,  // measure 72
1000
0000
0000
0100
0000
0000
0010
0000
0000
0000
0100
0000
1000
0000
0000
0000
,  // measure 73
0001
0000
0000
0100
0000
0000
0010
0000
0000
0000
0100
0000
0001
0000
0000
0000
,  // measure 74
1000
0000
0000
0100
0000
0000
0001
0000
0000
0000
0100
0000
1000
0000
0000
0000
,  // measure 75
0001
0000
0000
0100
0000
0000
1000
0000
0000
0000
0100
0000
0001
0000
0000
0000
,  // measure 76
1000
0000
0000
0100
0000
0000
0010
0000
0000
0001
0000
0000
0100
0000
0000
0000
,  // measure 77
0010
1000
0000
1000
0100
0000
0010
0001
,  // measure 78
0000
0001
0100
0000
0010
1000
0000
0002
,  // measure 79
0020
0000
0000
0000
,  // measure 80
0000
0000
0000
0000
,  // measure 81
0033
0000
0000
0000
;

//---------------dance-single - ----------------
#NOTES:
     dance-single:
     :
     Easy:
     5:
     0.401118,0.434983,0.314538,0.414269,0.072881,271.000000,41.000000,54.000000,0.000000,0.000000,0.000000,0.401118,0.434983,0.314538,0.414269,0.072881,271.000000,41.000000,54.000000,0.000000,0.000000,0.000000:
0000
0000
0000
0000
,
0000
0000
0000
0000
,
0000
0000
0000
0000
,
0000
0000
0000
0000
,
1000
0000
0000
1000
0000
0000
1000
0000
0000
0000
0000
0000
0010
0000
0000
0000
,
0100
0000
0000
0100
0000
0000
0100
0000
0000
0000
0000
0000
0001
0000
0000
0000
,
2002
0003
0200
3300
,
2002
3000
0200
0303
,
0001
0000
0000
0001
0000
0000
0001
0000
0000
0000
0000
0000
0010
0000
0000
0000
,
1001
0000
0000
1000
0000
0000
1000
0000
0000
0000
0000
0000
0100
0000
0000
0000
,
1002
0000
0100
0000
,
0200
0003
0020
0300
,
2030
0010
0010
3010
,
1010
0110
0202
0303
,
0001
0000
0000
0100
0000
0000
0001
0000
0000
0000
0000
0000
0100
0000
0000
0000
,
0010
0000
0000
1000
0000
0000
0010
0000
0000
0000
0000
0000
1000
0000
0000
0000
,
0100
0000
0000
0010
0000
0000
0100
0000
0000
0000
0000
0000
0010
0000
0000
0000
,
0001
0000
0000
1000
0000
0000
0001
0000
0000
0000
0000
0000
1000
0000
0000
0000
,
0010
0000
0000
0100
0000
0000
0010
0000
0000
0000
0000
0000
1000
0000
0000
0000
,
0001
1000
0001
0010
,
0100
0100
1000
1000
,
0001
0001
0100
0010
,
2010
0010
0010
3010
,
2010
3100
0012
0103
,
2002
0000
0000
3003
,
0220
0000
0000
0330
,
0001
0000
0001
1000
,
0100
0000
0100
0010
,
0001
0000
0001
0100
,
1000
0000
1000
0100
,
0001
0000
0001
0010
,
1100
0000
1100
1010
,
0101
0000
0101
0011
,
2001
0000
0000
3200
0000
0000
0320
0000
,
0032
0000
0000
0203
0000
0000
0320
0000
,
1030
1000
0010
0100
,
0001
0001
0010
0100
,
1000
1000
0001
0100
,
0001
0001
0010
0010
,
1000
1000
0100
0100
,
0001
1000
0001
1000
0001
1000
0001
0000
,
2002
3000
0020
0033
,
0001
0010
0001
0100
,
2020
0030
0200
3300
,
1000
0100
0010
0001
,
2002
0003
0020
3030
,
1000
0010
0100
0001
,
0022
0033
0001
0010
,
0001
0100
0010
1000
,
0001
0000
0000
0010
0000
0000
0100
0000
0000
0000
0000
0000
0010
0000
0000
0000
,
0001
0000
0000
0100
0000
0000
0010
0000
0000
0000
0000
0000
1000
0000
0000
0000
,
0100
0000
0000
0010
0000
0000
0001
0000
0000
0000
0000
0000
0100
0000
0000
0000
,
0010
0000
0000
1000
0000
0000
0001
0000
0000
0000
0000
0000
1000
0000
0000
0000
,
1010
0000
0000
1010
0000
0000
1010
0000
0000
0000
0000
0000
0001
0000
0000
0000
,
0101
0000
0000
0101
0000
0000
0101
0000
0000
0000
0000
0000
1000
0000
0000
0000
,
1100
0000
0000
1100
0000
0000
1100
0000
0000
0000
0000
0000
0001
0000
0000
0000
,
0011
0000
0000
0011
0000
0000
0011
0000
0000
0000
0000
0000
1000
0000
0000
0000
,
1002
0103
0100
0010
,
0010
1000
1000
0001
,
0010
0000
0010
0000
0001
0000
0100
0010
,
1000
0000
1000
0000
0100
0000
1000
0010
,
0100
0000
0100
0000
0001
0000
1000
0100
,
0010
0000
0010
0000
0001
0000
1000
0010
,
0001
0000
0001
0000
0010
0000
1000
0100
,
0001
0001
0100
1000
,
2002
3000
0200
0303
,
2002
0003
0200
3300
,
2002
3000
0200
0303
,
0100
0000
0000
0100
0000
0000
0100
0000
0000
0000
0000
0000
0100
0000
0000
0000
,
0010
0000
0000
0010
0000
0000
0010
0000
0000
0000
0000
0000
0010
0000
0000
0000
,
2002
0003
0200
3300
,
2002
3000
0200
0303
,
0001
0100
0010
1000
,
0001
0010
0100
1000
,
0001
0100
1000
0100
,
0001
0010
1000
0010
,
0001
0100
1000
0010
,
0001
0010
0000
0010
0001
0000
1000
0010
,
0000
0010
1000
0000
0100
0010
0000
0002
,
2000
0000
0000
0000
,
0000
0000
0000
0000
,
3003
0000
0000
0000
;

//---------------dance-single - ----------------
#NOTES:
     dance-single:
     :
     Beginner:
     2:
     0.230150,0.248562,0.076717,0.230150,0.000000,170.000000,10.000000,30.000000,0.000000,0.000000,0.000000,0.230150,0.248562,0.076717,0.230150,0.000000,170.000000,10.000000,30.000000,0.000000,0.000000,0.000000:
0000
0000
0000
0000
,
0000
0000
0000
0000
,
0000
0000
0000
0000
,
0000
0000
0000
0000
,
1000
1000
1000
0000
,
0001
0001
0001
0000
,
2002
0000
3003
0000
,
0220
0000
0330
0000
,
0001
0000
0001
0000
,
1001
0000
1000
0000
,
0200
0000
0300
0000
,
0020
0030
0002
0003
,
2000
0000
3000
0000
,
0010
0000
1000
0000
,
0001
0000
1000
0000
,
0100
0000
0010
0000
,
0001
0000
0100
0000
,
0010
0000
1000
0000
,
0001
0000
1000
0000
,
0100
0000
0010
0000
,
0001
0000
1000
0000
,
0001
0000
1000
0000
,
0020
0000
0030
0000
,
0020
0030
2000
3000
,
2002
0000
0000
3003
,
0220
0000
0000
0330
,
0001
0000
0001
0000
,
1000
0000
1000
0000
,
0100
0000
0100
0000
,
0010
0000
0010
0000
,
0001
0000
0001
0000
,
1001
0000
1001
0000
,
0110
0000
0110
0000
,
0001
0000
0100
0000
,
0010
0000
1000
0000
,
0001
0001
0001
0000
,
1000
1000
1000
0000
,
0100
0100
0100
0000
,
1000
0000
0010
0000
,
0100
0000
0001
0000
,
0001
1000
0001
1000
,
0002
0003
0020
0030
,
0001
0000
1000
0000
,
0002
0003
0200
0300
,
0001
0001
0001
0000
,
2000
3000
0200
0300
,
1000
0000
0010
0000
,
2000
3000
0001
0000
,
0010
0010
0010
0000
,
0001
0001
0001
0000
,
0100
0100
0100
0000
,
0010
0010
0010
0000
,
1000
1000
1000
0000
,
0001
0010
0001
0000
,
1000
0100
1000
0000
,
0001
0100
0001
0000
,
1000
0010
1000
0000
,
2002
3003
1000
0000
,
1000
0000
1000
0000
,
0001
0001
0001
0000
,
0010
0010
0010
0000
,
0001
1000
0001
0000
,
1000
0001
1000
0000
,
0001
0100
0001
0000
,
1000
0010
1000
0000
,
0002
0000
0003
0000
,
2000
0000
3000
0000
,
0002
0000
0003
0000
,
0010
0000
0010
0000
,
0100
0000
0100
0000
,
2000
0000
3000
0000
,
0002
0000
0003
0000
,
1000
1000
1000
0000
,
0100
0100
0100
0000
,
0010
0010
0010
0000
,
0001
0001
0001
0000
,
0100
0000
0010
0000
,
1000
1000
0001
0001
,
1000
1000
0001
0001
,
0020
0000
0000
0000
,
0000
0000
0000
0000
,
0030
0000
0000
0000
;
