#VERSION:0.82;
#TITLE:INTERCEPTION - Town in Upheaval;
#SUBTITLE:(Stage 1 of ケツイ~絆地獄たち~);
#ARTIST:Manabu Namiki;
#TITLETRANSLIT:;
#SUBTITLETRANSLIT:(Stage 1 of Ketsui\: Kizuna Jigoku Tachi);
#ARTISTTRANSLIT:;
#GENRE:;
#ORIGIN:;
#CREDIT:SokDion;
#BANNER:[Not Rhythm Games] INTERCEPTION - Town in Upheaval.png;
#BACKGROUND:[Not Rhythm Games] INTERCEPTION - Town in Upheaval-bg.png;
#PREVIEWVID:;
#JACKET:[Not Rhythm Games] INTERCEPTION - Town in Upheaval-jacket.png;
#CDIMAGE:;
#DISCIMAGE:;
#LYRICSPATH:;
#CDTITLE:;
#MUSIC:[Not Rhythm Games] INTERCEPTION - Town in Upheaval.ogg;
#OFFSET:-0.250000;
#SAMPLESTART:22.892843;
#SAMPLELENGTH:14.999974;
#SELECTABLE:YES;
#BPMS:0.000=180.140;
#STOPS:;
#DELAYS:;
#WARPS:;
#TIMESIGNATURES:0.000=4=4;
#TICKCOUNTS:0.000=4;
#COMBOS:0.000=1;
#SPEEDS:0.000=1.000=0.000=0;
#SCROLLS:0.000=1.000;
#FAKES:;
#LABELS:0.000=Song Start;
#BGCHANGES:;
#KEYSOUNDS:;
#ATTACKS:
;

//---------------dance-single - ----------------
#NOTEDATA:;
#CHARTNAME:;
#STEPSTYPE:dance-single;
#DESCRIPTION:;
#CHARTSTYLE:;
#DIFFICULTY:Hard;
#METER:8;
#RADARVALUES:0.510301,0.667870,0.180505,0.437013,0.047501,311.000000,19.000000,46.000000,0.000000,0.000000,0.000000,0.000000,0.000000,0.510301,0.667870,0.180505,0.437013,0.047501,311.000000,19.000000,46.000000,0.000000,0.000000,0.000000,0.000000,0.000000;
#CREDIT:;
#NOTES:
0000
0000
0000
0000
,
0000
0000
0000
0000
,
0200
0000
0000
0000
,
0000
0000
0000
0000
,
0302
0000
0000
0000
,
0000
0000
0000
0000
,
2003
0000
0000
0000
,
0000
0000
0000
0000
,
3200
0000
0000
0000
,
0302
0000
0000
0000
,
0103
0000
0000
0000
0000
0000
0010
0010
,
0000
0000
0101
0000
,
0000
1000
0000
0000
0001
0000
1000
1000
,
0000
0000
0000
0000
0000
0000
1000
0100
1000
0000
0010
0000
0000
0000
0000
0000
,
0001
0000
0000
0000
0000
0000
0100
0100
,
0000
0000
1010
0000
,
0010
0000
0010
0000
0000
0000
0001
0010
0001
0000
0100
0000
0000
0010
0000
0000
,
0020
0000
0000
0000
0000
0000
0000
0000
0000
0000
0000
0000
0000
0000
0000
0030
,
0100
0000
0000
0001
0000
0000
0200
0000
,
0000
0000
0010
0000
0310
0000
0001
0010
,
1000
0000
0000
0100
0000
0000
0020
0000
,
0000
0100
0130
0101
,
1000
1000
0100
0010
0000
0000
0200
0000
,
0000
0001
0301
0100
,
0002
0000
0013
1000
,
0101
1000
0110
1000
,
0001
0000
0000
0010
0000
0100
0020
0000
,
0000
0000
0100
0000
0130
0000
0010
1000
,
0001
0000
0000
0010
0000
0100
2000
0000
,
0000
0100
3100
0011
,
0001
0001
0010
0100
0000
1000
0002
0000
,
0000
0010
0013
0000
,
0001
0000
0010
0000
0100
0000
0010
0000
1000
0100
1000
0000
0001
0000
0100
0000
,
0020
0000
0230
0000
,
0310
1000
0001
0100
0010
0100
0000
1010
,
0000
1010
0000
0100
0001
1000
0100
0100
,
0001
1000
0001
0010
0100
0001
0100
0101
,
0000
0101
0000
0001
1000
0010
0100
0001
,
0100
1000
0001
1000
0010
0100
0010
0110
,
0000
0110
0000
0001
0010
0001
0100
0010
,
0100
1000
0001
0100
0001
1000
0001
1001
,
0000
1001
0000
0100
1000
0100
0010
0100
,
1000
0000
0001
0000
1000
0000
0100
0000
0010
0100
0010
0000
0010
0000
0100
0000
,
1000
0100
0010
0001
0100
0001
0010
0100
,
1000
0000
0010
0000
1000
0000
0001
0000
0100
0010
0100
0000
0001
0000
0100
0000
,
0001
0000
0100
0010
0100
0000
1000
0000
0010
0100
0010
0000
0100
0000
0001
0000
,
1000
0000
0100
0000
0010
0000
0100
0000
1000
0001
1000
0000
0010
0000
0100
0000
,
0001
0010
0100
1000
0010
1000
0100
0010
,
0001
0010
0100
0010
0001
0100
0010
0100
,
1000
0000
1100
0000
0100
0000
0010
0001
,
0020
0000
0001
0000
0130
0000
0001
0010
,
1000
0200
0320
0230
,
2300
0001
3010
0001
,
0020
0000
0031
2000
0010
3000
0200
0000
,
0301
0000
0010
0000
0110
0000
1000
0010
,
0200
0000
0301
0000
0200
0000
0310
0100
,
2000
0000
0010
0000
3010
0001
0010
1000
,
0020
0000
0000
0000
0031
0000
0010
0100
,
0001
0000
0010
0000
0100
0010
0001
0100
,
0001
0001
0110
1000
,
0210
0000
0000
0000
0310
0000
0010
0100
,
0002
0000
0103
0020
0000
0030
0200
0000
,
2300
0000
0000
0000
3001
0000
0010
0001
,
0200
0310
0002
0013
,
0200
0000
0000
0000
0010
0000
0000
0000
0000
0000
0000
0000
0310
0000
0001
0010
,
0002
0000
0010
0000
0010
0000
0013
0100
,
2000
0000
0000
0000
0000
0000
0001
0001
,
3000
0001
0010
1001
,
0002
1000
0000
0000
1000
0000
1003
1000
,
0020
0000
0000
0000
0000
0030
2000
0000
0000
0000
0000
3000
0200
0000
0000
0300
,
0020
0000
0000
0000
0000
0000
0130
0100
,
0020
0000
2030
0000
,
3002
1000
0000
0000
1000
0000
0100
0100
,
0200
0000
0000
0000
,
0303
0000
0000
0000
;

//---------------dance-single - ----------------
#NOTEDATA:;
#CHARTNAME:;
#STEPSTYPE:dance-single;
#DESCRIPTION:;
#CHARTSTYLE:;
#DIFFICULTY:Medium;
#METER:5;
#RADARVALUES:0.301295,0.421813,0.066502,0.294509,0.000000,184.000000,7.000000,31.000000,0.000000,0.000000,0.000000,0.000000,0.000000,0.301295,0.421813,0.066502,0.294509,0.000000,184.000000,7.000000,31.000000,0.000000,0.000000,0.000000,0.000000,0.000000;
#CREDIT:;
#NOTES:
0000
0000
0000
0000
,
0000
0000
0000
0000
,
0200
0000
0000
0000
,
0000
0000
0000
0000
,
0302
0000
0000
0000
,
0000
0000
0000
0000
,
0203
0000
0000
0000
,
0000
0000
0000
0000
,
2300
0000
0000
0000
,
0000
0000
0000
0000
,
3001
0000
0000
0000
0000
0000
1000
0001
,
0000
0000
1001
0000
,
0000
0100
0000
0000
0100
0000
0010
0100
,
0000
0100
0001
0100
,
1000
0000
0000
0000
0000
0000
1000
0001
,
0000
0000
0110
0000
,
0001
0010
0000
0000
0100
0000
1000
0001
,
0200
0000
0000
0000
,
0301
0000
0000
0001
0000
0000
0002
0000
,
0000
0000
0000
0003
,
1000
0000
0000
1000
0000
0000
2000
0000
,
0000
0000
0000
3000
0100
0000
0100
0000
,
0010
0000
0000
0010
0000
0000
0020
0000
,
0000
0000
0000
0000
0000
0030
0000
0000
,
0010
0000
0010
0100
,
1000
0001
0010
0100
,
0001
0000
0000
0010
0000
0000
0200
0000
,
0000
0000
0000
0000
0000
0300
1000
0000
,
1000
0000
0000
0100
0000
0000
0020
0000
,
0000
0000
0000
0030
0100
0000
0010
0000
,
0010
0000
0000
0010
0000
0000
0200
0000
,
0000
0000
0000
0300
,
0002
0000
0000
0003
0020
0000
0000
0030
,
0200
0000
0000
0300
0020
0000
0000
0030
,
1000
0000
0100
0000
0001
0100
0001
0000
,
0001
0000
0100
0000
1000
0010
1000
0000
,
1000
0000
0001
0000
0100
0000
0010
0100
,
0010
0000
0001
0000
0100
0000
0010
0001
,
0010
0000
1100
0000
0010
0100
1000
0000
,
0100
0000
0011
0000
0100
0010
0001
0000
,
1000
0000
1010
0000
0100
0010
1000
0000
,
0001
0000
0101
0000
0010
0100
0001
0000
,
0001
0000
0100
0000
0001
0100
0010
0000
,
0010
0000
1000
0100
1000
0100
1000
0000
,
1000
0000
0010
0000
0100
1000
0010
0000
,
0100
0000
0001
0010
0001
0010
0001
0000
,
1000
0100
1000
0000
0001
0010
0001
0000
,
0100
1000
0100
0000
0010
0001
0010
0000
,
1000
0100
1000
0100
0010
0001
0010
0001
,
0010
0010
0100
0100
,
0020
0000
0000
0000
,
0030
0100
0001
0100
,
2000
0000
0000
0000
,
3001
0000
0000
0010
0000
0000
0010
0000
,
0200
0000
0000
0300
,
0001
0000
1000
0000
,
0002
0000
0000
0003
,
2000
0000
0000
3000
,
0200
0000
0000
0000
,
0300
0010
1000
0010
,
0002
0000
0000
0003
,
1000
0000
0000
0100
0000
0000
0010
0000
,
0220
0000
0000
0330
,
0001
0000
0100
0000
,
0020
0000
0000
0030
,
2000
0000
0000
3000
,
0200
0000
0000
0000
,
0300
0010
0100
0001
,
0020
0000
0000
0030
,
0100
0000
0000
0100
0000
0000
0100
0000
,
2000
0000
0000
3000
,
0001
0000
1000
0000
,
0200
0000
0000
0000
,
0020
0000
0000
0000
,
0330
0000
0000
0000
;

//---------------dance-single - ----------------
#NOTEDATA:;
#CHARTNAME:;
#STEPSTYPE:dance-single;
#DESCRIPTION:;
#CHARTSTYLE:;
#DIFFICULTY:Easy;
#METER:3;
#RADARVALUES:0.230721,0.351511,0.047501,0.275508,0.000000,136.000000,5.000000,29.000000,0.000000,0.000000,0.000000,0.000000,0.000000,0.230721,0.351511,0.047501,0.275508,0.000000,136.000000,5.000000,29.000000,0.000000,0.000000,0.000000,0.000000,0.000000;
#CREDIT:;
#NOTES:
// measure 0
0000
0000
0000
0000
,  // measure 1
0000
0000
0000
0000
,  // measure 2
2000
0000
0000
0000
,  // measure 3
0000
0000
0000
0000
,  // measure 4
3200
0000
0000
0000
,  // measure 5
0000
0000
0000
0000
,  // measure 6
0320
0000
0000
0000
,  // measure 7
0000
0000
0000
0000
,  // measure 8
0032
0000
0000
0000
,  // measure 9
0000
0000
0000
0000
,  // measure 10
1003
0000
0000
0000
,  // measure 11
0001
0000
1000
0000
,  // measure 12
0001
0000
0000
0000
,  // measure 13
0100
0000
0010
0000
,  // measure 14
0100
0000
0000
0000
,  // measure 15
0001
0000
1000
0000
,  // measure 16
0010
0000
0010
0100
,  // measure 17
0020
0000
0000
0030
,  // measure 18
0001
0000
0010
0200
,  // measure 19
0000
0000
0000
0300
,  // measure 20
1000
0000
0100
0020
,  // measure 21
0000
0030
1000
0001
,  // measure 22
0100
0000
0010
0002
,  // measure 23
0000
0000
0000
0003
,  // measure 24
1000
0000
1001
0000
,  // measure 25
0001
0000
1001
0000
,  // measure 26
0010
0000
0100
2000
,  // measure 27
0000
0000
0000
3000
,  // measure 28
0100
0000
0010
0002
,  // measure 29
0000
0003
1000
0100
,  // measure 30
1000
0000
0001
0020
,  // measure 31
0000
0000
0030
0000
,  // measure 32
0010
0000
0110
0000
,  // measure 33
0100
0000
0110
0000
,  // measure 34
2002
0000
0000
0000
,  // measure 35
0000
0000
0000
3003
,  // measure 36
0001
0100
0010
1000
,  // measure 37
0010
0100
0001
1000
,  // measure 38
0010
0001
1000
0010
,  // measure 39
0100
0001
1000
0100
,  // measure 40
0010
1000
0010
0100
,  // measure 41
1000
0001
0010
0100
,  // measure 42
0001
0010
0010
0100
,  // measure 43
1000
0100
0100
0010
,  // measure 44
0001
1000
1000
0100
,  // measure 45
0010
0001
0001
0100
,  // measure 46
1000
0000
0100
0000
0010
0100
0010
0000
,  // measure 47
0001
0000
0100
0000
0010
0100
0010
0000
,  // measure 48
1000
0100
0010
0100
,  // measure 49
0002
0000
0000
0013
,  // measure 50
0200
0000
0000
0300
,  // measure 51
0000
0010
0100
0001
,  // measure 52
2000
0000
0000
3000
,  // measure 53
0001
0000
0010
0000
,  // measure 54
0200
0000
0000
0300
,  // measure 55
0100
0000
0010
0000
,  // measure 56
0020
0000
0000
0030
,  // measure 57
2000
0000
0000
3100
,  // measure 58
0002
0000
0000
0003
,  // measure 59
0000
1000
0001
1000
,  // measure 60
0200
0000
0000
0300
,  // measure 61
0010
0000
0000
0010
0000
0000
0010
0000
,  // measure 62
0020
0000
0000
0030
,  // measure 63
0001
0000
0100
0000
,  // measure 64
0200
0000
0000
0300
,  // measure 65
0200
0000
0000
0310
,  // measure 66
2000
0000
0000
0000
,  // measure 67
0000
0000
0000
0000
,  // measure 68
3020
0000
0000
0000
,  // measure 69
0000
0000
0000
0000
,  // measure 70
0230
0000
0000
0000
,  // measure 71
0000
0000
0000
0000
,  // measure 72
0302
0000
0000
0000
,  // measure 73
0200
0000
0000
0000
,  // measure 74
0303
0000
0000
0000
;
