#TITLE:Get Jinxed;
#SUBTITLE:;
#ARTIST:Riot Games;
#TITLETRANSLIT:;
#SUBTITLETRANSLIT:;
#ARTISTTRANSLIT:;
#CREDIT:;
#BANNER:Get Jinxed-bn.png;
#BACKGROUND:Get Jinxed-bg.png;
#LYRICSPATH:;
#CDTITLE:cd.png;
#MUSIC:Get Jinxed.ogg;
#OFFSET:-5.678;
#SAMPLESTART:40.530;
#SAMPLELENGTH:12.000;
#SELECTABLE:YES;
#BPMS:0.000=180.040;
#STOPS:96.000=2.000
;
#BGCHANGES:;

//---------------dance-single - ----------------
#NOTES:
     dance-single:
     :
     Medium:
     6:
     0.428,0.521,0.275,0.375,0.000:
2000
0000
0000
0000
,
0010
0000
0010
0000
,
3020
0000
0000
0000
,
0100
0000
0100
0000
,
0230
0000
0000
0000
,
0001
0000
0001
0000
,
0302
0000
0000
0000
,
1000
0000
1000
0000
,
2003
0000
3020
0000
,
0130
0000
0100
0100
,
0200
0000
0310
0000
,
1001
0000
0001
1000
,
0002
0000
2003
0000
,
3002
0000
0103
0100
,
0200
0000
0302
0000
,
1003
0000
0001
0000
1000
0001
1000
0001
,
1000
0010
0010
0010
,
0110
0000
0110
0000
0100
0010
0100
0010
,
0100
0100
0001
0001
,
1000
0000
0010
0000
1000
0010
1000
0010
,
1000
1000
0010
0010
,
0100
0000
0001
0000
0010
0001
0010
0001
,
0010
0001
0001
1000
,
1000
0000
0010
1000
0010
0000
1000
0000
,
2000
3001
0002
1003
,
0010
1010
0101
0010
,
0100
0000
0001
0100
0010
0000
0010
1000
,
0100
1000
0010
1000
0010
0000
0010
0000
,
0100
0110
0001
1000
,
0100
0000
0010
0100
0010
0000
0001
0000
,
1000
0000
0010
1000
0010
0000
0100
0000
,
0100
0010
0110
0110
,
1001
1001
0001
0200
,
0302
0000
2003
0000
3020
0000
0130
0001
,
0100
0010
0010
1000
,
0100
0010
0010
0010
,
0022
0030
1003
1000
,
0010
1000
1010
1010
,
0101
0101
1000
0010
,
0100
0010
1001
0110
,
0001
0100
1002
0000
,
2003
0000
3002
0000
,
0103
0100
0200
0000
,
0320
0000
0000
0000
2030
0000
0000
3000
,
0001
0010
0002
0000
,
2003
0000
3002
0000
,
2003
0000
3020
0000
,
0230
0000
0302
0000
,
1003
0000
0001
1000
0001
0000
0001
0000
,
0100
0101
1010
0100
,
0010
0000
1000
0010
0100
0000
0100
0001
,
0010
0001
0100
0001
0100
0000
0200
0000
,
0310
0110
1000
0001
,
0010
0000
0100
0010
0100
0000
1000
0000
,
0001
0000
0100
0001
0100
0000
0010
0000
,
0010
0100
0110
0110
,
1001
1001
1000
0002
,
0203
0000
0302
0000
0203
0000
0310
1000
,
0010
0100
0100
0001
,
0010
0100
0100
0100
,
2200
0300
3001
0001
,
0100
0001
0101
0101
,
1010
1010
0001
0100
,
0010
0100
1001
0110
,
1000
0000
0010
0000
1000
0001
1000
0000
,
0010
0100
0010
0000
1000
0001
1000
0000
,
0002
0000
1003
0000
0010
0100
0010
0000
,
0001
1000
0001
0000
0010
0100
0010
0000
,
2000
0000
3001
0000
0010
1000
0100
0000
,
0010
0100
0001
0000
0001
1000
0010
0000
,
0100
0001
1000
0000
0100
0001
0010
0000
,
0010
1000
0100
0000
0200
0000
1300
0000
,
1000
0001
2002
0000
,
0000
0000
0000
0000
,
0000
0000
0000
0000
,
0000
0000
0000
0000
,
0000
0000
0000
0000
,
0000
0000
0000
0000
,
3003
0000
0000
0000
;

//---------------dance-single - ----------------
#NOTES:
     dance-single:
     :
     Hard:
     8:
     0.551,0.560,0.517,0.534,0.004: // measure 1
2001
0000
0000
0000
,  // measure 2
0001
0000
3001
0000
,  // measure 3
1002
0000
0000
0000
,  // measure 4
0100
0000
0103
0000
,  // measure 5
0201
0000
0000
0000
,  // measure 6
0001
0000
0301
0000
,  // measure 7
1002
0000
0000
0000
,  // measure 8
0100
0000
0103
0100
,  // measure 9
0200
0300
0220
0330
,  // measure 10
2002
3003
0001
0001
,  // measure 11
2020
3030
0202
0303
,  // measure 12
2020
3030
0010
0010
,  // measure 13
0200
0000
0320
0000
,  // measure 14
2030
0000
3001
1000
,  // measure 15
0020
0000
0000
0000
0200
0030
0000
0000
,  // measure 16
0301
0000
1000
0000
0010
1000
0010
1000
,  // measure 17
0010
0000
0100
0001
0100
0010
1000
0001
,  // measure 18
0100
0000
0010
0000
0110
0000
0010
1000
,  // measure 19
0010
0100
0001
0100
0010
1000
0001
1000
,  // measure 20
0020
0230
0302
1003
,  // measure 21
1000
0001
1000
0010
0100
0001
0100
0001
,  // measure 22
0010
0011
1100
0110
,  // measure 23
1001
0000
0001
1000
0010
1000
0100
1000
,  // measure 24
0020
0000
2030
0000
3001
1000
0010
1000
,  // measure 25
0020
0000
0130
0010
0100
0000
0001
0000
,  // measure 26
1010
0000
1100
0000
0110
0000
0001
0100
,  // measure 27
0010
0000
0110
0000
0001
0000
0100
0010
,  // measure 28
0100
0001
0100
0010
1000
0000
1001
0000
,  // measure 29
0110
0000
1100
0000
0010
0100
0001
0100
,  // measure 30
0010
0000
0100
0001
0100
0000
0010
0000
,  // measure 31
1100
0000
0110
0000
0010
1000
0010
1000
,  // measure 32
0100
1000
0010
0100
0010
0000
0010
0000
,  // measure 33
0110
0110
1001
0011
,  // measure 34
1100
0000
1001
0000
0110
0000
0001
1000
,  // measure 35
0002
2003
3010
0100
,  // measure 36
0010
1000
1001
1001
,  // measure 37
0220
0330
0200
0320
,  // measure 38
2030
3002
0203
0310
,  // measure 39
1010
0101
0110
1001
,  // measure 40
2000
3020
0230
0302
,  // measure 41
0013
0010
2001
0000
,  // measure 42
3002
0000
0000
0000
1003
1000
0000
0010
,  // measure 43
0020
0000
0030
0000
2001
0000
0000
0001
,  // measure 44
3002
0000
0000
0000
1003
1000
0000
0010
,  // measure 45
0020
0000
0100
0000
0230
0000
0000
0010
,  // measure 46
0320
0000
0000
0000
1030
1000
0000
0001
,  // measure 47
0002
0000
1000
0000
0203
0000
0000
0010
,  // measure 48
0320
0000
0030
0000
0001
0001
0000
1000
,  // measure 49
1000
0000
0001
0000
1000
0000
0010
1000
0010
0000
0000
0000
2000
0000
0000
0000
,  // measure 50
0001
0010
3001
1010
,  // measure 51
1010
0000
1000
0001
1000
0000
1000
0010
,  // measure 52
0100
0010
0100
0001
2000
0000
0100
0000
,  // measure 53
3100
0000
1100
0000
1000
0010
0100
0001
,  // measure 54
1000
0000
0100
0010
0100
0000
1001
0000
,  // measure 55
0110
0000
1000
0001
1000
0010
0100
0010
,  // measure 56
1000
0001
0100
0010
0100
0000
0100
0000
,  // measure 57
0110
0110
2001
0001
,  // measure 58
0010
0001
3002
0100
,  // measure 59
1000
0103
1010
1010
,  // measure 60
0101
0101
0110
1001
,  // measure 61
2002
3003
0002
0023
,  // measure 62
0130
1010
1010
0101
,  // measure 63
0101
1010
1010
0010
,  // measure 64
0010
0100
0100
1001
,  // measure 65
0200
0000
0310
0000
0100
0010
0100
0001
,  // measure 66
0100
0010
0100
0001
1000
0010
1000
0100
,  // measure 67
1000
0010
0100
0001
1000
0001
0010
0001
,  // measure 68
0010
0100
0010
0001
1000
0010
0100
0001
,  // measure 69
1000
0010
0100
0100
0001
0100
0010
0100
,  // measure 70
0001
1000
0100
1000
0001
1000
0010
0100
,  // measure 71
0001
1000
0010
0100
0001
0010
0100
1000
,  // measure 72
0001
0100
0010
1000
0001
1000
0010
1000
,  // measure 73
0020
1030
2002
0000
,  // measure 74
0000
0003
0020
0000
,  // measure 75
0000
0030
0002
0000
,  // measure 76
0000
0000
0000
0000
,  // measure 77
0000
0000
0000
0000
,  // measure 78
0000
0000
0000
0000
,  // measure 79
0000
0000
0000
0000
,  // measure 80
3003
0000
0000
0000
;

//---------------dance-single - ----------------
#NOTES:
     dance-single:
     :
     Easy:
     3:
     0.267,0.325,0.100,0.092,0.000:
2000
0000
0000
0000
,
0000
0000
0000
0000
,
3002
0000
0000
0000
,
0000
0000
0000
0000
,
0203
0000
0000
0000
,
0000
0000
0000
0000
,
0320
0000
0000
0000
,
0000
0000
0000
0000
,
0130
0000
0100
0000
,
0100
0000
0100
0100
,
0010
0000
0010
0000
,
0020
0030
0010
0010
,
1000
0000
1000
0000
,
1000
0000
1000
1000
,
0001
0000
0001
0000
,
0001
1000
0010
1000
,
0100
1000
0010
1000
,
0100
1000
0000
0010
,
0010
0100
0001
1000
,
0002
0000
1000
1000
,
1003
1000
0010
0100
,
0001
0010
0000
0001
,
1000
0100
1000
0010
,
0100
0000
0001
0000
,
1001
0000
0000
0001
,
0001
0000
0000
1000
,
1000
0010
1000
0100
,
1000
0010
0100
0100
,
0100
0100
0000
0001
,
0001
1000
0010
1000
,
1010
0000
0000
0001
,
1000
0100
0010
0001
,
1000
0000
0000
1000
,
1000
0010
0010
0100
,
0001
1001
0000
0010
,
0010
0100
0100
0010
,
0220
0330
0000
0001
,
0001
1000
0100
1000
,
0010
0100
0000
0100
,
0100
0010
1000
0001
,
0100
0010
1001
0000
,
0000
0000
0010
0000
,
0000
0000
0100
0000
,
0000
0000
1001
0000
,
0010
0010
0010
0000
,
0001
0000
1000
0000
,
0010
0000
1000
0000
,
0100
0000
1000
0000
,
0010
1000
0010
0010
,
0010
0000
1000
0001
,
1000
0010
0100
0001
,
1000
0010
0100
0100
,
0010
0110
0000
0001
,
0001
1000
0010
1000
,
1010
0000
0100
0100
,
1000
0001
0100
0100
,
0100
0000
0010
0010
,
1000
0001
0010
0100
,
1000
1010
0000
0010
,
0010
1000
0001
0100
,
0200
0000
0300
0010
,
0010
1000
0001
1000
,
0100
1010
0000
0001
,
0001
0100
0010
1000
,
0001
0010
1010
0000
,
0001
0000
1000
0000
,
0010
0000
1000
0000
,
0001
0000
1000
0000
,
0010
0000
1000
0010
,
1000
0010
0100
0001
,
0100
0001
0100
0010
,
0100
0001
1000
0010
,
0100
0001
2002
0000
,
0000
0000
0000
0000
,
0000
0000
0000
0000
,
0000
0000
0000
0000
,
0000
0000
0000
0000
,
0000
0000
0000
0000
,
3003
0000
0000
0000
;
