#TITLE:Gasei Sozai Sono 1;
#SUBTITLE:;
#ARTIST:Rengoku Teien;
#TITLETRANSLIT:;
#SUBTITLETRANSLIT:;
#ARTISTTRANSLIT:;
#GENRE:;
#CREDIT:;
#BANNER:[Not Rhythm Games] - Gasei Sozai Sono 1.png;
#BACKGROUND:[Not Rhythm Games] - Gasei Sozai Sono 1-bg.png;
#LYRICSPATH:;
#CDTITLE:cdtitle.png;
#MUSIC:Gasei Sozai sono 1.ogg;
#OFFSET:-0.870000;
#SAMPLESTART:3.260000;
#SAMPLELENGTH:12.000000;
#SELECTABLE:YES;
#BPMS:0.000000=200.000000
;
#STOPS:
;
#BGCHANGES:;
#KEYSOUNDS:;
#ATTACKS:;

//---------------dance-single - ----------------
#NOTES:
     dance-single:
     :
     Hard:
     8:
     0.513667,0.589356,0.261936,0.000000,0.000000,280.000000,22.000000,0.000000,0.000000,0.000000,0.000000,0.513667,0.589356,0.261936,0.000000,0.000000,280.000000,22.000000,0.000000,0.000000,0.000000,0.000000:
// measure 0
0000
0000
0000
0000
,  // measure 1
0000
0000
0000
0000
,  // measure 2
1000
0010
0001
0000
0010
0010
0000
0010
,  // measure 3
1000
0100
0010
0000
0001
0001
0000
0001
,  // measure 4
1000
0010
0100
0000
0010
0010
0000
0010
,  // measure 5
1000
0100
0000
0100
0000
0100
0000
0100
,  // measure 6
0010
0001
1000
0000
0010
0010
0000
0010
,  // measure 7
0100
0001
0010
0000
0100
0100
0000
0100
,  // measure 8
1000
0001
0100
0000
0010
0010
0000
0010
,  // measure 9
0100
0001
0000
0001
0000
0001
0000
0001
,  // measure 10
0010
0100
1000
0000
0010
0010
0000
0010
,  // measure 11
0100
0001
0010
0000
0100
0100
0000
0100
,  // measure 12
1000
0010
0100
0000
0010
0010
0000
0010
,  // measure 13
1000
0100
0000
0100
0000
0100
0000
0100
,  // measure 14
0010
0001
1000
0000
0010
0010
0000
0010
,  // measure 15
1000
0100
0010
0000
0001
0001
0000
0001
,  // measure 16
1000
0100
0010
0000
0100
0100
0000
0100
,  // measure 17
1000
0010
0100
0010
0100
0001
0100
0010
,  // measure 18
1000
0000
0001
0010
1000
0000
0001
0000
,  // measure 19
0100
0000
0000
0000
0000
0000
0010
0100
,  // measure 20
1000
0000
0010
0000
,  // measure 21
0100
0000
0000
0010
,  // measure 22
0010
0000
1000
1000
0000
0000
0100
0000
,  // measure 23
0100
0000
0010
0010
0000
0000
0001
0010
,  // measure 24
0100
0000
1000
0010
0000
0000
0000
0000
,  // measure 25
0000
0000
0000
0000
,  // measure 26
0100
0000
1000
0100
0001
0000
0010
0000
,  // measure 27
0010
0000
0000
0000
0000
0000
0100
1000
,  // measure 28
0001
0000
0100
0000
,  // measure 29
0010
0000
0000
1000
,  // measure 30
1000
0000
0001
0001
0000
0000
0010
0000
,  // measure 31
0010
0000
0100
0100
0000
0000
0010
0100
,  // measure 32
1000
0010
0010
0100
,  // measure 33
0100
0000
0000
0000
,  // measure 34
1010
0001
1010
0100
,  // measure 35
0001
0000
0000
0000
0000
0010
0100
0010
,  // measure 36
0001
0000
0000
1000
,  // measure 37
1000
0000
0000
0000
,  // measure 38
0110
0001
0110
1000
,  // measure 39
0001
0000
0010
0000
,  // measure 40
0100
0000
0000
0000
,  // measure 41
0000
0000
0000
0000
,  // measure 42
1100
0010
1100
0001
,  // measure 43
0100
0000
0000
0000
0000
0010
1000
0010
,  // measure 44
0100
0000
0000
0010
,  // measure 45
0010
0000
0000
0000
,  // measure 46
1001
0100
1001
0010
,  // measure 47
0100
0000
1000
0100
0010
0000
1000
0000
,  // measure 48
1001
0000
0000
0000
,  // measure 49
0000
0000
0000
0000
,  // measure 50
0001
0100
1000
0000
0100
0101
0000
0001
,  // measure 51
1000
0100
0001
0000
0100
1100
0000
1000
,  // measure 52
0010
0001
0010
0000
1000
1001
0000
0001
,  // measure 53
0010
0100
0000
0100
0000
0100
0000
0100
,  // measure 54
1000
0010
0001
0000
0010
0110
0000
0100
,  // measure 55
0001
0010
1000
0000
0010
0011
0000
0001
,  // measure 56
0100
1000
0100
0000
0010
1010
0000
1000
,  // measure 57
0100
0010
0000
0010
0000
0010
0000
0010
,  // measure 58
0001
0100
1000
0000
0100
0110
0000
0010
,  // measure 59
1000
0100
0010
0000
0001
1001
0000
0001
,  // measure 60
0010
1000
0010
0000
0100
1100
0000
1000
,  // measure 61
0100
0010
0000
0010
0000
0010
0000
0010
,  // measure 62
0001
0100
0010
0000
1000
1100
0000
0100
,  // measure 63
0010
0001
0100
0000
0010
1010
0000
1000
,  // measure 64
0100
0001
0100
0000
1000
1010
0000
0010
,  // measure 65
0100
0001
0100
0001
1000
0010
0001
0010
,  // measure 66
0110
0000
0000
0000
;

//---------------dance-single - ----------------
#NOTES:
     dance-single:
     :
     Medium:
     6:
     0.426922,0.432194,0.095249,0.000000,0.000000,243.000000,8.000000,0.000000,0.000000,0.000000,0.000000,0.426922,0.432194,0.095249,0.000000,0.000000,243.000000,8.000000,0.000000,0.000000,0.000000,0.000000:
0000
0000
0000
0000
,
0000
0000
0000
0000
,
1000
0000
0001
0000
0100
0010
0000
0100
,
0001
0000
0010
0000
0100
1000
0000
0010
,
0100
0000
0001
0000
0010
0100
0000
1000
,
0010
0100
0000
0001
0000
0100
0000
0001
,
0010
0000
0100
0000
1000
0010
0000
0100
,
0001
0000
0010
0000
0100
1000
0000
0001
,
0100
0000
0010
0000
1000
0001
0000
0010
,
0100
1000
0000
0001
0000
1000
0000
0001
,
0010
0000
0100
0000
1000
0010
0000
0100
,
0001
0000
0010
0000
0001
0100
0000
0010
,
1000
0000
0001
0000
0100
0010
0000
1000
,
0100
0010
0000
0001
0000
0010
0000
0001
,
0100
0000
0010
0000
1000
0100
0000
0010
,
0001
0000
0100
0000
0010
1000
0000
0100
,
0010
0000
0001
0000
0100
0010
0000
1000
,
0100
0010
0000
0010
0000
0001
0000
0001
,
0100
1000
0100
0001
,
0010
0000
0000
0100
,
0100
0000
1000
0000
,
0001
0000
0000
0010
,
0010
0000
0100
1000
0000
0000
0010
0000
,
0010
0000
0100
0001
0000
0000
0010
0000
,
0010
0000
0100
1000
0000
0000
0000
0000
,
0000
0000
0000
0000
,
1001
0001
0100
1000
,
0100
0000
0000
0001
,
0001
0000
0010
0000
,
0100
0000
0000
1000
,
1000
0000
0001
1000
0000
0000
0010
0000
,
0010
0000
1000
0001
0000
0000
0010
0000
,
0010
0100
1000
0001
,
1000
0000
0000
0000
,
0010
0100
0010
1000
,
0001
0000
0000
1001
,
0110
0000
0000
0100
,
0100
0000
0000
0000
,
0001
1000
0001
0100
,
0010
0000
1010
0000
,
0101
0000
0000
0000
,
0000
0000
0000
0000
,
0100
0010
0100
0001
,
1000
0000
0000
1001
,
0110
0000
0000
0010
,
0010
0000
0000
0000
,
0100
0001
1000
0100
,
0010
1000
0010
0001
,
0100
0000
0000
0000
,
0010
1000
0001
0100
,
0110
0000
0010
0000
1000
0001
0000
0100
,
0010
0000
1000
0000
0100
0010
0000
0001
,
0100
0000
0010
0000
1000
0001
0000
0010
,
0100
1000
0000
0001
0000
1000
0000
0001
,
0100
0000
0010
0000
1000
0001
0000
0100
,
0010
0000
1000
0000
0100
0010
0000
0001
,
0100
0000
0010
0000
1000
0100
0000
0010
,
0001
0100
0000
0010
0000
0100
0000
0010
,
1000
0000
0001
0000
0010
0100
0000
1000
,
0001
0000
0100
0000
0010
0100
0000
0001
,
0010
0000
0100
0000
1000
0010
0000
0100
,
0001
0010
0000
0100
0000
0010
0000
0100
,
1000
0000
0010
0000
0100
0001
0000
0010
,
0100
0000
1000
0000
0010
0100
0000
0001
,
0010
0000
0100
0000
1000
0001
0000
0100
,
0010
1000
0000
0001
0000
1000
0000
0001
,
0100
0000
0000
0000
;

//---------------dance-single - ----------------
#NOTES:
     dance-single:
     :
     Easy:
     4:
     0.333373,0.314323,0.107156,0.000000,0.000000,187.000000,9.000000,0.000000,0.000000,0.000000,0.000000,0.333373,0.314323,0.107156,0.000000,0.000000,187.000000,9.000000,0.000000,0.000000,0.000000,0.000000:
0000
0000
0000
0000
,
0000
0000
0000
0000
,
1000
0001
1000
0000
,
0010
0100
0010
0000
,
0100
0001
0010
0100
,
1000
0010
0100
0001
,
1000
0100
0010
0000
,
0001
1000
0010
0000
,
0100
0010
1000
0100
,
0010
0001
0010
0100
,
1000
0010
0100
0000
,
0010
1000
0001
0000
,
0010
0100
1000
0010
,
0100
0001
0010
0100
,
1000
0010
1000
0000
,
0100
0010
0001
0000
,
0100
0010
0100
0001
,
0010
0100
1000
0010
,
0100
0000
1001
0000
,
0000
0010
0110
0000
,
0100
0001
1000
0000
,
0000
0100
0110
0000
,
0010
0001
1000
0000
,
0000
0001
0101
0000
,
0100
0010
1000
0000
,
0000
0100
1100
0000
,
1000
0100
0010
0000
,
0000
0001
0101
0000
,
0100
0001
0010
0000
,
0000
0100
1100
0000
,
1000
0100
0010
0000
,
0000
0100
1100
0000
,
1000
0001
0010
0000
,
0100
1000
0000
0010
0100
0000
0001
0000
,
1001
0000
1000
0000
,
0010
0000
0010
0000
,
0100
0000
0100
0000
,
0001
0000
0001
0000
,
0010
0000
0010
0000
,
0100
0000
0100
0000
,
0001
0000
0001
0000
,
1000
0000
1000
0000
,
0010
0000
0010
0000
,
0100
0000
0100
0000
,
0010
0000
0010
0000
,
1000
0000
1000
0000
,
0001
0000
0001
0000
,
0100
0000
0100
0000
,
0010
0000
0010
0000
,
1000
0000
1000
0000
,
0001
0100
0001
0000
,
1000
0010
1000
0000
,
0100
0010
0001
0100
,
0010
1000
0100
0010
,
0001
1000
0001
0000
,
0100
0010
0100
0000
,
0001
0010
0100
1000
,
0010
0100
0001
0010
,
0100
1000
0100
0000
,
0010
0001
0010
0000
,
0100
1000
0010
0100
,
0001
0010
0100
1000
,
0010
0100
0001
0000
,
0010
0100
1000
0000
,
0010
0100
0001
0010
,
0100
1000
0010
0100
,
0001
0000
0000
0000
;

//---------------dance-single - ----------------
#NOTES:
     dance-single:
     :
     Beginner:
     2:
     0.158182,0.235742,0.095249,0.000000,0.000000,85.000000,8.000000,0.000000,0.000000,0.000000,0.000000,0.158182,0.235742,0.095249,0.000000,0.000000,85.000000,8.000000,0.000000,0.000000,0.000000,0.000000:
0000
0000
0000
0000
,
0000
0000
0000
0000
,
1000
0000
0000
0000
,
0001
0000
0000
0000
,
0100
0000
0000
0000
,
0010
1000
0010
1000
,
0010
0000
0000
0000
,
0100
0000
0000
0000
,
0001
0000
0000
0000
,
1000
0001
1000
0001
,
1000
0000
0000
0000
,
0010
0000
0000
0000
,
0100
0000
0000
0000
,
0001
0010
0001
0010
,
0001
0000
0000
0000
,
1000
0000
0000
0000
,
0100
0000
0000
0000
,
0010
0100
0010
0100
,
0010
0000
0000
0000
,
0000
0000
0000
0000
,
0001
0000
0000
0000
,
0000
0000
0000
0000
,
1000
0000
0000
0000
,
0000
0000
0000
0000
,
0010
0000
0000
0000
,
0000
0000
0000
0000
,
0100
0000
0000
0000
,
0000
0000
0000
0000
,
0001
0000
0000
0000
,
0000
0000
0000
0000
,
1000
0000
0000
0000
,
0000
0000
0000
0000
,
0100
0000
0000
0000
,
0000
0000
0000
0000
,
1001
0000
0000
0000
,
0000
0000
0000
0000
,
0110
0000
0000
0000
,
0000
0000
0000
0000
,
1100
0000
0000
0000
,
0000
0000
0000
0000
,
0011
0000
0000
0000
,
0000
0000
0000
0000
,
1010
0000
0000
0000
,
0000
0000
0000
0000
,
0101
0000
0000
0000
,
0000
0000
0000
0000
,
0110
0000
0000
0000
,
0000
0000
0000
0000
,
1100
0000
0000
0000
,
0000
0000
0000
0000
,
0001
0000
1000
0000
,
0001
0000
1000
0000
,
0010
0000
0100
0000
,
0001
1000
0001
1000
,
0001
0000
0010
0000
,
0100
0000
1000
0000
,
0100
0000
0010
0000
,
0100
1000
0100
1000
,
0100
0000
0010
0000
,
0001
0000
0100
0000
,
0010
0000
1000
0000
,
0001
0010
0001
0010
,
0001
0000
1000
0000
,
0010
0000
0100
0000
,
0001
0000
1000
0000
,
0010
0100
0010
0100
,
0010
0000
0000
0000
;
