#TITLE:Final Boss;
#SUBTITLE:(Squid Sisters Ver.);
#ARTIST:峰岸 透;
#TITLETRANSLIT:;
#SUBTITLETRANSLIT:;
#ARTISTTRANSLIT:Toru Minegishi;
#GENRE:;
#CREDIT:;
#BANNER:[Not Rhythm Games] - Final Boss (Squid Sisters Ver.)-bn.png;
#BACKGROUND:[Not Rhythm Games] - Final Boss (Squid Sisters Ver.)-bg.png;
#LYRICSPATH:;
#CDTITLE:cdtitle.png;
#MUSIC:[Not Rhythm Games] - Final Boss (Squid Sisters Ver.).ogg;
#OFFSET:-1.844000;
#SAMPLESTART:28.344000;
#SAMPLELENGTH:13.000000;
#SELECTABLE:YES;
#DISPLAYBPM:145.000000;
#BPMS:0.000000=145.000000
,92.000000=290.000000
,94.000000=145.000000
,155.000000=290.000000
,157.000000=145.000000
;
#STOPS:92.000000=0.207000,
93.000000=0.207000,
94.000000=0.413000,
155.000000=0.207000,
156.000000=0.207000
;
#BGCHANGES:;
#KEYSOUNDS:;
#ATTACKS:;

//---------------dance-single - ----------------
#NOTES:
     dance-single:
     :
     Hard:
     8:
     0.472423,0.459839,0.077680,0.144263,0.166458,298.000000,291.000000,7.000000,13.000000,0.000000,0.000000,0.472423,0.459839,0.077680,0.144263,0.166458,298.000000,291.000000,7.000000,13.000000,0.000000,0.000000:
// measure 0
0000
0000
0000
0000
,  // measure 1
0000
0000
0000
0000
,  // measure 2
0000
0000
0000
0000
,  // measure 3
0000
0000
0000
0000
,  // measure 4
2000
0000
3020
0000
,  // measure 5
0032
0000
0203
0000
,  // measure 6
1300
0000
0001
0100
0001
0000
1000
0100
,  // measure 7
1000
0010
0100
0001
1000
0001
0010
0100
,  // measure 8
1000
0000
0000
0001
0000
0000
0010
0000
0100
0000
0000
1000
0000
0000
0001
0000
,  // measure 9
0100
0000
0000
1000
0000
0000
0100
0000
0001
0000
0000
1000
0000
0000
0010
0000
,  // measure 10
1000
0000
0000
0001
0000
0000
1000
0000
0100
0000
0000
0010
0000
0000
0001
0000
,  // measure 11
1000
0000
0010
0000
0001
0000
0010
0000
1000
0001
0000
0001
0100
0000
0010
0000
,  // measure 12
0010
0000
0000
1000
0000
0000
0001
0000
0100
0000
0000
0001
0000
0000
1000
0000
,  // measure 13
0100
0000
0010
0000
0100
0000
1000
0000
0010
0100
0000
0100
0001
0000
0001
0000
,  // measure 14
1000
0000
0000
0001
0000
0000
0100
0000
0001
0000
0000
0010
0000
0000
0100
0000
,  // measure 15
1000
0000
0010
0100
0010
0000
0100
0000
0001
0000
1000
0000
0100
0000
0010
0000
,  // measure 16
0001
0000
1000
0001
0200
0000
1000
0000
,  // measure 17
0001
0000
0310
1000
0010
0100
0001
1000
,  // measure 18
0100
0000
0010
0001
1000
0000
0001
1000
,  // measure 19
0001
0100
1000
0100
0001
0000
0100
0010
,  // measure 20
1000
0000
0001
0100
0020
0000
1030
0001
,  // measure 21
1000
0100
0001
0100
0010
1000
0010
0001
,  // measure 22
1000
0000
0001
0100
0001
0100
0010
1000
,  // measure 23
1100
0011
2001
3001
,  // measure 24
0001
0010
1000
0000
1000
0100
0001
0000
,  // measure 25
0001
0010
0100
1000
0100
0010
0001
0100
,  // measure 26
1000
0100
0001
0010
1000
0010
0001
0100
,  // measure 27
0001
0100
1000
0100
1000
0010
0001
0000
,  // measure 28
0001
0100
1000
0000
1000
0100
0001
0100
,  // measure 29
0010
1000
0100
0010
0100
1000
0002
0000
,  // measure 30
0013
0100
2000
0000
3001
0100
0001
0010
,  // measure 31
1000
0010
0001
0010
0100
1000
0001
0000
,  // measure 32
1000
0010
1000
0000
0010
0001
0010
0000
,  // measure 33
0001
0100
0001
0100
1000
0100
0001
0000
,  // measure 34
0100
1000
0100
0000
1000
0010
1000
0010
,  // measure 35
0100
0001
1000
0000
0001
0001
1000
0000
,  // measure 36
0001
0010
0001
0000
0010
1000
0010
1000
,  // measure 37
0100
0001
0100
1000
0010
0001
0200
0000
,  // measure 38
0310
1000
0002
0000
1003
0001
0011
0000
,  // measure 39
1100
0000
0000
0000
1001
0000
0001
0000
0100
0000
0010
0000
1000
0000
0000
0100
,  // measure 40
0000
0000
1000
0000
0010
0000
0000
0100
0000
0000
0001
0000
1000
0000
0000
0001
,  // measure 41
0000
0000
0010
0000
1000
0000
0000
0010
0000
0000
0001
0000
0100
0000
0000
0010
,  // measure 42
0000
0000
1000
0000
0001
0000
0000
0100
0000
0000
0001
0000
0010
0000
0001
0000
,  // measure 43
0010
0000
0100
0000
1000
0010
0000
0010
0100
0000
0001
0000
0001
0000
0000
1000
,  // measure 44
0000
0000
0100
0000
0001
0000
0000
0100
0000
0000
1000
0000
0100
0000
0010
0000
,  // measure 45
0001
0000
1000
0000
0001
0100
0000
0100
0010
0000
0010
0000
1000
0000
0000
0001
,  // measure 46
0000
0000
0100
0000
0010
0000
0000
1000
0000
0000
0001
0000
0010
0000
0100
1000
,  // measure 47
0100
1000
0100
0010
0001
1000
2002
0000
,  // measure 48
0000
0000
0000
3003
;

//---------------dance-single - ----------------
#NOTES:
     dance-single:
     :
     Medium:
     6:
     0.370963,0.432790,0.099875,0.099875,0.000000,234.000000,225.000000,9.000000,9.000000,0.000000,0.000000,0.370963,0.432790,0.099875,0.099875,0.000000,234.000000,225.000000,9.000000,9.000000,0.000000,0.000000:
0000
0000
0000
0000
,
0000
0000
0000
0000
,
0000
0000
0000
0000
,
0000
0000
0000
0000
,
2000
0000
3200
0000
,
0320
0000
0000
0000
,
0031
0000
1000
0001
1000
0000
0010
0100
,
0010
0000
0100
0000
0001
0010
0100
1000
,
0001
0000
0100
0010
1000
0000
0100
0000
,
1000
0010
0001
0100
,
1000
0000
0010
0100
0001
0000
1000
0000
,
0100
0010
0100
0000
0010
0001
0010
0001
,
1000
0000
0010
0100
0001
0000
1000
0000
,
0001
0010
1000
0100
,
0001
0000
0010
0100
1000
0000
0001
0000
,
1000
0000
0010
0000
0100
0000
0001
0100
,
0001
1000
0200
0000
,
0310
0001
0100
1000
,
0100
0001
2000
0000
,
3001
0000
0001
0000
1000
0000
0100
0010
,
0100
0010
0002
0000
,
1003
0010
1000
0100
,
0010
0000
0001
1000
0001
1000
0010
0000
,
1010
0110
0101
1000
,
0001
0010
0100
0000
0100
1000
0001
0000
,
0001
0100
0010
0100
0001
1000
0001
0000
,
0010
1000
0010
0001
,
0100
0000
0010
0000
1000
0001
1000
0000
,
1000
0100
0010
0000
0010
0001
0100
1000
,
0100
0001
1000
0000
0001
0000
0010
0000
,
0100
1000
0100
0000
0010
0001
0010
0001
,
1000
0001
1000
0010
1000
0000
0001
0000
,
0100
0010
0100
0000
0010
1000
0010
0000
,
1000
0001
1000
0100
1000
0001
0100
0000
,
0010
1000
0010
0000
1000
0100
0010
0001
,
0010
0001
0020
0000
0000
0130
1000
0000
,
0001
1000
0001
0000
0100
0001
0100
0000
,
0010
0000
1000
0010
1000
0010
0100
0000
,
0001
0100
0001
0000
1000
0001
1001
0000
,
0011
0110
0100
1000
,
0010
0100
0001
0000
0001
0000
1000
0000
,
0100
0010
0001
0000
0001
0000
0100
0000
,
0010
1000
0001
0000
0001
0000
0010
0100
,
0010
0100
1000
0000
0001
0001
0001
0000
,
0100
0010
1000
0000
1000
0000
0001
0100
,
0001
0100
0010
1000
0001
0001
1000
0000
,
0001
0010
0100
0000
1000
0000
0010
0000
,
0100
0110
1010
2002
,
0000
0000
0000
3003
;

//---------------dance-single - ----------------
#NOTES:
     dance-single:
     :
     Easy:
     3:
     0.196579,0.243444,0.022194,0.288527,0.000000,124.000000,122.000000,2.000000,26.000000,0.000000,0.000000,0.196579,0.243444,0.022194,0.288527,0.000000,124.000000,122.000000,2.000000,26.000000,0.000000,0.000000:
0000
0000
0000
0000
,
0000
0000
0000
0000
,
0000
0000
0000
0000
,
0000
0000
0000
0000
,
2000
0000
3020
0000
,
0230
0000
0000
0000
,
0302
0000
0000
0000
,
2003
0000
3002
0000
,
1003
0000
0100
0000
,
1000
0000
0100
0000
,
0010
0000
0001
0000
,
0010
0001
0010
0010
,
0001
0000
0100
0000
,
0001
0000
0100
0100
,
0010
0000
1000
0000
,
0010
1000
0010
0100
,
0001
0001
2000
0000
,
0000
3000
0010
0000
,
0100
0001
0002
0003
,
1000
1000
0001
0000
,
1000
0010
0020
0030
,
0100
0001
0100
0001
,
0000
1000
1000
0001
,
0010
0010
0011
0002
,
0003
0200
0300
2000
,
3000
0010
0010
0001
,
0100
0001
0100
0010
,
1000
0010
1000
0002
,
0003
0020
0030
0100
,
0100
1000
1000
0002
,
0000
0203
0000
0310
,
0010
1000
0001
2000
,
3000
0200
0300
0002
,
0003
0010
0010
2000
,
3000
0002
0003
0010
,
0010
0200
0000
2300
,
3000
0020
0030
0100
,
0001
0100
0001
1000
,
1000
0001
0001
1000
,
0100
1000
0100
1000
,
0000
0010
0000
1000
,
0000
0010
0000
0100
,
0000
0001
0000
0100
,
0001
0100
0100
0001
,
0000
0010
0000
0001
,
0010
0001
0010
0010
,
0100
0000
1000
0000
,
0100
1000
0100
2002
,
0000
0000
0000
3003
;
